  0
SECTION
  2
HEADER
  9
$ACADVER
  1
AC1006
  9
$DWGCODEPAGE
  3
ansi_936
  9
$INSBASE
 10
0.0
 20
0.0
 30
0.0
  9
$EXTMIN
 10
2626.622705412977
 20
1238.203089351396
  9
$EXTMAX
 10
3604.588040055478
 20
2153.564014865439
  9
$LIMMIN
 10
0.0
 20
0.0
  9
$LIMMAX
 10
420.0
 20
297.0
  9
$ORTHOMODE
 70
     0
  9
$REGENMODE
 70
     1
  9
$FILLMODE
 70
     1
  9
$QTEXTMODE
 70
     0
  9
$MIRRTEXT
 70
     0
  9
$DRAGMODE
 70
     2
  9
$LTSCALE
 40
1.0
  9
$OSMODE
 70
    37
  9
$ATTMODE
 70
     1
  9
$TEXTSIZE
 40
2.5
  9
$TRACEWID
 40
1.0
  9
$TEXTSTYLE
  7
STANDARD
  9
$CLAYER
  8
0
  9
$CELTYPE
  6
BYLAYER
  9
$CECOLOR
 62
   256
  9
$DIMSCALE
 40
1.0
  9
$DIMASZ
 40
2.5
  9
$DIMEXO
 40
0.625
  9
$DIMDLI
 40
3.75
  9
$DIMRND
 40
0.0
  9
$DIMDLE
 40
0.0
  9
$DIMEXE
 40
1.25
  9
$DIMTP
 40
0.0
  9
$DIMTM
 40
0.0
  9
$DIMTXT
 40
2.5
  9
$DIMCEN
 40
2.5
  9
$DIMTSZ
 40
0.0
  9
$DIMTOL
 70
     0
  9
$DIMLIM
 70
     0
  9
$DIMTIH
 70
     0
  9
$DIMTOH
 70
     0
  9
$DIMSE1
 70
     0
  9
$DIMSE2
 70
     0
  9
$DIMTAD
 70
     1
  9
$DIMZIN
 70
     8
  9
$DIMBLK
  1

  9
$DIMASO
 70
     1
  9
$DIMSHO
 70
     1
  9
$DIMPOST
  1

  9
$DIMAPOST
  1

  9
$DIMALT
 70
     0
  9
$DIMALTD
 70
     3
  9
$DIMALTF
 40
0.03937007874016
  9
$DIMLFAC
 40
1.0
  9
$DIMTOFL
 70
     1
  9
$DIMTVP
 40
0.0
  9
$DIMTIX
 70
     0
  9
$DIMSOXD
 70
     0
  9
$DIMSAH
 70
     0
  9
$DIMBLK1
  1

  9
$DIMBLK2
  1

  9
$LUNITS
 70
     2
  9
$LUPREC
 70
     4
  9
$SKETCHINC
 40
1.0
  9
$FILLETRAD
 40
0.0
  9
$AUNITS
 70
     0
  9
$AUPREC
 70
     0
  9
$MENU
  1
.
  9
$ELEVATION
 40
0.0
  9
$THICKNESS
 40
0.0
  9
$LIMCHECK
 70
     0
  9
$CHAMFERA
 40
0.0
  9
$CHAMFERB
 40
0.0
  9
$SKPOLY
 70
     0
  9
$TDCREATE
 40
2458645.461087882
  9
$TDUPDATE
 40
2459103.633236447
  9
$TDINDWG
 40
0.0002439583
  9
$TDUSRTIMER
 40
0.0002439352
  9
$USRTIMER
 70
     1
  9
$ANGBASE
 50
0.0
  9
$ANGDIR
 70
     0
  9
$PDMODE
 70
     0
  9
$PDSIZE
 40
0.0
  9
$PLINEWID
 40
0.0
  9
$COORDS
 70
     1
  9
$SPLFRAME
 70
     0
  9
$SPLINETYPE
 70
     6
  9
$SPLINESEGS
 70
     8
  9
$ATTDIA
 70
     0
  9
$ATTREQ
 70
     1
  9
$HANDLING
 70
     1
  9
$HANDSEED
  5
662
  9
$SURFTAB1
 70
     6
  9
$SURFTAB2
 70
     6
  9
$SURFTYPE
 70
     6
  9
$SURFU
 70
     6
  9
$SURFV
 70
     6
  9
$UCSNAME
  2

  9
$UCSORG
 10
0.0
 20
0.0
 30
0.0
  9
$UCSXDIR
 10
1.0
 20
0.0
 30
0.0
  9
$UCSYDIR
 10
0.0
 20
1.0
 30
0.0
  9
$USERI1
 70
     0
  9
$USERI2
 70
     0
  9
$USERI3
 70
     0
  9
$USERI4
 70
     0
  9
$USERI5
 70
     0
  9
$USERR1
 40
0.0
  9
$USERR2
 40
0.0
  9
$USERR3
 40
0.0
  9
$USERR4
 40
0.0
  9
$USERR5
 40
0.0
  9
$WORLDVIEW
 70
     1
  0
ENDSEC
  0
SECTION
  2
TABLES
  0
TABLE
  2
VPORT
 70
     1
  0
VPORT
  2
*ACTIVE
 70
     0
 10
0.0
 20
0.0
 11
1.0
 21
1.0
 12
3196.157349944001
 22
1440.684066268787
 13
0.0
 23
0.0
 14
10.0
 24
10.0
 15
10.0
 25
10.0
 16
0.0
 26
0.0
 36
1.0
 17
0.0
 27
0.0
 37
0.0
 40
2654.145334364278
 41
2.19212962962963
 42
50.0
 43
0.0
 44
0.0
 50
0.0
 51
0.0
 71
     0
 72
  1000
 73
     1
 74
     3
 75
     0
 76
     0
 77
     0
 78
     0
  0
ENDTAB
  0
TABLE
  2
LTYPE
 70
     4
  0
LTYPE
  2
CONTINUOUS
 70
     0
  3
Solid line
 72
    65
 73
     0
 40
0.0
  0
LTYPE
  2
HIDDENX2
 70
     0
  3
Hidden (2x) ____ ____ ____ ____ ____ ____ ____
 72
    65
 73
     2
 40
19.05
 49
12.7
 49
-6.35
  0
LTYPE
  2
HIDDEN
 70
     0
  3
- - - - - - - - - - - - - - - - - - - -
 72
    65
 73
     2
 40
0.2
 49
0.1
 49
-0.1
  0
LTYPE
  2
HIDDEN2
 70
     0
  3
Hidden (.5x) _ _ _ _ _ _ _ _ _ _ _ _ _ _ _ _ _
 72
    65
 73
     2
 40
4.762499999999999
 49
3.175
 49
-1.5875
  0
ENDTAB
  0
TABLE
  2
LAYER
 70
     7
  0
LAYER
  2
0
 70
     0
 62
     7
  6
CONTINUOUS
  0
LAYER
  2
外框线1
 70
     0
 62
     3
  6
CONTINUOUS
  0
LAYER
  2
DEFPOINTS
 70
     0
 62
     7
  6
CONTINUOUS
  0
LAYER
  2
外框线2
 70
     0
 62
     6
  6
CONTINUOUS
  0
LAYER
  2
标注
 70
     0
 62
     1
  6
CONTINUOUS
  0
LAYER
  2
外框线4
 70
     0
 62
     4
  6
CONTINUOUS
  0
LAYER
  2
外框线5
 70
     0
 62
     2
  6
CONTINUOUS
  0
ENDTAB
  0
TABLE
  2
STYLE
 70
     2
  0
STYLE
  2
STANDARD
 70
     0
 40
0.0
 41
1.0
 50
0.0
 71
     0
 42
2.5
  3
arial.ttf
  4

  0
STYLE
  2
ANNOTATIVE
 70
     0
 40
0.0
 41
1.0
 50
0.0
 71
     0
 42
2.5
  3
arial.ttf
  4

  0
ENDTAB
  0
TABLE
  2
VIEW
 70
     0
  0
ENDTAB
  0
TABLE
  2
UCS
 70
     0
  0
ENDTAB
  0
ENDSEC
  0
SECTION
  2
BLOCKS
  0
BLOCK
  8
0
  2
A$C36197F93
 70
     0
 10
0.0
 20
0.0
 30
0.0
  0
LINE
  5
254
  8
外框线5
 10
83.00004940960207
 20
4.999948006792692
 30
0.0
 11
83.00004940960207
 21
47.99994800679997
 31
0.0
  0
LINE
  5
255
  8
外框线5
 10
70.00004940960207
 20
-0.0000519932000316
 30
0.0
 11
0.0000494096020702
 21
-0.0000519932000316
 31
0.0
  0
LINE
  5
256
  8
外框线2
  6
HIDDENX2
 10
70.00004940960207
 20
1.499948006799968
 30
0.0
 11
0.0000494096020702
 21
1.499948006799968
 31
0.0
  0
LINE
  5
257
  8
外框线5
 10
0.0000494096020702
 20
-0.0000519932000316
 30
0.0
 11
0.0000494096020702
 21
1.499948006799968
 31
0.0
  0
LINE
  5
258
  8
外框线5
 10
70.00004940960207
 20
-0.0000519932073075
 30
0.0
 11
70.00004940960207
 21
4.999948006792692
 31
0.0
  0
LINE
  5
259
  8
外框线2
  6
HIDDENX2
 10
81.50004940960207
 20
4.999948006792692
 30
0.0
 11
81.50004940960207
 21
47.99994800679997
 31
0.0
  0
LINE
  5
25A
  8
外框线5
 10
83.00004940960207
 20
47.99994800679997
 30
0.0
 11
81.50004940960207
 21
47.99994800679997
 31
0.0
  0
LINE
  5
25B
  8
外框线5
 10
81.50004940960207
 20
47.99994800679997
 30
0.0
 11
0.0000494096020702
 21
1.499948006799968
 31
0.0
  0
LINE
  5
25C
  8
外框线5
 10
70.00004940960207
 20
4.999948006792692
 30
0.0
 11
83.00004940960207
 21
4.999948006792692
 31
0.0
  0
ENDBLK
  8
0
  0
BLOCK
  8
0
  2
A$C146E3994
 70
     0
 10
0.0
 20
0.0
 30
0.0
  0
LINE
  5
262
  8
外框线1
 10
13.99996785087569
 20
85.00002227884397
 30
0.0
 11
-0.0000321491243085
 21
85.00002227884397
 31
0.0
  0
LINE
  5
263
  8
外框线1
 10
-0.0000321491243085
 20
85.00002227884397
 30
0.0
 11
-0.0000321491279465
 21
0.0000222788439714
 31
0.0
  0
LINE
  5
264
  8
外框线1
 10
-0.0000321491279465
 20
0.0000222788439714
 30
0.0
 11
11.99996785087205
 21
0.0000222788439714
 31
0.0
  0
ENDBLK
  8
0
  0
BLOCK
  8
0
  2
A$C73DC396D
 70
     0
 10
0.0
 20
0.0
 30
0.0
  0
LINE
  5
26A
  8
外框线5
 10
20.00004033916048
 20
0.0000078342527559
 30
0.0
 11
0.0000403391604777
 21
0.0000078342527559
 31
0.0
  0
LINE
  5
26B
  8
外框线5
 10
20.00004033916048
 20
1.500007834252756
 30
0.0
 11
1.500040339160478
 21
1.500007834252756
 31
0.0
  0
LINE
  5
26C
  8
外框线5
 10
0.0000403391604777
 20
0.0000078342527559
 30
0.0
 11
0.0000403391604777
 21
48.00000783426367
 31
0.0
  0
LINE
  5
26D
  8
外框线5
 10
1.500040339160478
 20
1.500007834252756
 30
0.0
 11
1.500040339160478
 21
2.500007834252756
 31
0.0
  0
LINE
  5
26E
  8
外框线5
 10
1.500040339160478
 20
48.00000783426367
 30
0.0
 11
0.0000403391604777
 21
48.00000783426367
 31
0.0
  0
LINE
  5
26F
  8
外框线5
 10
20.00004033916048
 20
0.0000078342527559
 30
0.0
 11
20.00004033916048
 21
1.500007834252756
 31
0.0
  0
LINE
  5
270
  8
外框线5
 10
20.00004033916048
 20
2.500007834252756
 30
0.0
 11
1.500040339160478
 21
2.500007834252756
 31
0.0
  0
LINE
  5
271
  8
外框线5
 10
20.00004033916048
 20
2.500007834252756
 30
0.0
 11
20.00004033917503
 21
48.00000783426367
 31
0.0
  0
LINE
  5
272
  8
外框线5
 10
20.00004033917503
 20
48.00000783426367
 30
0.0
 11
1.500040339160478
 21
48.00000783426367
 31
0.0
  0
LINE
  5
273
  8
外框线2
  6
HIDDEN2
 10
1.500040339160478
 20
2.500007834252756
 30
0.0
 11
1.500040339160478
 21
48.00000783426367
 31
0.0
  0
ENDBLK
  8
0
  0
BLOCK
  8
0
  2
*D19
 70
     1
 10
0.0
 20
0.0
 30
0.0
  0
LINE
  5
4D6
  8
标注
 62
     0
 10
3200.529866176661
 20
2116.053932241041
 30
0.0
 11
3333.797070572215
 21
2116.053932241041
 31
0.0
  0
LINE
  5
4D7
  8
标注
 62
     0
 10
3200.529866176661
 20
1596.053932241041
 30
0.0
 11
3333.797070572215
 21
1596.053932241041
 31
0.0
  0
LINE
  5
4D8
  8
标注
 62
     0
 10
3321.297070572215
 20
2101.053932241041
 30
0.0
 11
3321.297070572215
 21
1611.053932241041
 31
0.0
  0
SOLID
  5
4D9
  8
标注
 62
     0
 10
3318.797070572215
 20
2101.053932241041
 30
0.0
 11
3323.797070572215
 21
2101.053932241041
 31
0.0
 12
3321.297070572215
 22
2116.053932241041
 32
0.0
 13
3321.297070572215
 23
2116.053932241041
 33
0.0
  0
SOLID
  5
4DA
  8
标注
 62
     0
 10
3318.797070572215
 20
1611.053932241041
 30
0.0
 11
3323.797070572215
 21
1611.053932241041
 31
0.0
 12
3321.297070572215
 22
1596.053932241041
 32
0.0
 13
3321.297070572215
 23
1596.053932241041
 33
0.0
  0
TEXT
  5
4DB
  8
标注
  6
CONTINUOUS
 62
     0
 10
3314.856756793224
 20
1800.339646526756
 30
0.0
 40
18.0
  1
520±0.2
 50
90.0
  0
POINT
  5
4DC
  8
DEFPOINTS
 62
     0
 10
3194.279866176661
 20
2116.053932241041
 30
0.0
  0
POINT
  5
4DD
  8
DEFPOINTS
 62
     0
 10
3194.279866176661
 20
1596.053932241041
 30
0.0
  0
POINT
  5
4DE
  8
DEFPOINTS
 62
     0
 10
3321.297070572215
 20
1596.053932241041
 30
0.0
  0
ENDBLK
  8
0
  0
BLOCK
  8
0
  2
*D20
 70
     1
 10
0.0
 20
0.0
 30
0.0
  0
LINE
  5
4DF
  8
标注
 62
     0
 10
2724.279866176661
 20
1591.053932241041
 30
0.0
 11
2724.279866176661
 21
1542.028275802652
 31
0.0
  0
LINE
  5
4E0
  8
标注
 62
     0
 10
3174.279866176661
 20
1591.053932241041
 30
0.0
 11
3174.279866176661
 21
1542.028275802652
 31
0.0
  0
LINE
  5
4E1
  8
标注
 62
     0
 10
2736.279866176661
 20
1552.028275802652
 30
0.0
 11
3162.279866176661
 21
1552.028275802652
 31
0.0
  0
SOLID
  5
4E2
  8
标注
 62
     0
 10
2736.279866176661
 20
1554.028275802652
 30
0.0
 11
2736.279866176661
 21
1550.028275802652
 31
0.0
 12
2724.279866176661
 22
1552.028275802652
 32
0.0
 13
2724.279866176661
 23
1552.028275802652
 33
0.0
  0
SOLID
  5
4E3
  8
标注
 62
     0
 10
3162.279866176661
 20
1554.028275802652
 30
0.0
 11
3162.279866176661
 21
1550.028275802652
 31
0.0
 12
3174.279866176661
 22
1552.028275802652
 32
0.0
 13
3174.279866176661
 23
1552.028275802652
 33
0.0
  0
TEXT
  5
4E4
  8
标注
  6
CONTINUOUS
 62
     0
 10
2925.622723319518
 20
1557.222818776731
 30
0.0
 40
18.39999999999998
  1
450
  0
POINT
  5
4E5
  8
DEFPOINTS
 62
     0
 10
2724.279866176661
 20
1596.053932241041
 30
0.0
  0
POINT
  5
4E6
  8
DEFPOINTS
 62
     0
 10
3174.279866176661
 20
1596.053932241041
 30
0.0
  0
POINT
  5
4E7
  8
DEFPOINTS
 62
     0
 10
3174.279866176661
 20
1552.028275802652
 30
0.0
  0
ENDBLK
  8
0
  0
BLOCK
  8
0
  2
*D21
 70
     1
 10
0.0
 20
0.0
 30
0.0
  0
LINE
  5
4E8
  8
标注
 62
     0
 10
2704.279866176661
 20
1589.803932241041
 30
0.0
 11
2704.279866176661
 21
1495.26111220073
 31
0.0
  0
LINE
  5
4E9
  8
标注
 62
     0
 10
3194.279866176661
 20
1589.803932241041
 30
0.0
 11
3194.279866176661
 21
1495.26111220073
 31
0.0
  0
LINE
  5
4EA
  8
标注
 62
     0
 10
2719.279866176661
 20
1507.76111220073
 30
0.0
 11
3179.279866176661
 21
1507.76111220073
 31
0.0
  0
SOLID
  5
4EB
  8
标注
 62
     0
 10
2719.279866176661
 20
1510.26111220073
 30
0.0
 11
2719.279866176661
 21
1505.26111220073
 31
0.0
 12
2704.279866176661
 22
1507.76111220073
 32
0.0
 13
2704.279866176661
 23
1507.76111220073
 33
0.0
  0
SOLID
  5
4EC
  8
标注
 62
     0
 10
3179.279866176661
 20
1510.26111220073
 30
0.0
 11
3179.279866176661
 21
1505.26111220073
 31
0.0
 12
3194.279866176661
 22
1507.76111220073
 32
0.0
 13
3194.279866176661
 23
1507.76111220073
 33
0.0
  0
TEXT
  5
4ED
  8
标注
  6
CONTINUOUS
 62
     0
 10
2893.565580462375
 20
1514.201425979721
 30
0.0
 40
18.0
  1
490±0.2
  0
POINT
  5
4EE
  8
DEFPOINTS
 62
     0
 10
2704.279866176661
 20
1596.053932241041
 30
0.0
  0
POINT
  5
4EF
  8
DEFPOINTS
 62
     0
 10
3194.279866176661
 20
1596.053932241041
 30
0.0
  0
POINT
  5
4F0
  8
DEFPOINTS
 62
     0
 10
3194.279866176661
 20
1507.76111220073
 30
0.0
  0
ENDBLK
  8
0
  0
BLOCK
  8
0
  2
*D22
 70
     1
 10
0.0
 20
0.0
 30
0.0
  0
LINE
  5
4F1
  8
标注
 62
     0
 10
2793.799015414696
 20
1659.815709105048
 30
0.0
 11
2750.806205929804
 21
1635.428370590191
 31
0.0
  0
TEXT
  5
4F2
  8
标注
  6
CONTINUOUS
 62
     0
 10
2759.71905017712
 20
1644.963158610157
 30
0.0
 40
13.8
  1
R10
 50
29.56373932629061
  0
LINE
  5
4F3
  8
标注
 62
     0
 10
2734.279866176603
 20
1626.053932241041
 30
0.0
 11
2742.977939730921
 21
1630.987847161648
 31
0.0
  0
SOLID
  5
4F4
  8
标注
 62
     0
 10
2750.066118691713
 20
1636.733081623338
 30
0.0
 11
2751.546293167894
 21
1634.123659557044
 31
0.0
 12
2742.977939730921
 22
1630.987847161648
 32
0.0
 13
2742.977939730921
 23
1630.987847161648
 33
0.0
  0
ARC
  5
4F5
  8
标注
 62
     0
 10
2734.279866176603
 20
1626.053932241041
 30
0.0
 40
10.00000000000591
 50
291.4859173173931
 51
72.53557396107807
  0
POINT
  5
4F6
  8
DEFPOINTS
 62
     0
 10
2742.977939730921
 20
1630.987847161648
 30
0.0
  0
POINT
  5
4F7
  8
DEFPOINTS
 62
     0
 10
2734.279866176603
 20
1626.053932241041
 30
0.0
  0
ENDBLK
  8
0
  0
BLOCK
  8
0
  2
*D23
 70
     1
 10
0.0
 20
0.0
 30
0.0
  0
LINE
  5
4F8
  8
标注
 62
     0
 10
2636.7763442043
 20
1553.668814840466
 30
0.0
 11
2698.538359939813
 21
1595.414149282859
 31
0.0
  0
TEXT
  5
4F9
  8
标注
  6
CONTINUOUS
 62
     0
 10
2637.458674373272
 20
1558.832366603649
 30
0.0
 40
13.8
  1
R10
 50
34.05500775205036
  0
LINE
  5
4FA
  8
标注
 62
     0
 10
2714.279866176631
 20
1606.053932240997
 30
0.0
 11
2705.994862894094
 21
1600.454046473555
 31
0.0
  0
SOLID
  5
4FB
  8
标注
 62
     0
 10
2697.698377074697
 20
1596.656899775239
 30
0.0
 11
2699.378342804929
 21
1594.171398790478
 31
0.0
 12
2705.994862894094
 22
1600.454046473555
 32
0.0
 13
2705.994862894094
 23
1600.454046473555
 33
0.0
  0
POINT
  5
4FC
  8
DEFPOINTS
 62
     0
 10
2705.994862894094
 20
1600.454046473555
 30
0.0
  0
POINT
  5
4FD
  8
DEFPOINTS
 62
     0
 10
2714.279866176631
 20
1606.053932240997
 30
0.0
  0
ENDBLK
  8
0
  0
BLOCK
  8
0
  2
*D24
 70
     1
 10
0.0
 20
0.0
 30
0.0
  0
LINE
  5
4FE
  8
标注
 62
     0
 10
2945.529866176661
 20
1896.053932241041
 30
0.0
 11
2838.627002864323
 21
1896.053932241041
 31
0.0
  0
LINE
  5
4FF
  8
标注
 62
     0
 10
2945.529866176661
 20
2016.053932241041
 30
0.0
 11
2838.627002864323
 21
2016.053932241041
 31
0.0
  0
LINE
  5
500
  8
标注
 62
     0
 10
2846.127002864323
 20
1905.053932241041
 30
0.0
 11
2846.127002864323
 21
2007.053932241041
 31
0.0
  0
SOLID
  5
501
  8
标注
 62
     0
 10
2844.627002864323
 20
1905.053932241041
 30
0.0
 11
2847.627002864323
 21
1905.053932241041
 31
0.0
 12
2846.127002864323
 22
1896.053932241041
 32
0.0
 13
2846.127002864323
 23
1896.053932241041
 33
0.0
  0
SOLID
  5
502
  8
标注
 62
     0
 10
2844.627002864323
 20
2007.053932241041
 30
0.0
 11
2847.627002864323
 21
2007.053932241041
 31
0.0
 12
2846.127002864323
 22
2016.053932241041
 32
0.0
 13
2846.127002864323
 23
2016.053932241041
 33
0.0
  0
TEXT
  5
503
  8
标注
  6
CONTINUOUS
 62
     0
 10
2842.231095633764
 20
1939.62536081247
 30
0.0
 40
13.8
  1
120
 50
90.0
  0
POINT
  5
504
  8
DEFPOINTS
 62
     0
 10
2949.279866176661
 20
1896.053932241041
 30
0.0
  0
POINT
  5
505
  8
DEFPOINTS
 62
     0
 10
2949.279866176661
 20
2016.053932241041
 30
0.0
  0
POINT
  5
506
  8
DEFPOINTS
 62
     0
 10
2846.127002864323
 20
2016.053932241041
 30
0.0
  0
ENDBLK
  8
0
  0
BLOCK
  8
0
  2
*D25
 70
     1
 10
0.0
 20
0.0
 30
0.0
  0
LINE
  5
507
  8
标注
 62
     0
 10
3199.279866176661
 20
2016.053932241041
 30
0.0
 11
3259.193771834372
 21
2016.053932241041
 31
0.0
  0
LINE
  5
508
  8
标注
 62
     0
 10
3199.279866176661
 20
2116.053932241041
 30
0.0
 11
3259.193771834372
 21
2116.053932241041
 31
0.0
  0
LINE
  5
509
  8
标注
 62
     0
 10
3249.193771834372
 20
2028.053932241041
 30
0.0
 11
3249.193771834372
 21
2104.053932241041
 31
0.0
  0
SOLID
  5
50A
  8
标注
 62
     0
 10
3247.193771834372
 20
2028.053932241041
 30
0.0
 11
3251.193771834372
 21
2028.053932241041
 31
0.0
 12
3249.193771834372
 22
2016.053932241041
 32
0.0
 13
3249.193771834372
 23
2016.053932241041
 33
0.0
  0
SOLID
  5
50B
  8
标注
 62
     0
 10
3247.193771834372
 20
2104.053932241041
 30
0.0
 11
3251.193771834372
 21
2104.053932241041
 31
0.0
 12
3249.193771834372
 22
2116.053932241041
 32
0.0
 13
3249.193771834372
 23
2116.053932241041
 33
0.0
  0
TEXT
  5
50C
  8
标注
  6
CONTINUOUS
 62
     0
 10
3243.999228860293
 20
2044.14917033628
 30
0.0
 40
18.39999999999998
  1
100
 50
90.0
  0
POINT
  5
50D
  8
DEFPOINTS
 62
     0
 10
3194.279866176661
 20
2016.053932241041
 30
0.0
  0
POINT
  5
50E
  8
DEFPOINTS
 62
     0
 10
3194.279866176661
 20
2116.053932241041
 30
0.0
  0
POINT
  5
50F
  8
DEFPOINTS
 62
     0
 10
3249.193771834372
 20
2116.053932241041
 30
0.0
  0
ENDBLK
  8
0
  0
BLOCK
  8
0
  2
*D26
 70
     1
 10
0.0
 20
0.0
 30
0.0
  0
LINE
  5
53F
  8
标注
 62
     0
 10
2923.329866177028
 20
1405.70746760921
 30
0.0
 11
2923.329866177028
 21
1313.372181578635
 31
0.0
  0
LINE
  5
540
  8
标注
 62
     0
 10
2975.229866176614
 20
1405.70746760921
 30
0.0
 11
2975.229866176614
 21
1313.372181578635
 31
0.0
  0
LINE
  5
541
  8
标注
 62
     0
 10
2935.329866177028
 20
1323.372181578635
 30
0.0
 11
2963.229866176614
 21
1323.372181578635
 31
0.0
  0
LINE
  5
542
  8
标注
 62
     0
 10
2975.229866176614
 20
1323.372181578635
 30
0.0
 11
3112.840687100925
 21
1323.372181578635
 31
0.0
  0
SOLID
  5
543
  8
标注
 62
     0
 10
2935.329866177028
 20
1325.372181578635
 30
0.0
 11
2935.329866177028
 21
1321.372181578635
 31
0.0
 12
2923.329866177028
 22
1323.372181578635
 32
0.0
 13
2923.329866177028
 23
1323.372181578635
 33
0.0
  0
SOLID
  5
544
  8
标注
 62
     0
 10
2963.229866176614
 20
1325.372181578635
 30
0.0
 11
2963.229866176614
 21
1321.372181578635
 31
0.0
 12
2975.229866176614
 22
1323.372181578635
 32
0.0
 13
2975.229866176614
 23
1323.372181578635
 33
0.0
  0
TEXT
  5
545
  8
标注
  6
CONTINUOUS
 62
     0
 10
2980.413711841547
 20
1328.372181578635
 30
0.0
 40
18.39999999999998
  1
53.5-53.6
  0
POINT
  5
546
  8
DEFPOINTS
 62
     0
 10
2923.329866177028
 20
1410.70746760921
 30
0.0
  0
POINT
  5
547
  8
DEFPOINTS
 62
     0
 10
2975.229866176614
 20
1410.70746760921
 30
0.0
  0
POINT
  5
548
  8
DEFPOINTS
 62
     0
 10
2975.229866176614
 20
1323.372181578635
 30
0.0
  0
ENDBLK
  8
0
  0
BLOCK
  8
0
  2
*D27
 70
     1
 10
0.0
 20
0.0
 30
0.0
  0
LINE
  5
549
  8
标注
 62
     0
 10
3078.601997551008
 20
1944.033870706288
 30
0.0
 11
3005.298656747135
 21
1916.837521994049
 31
0.0
  0
LINE
  5
54A
  8
标注
 62
     0
 10
2893.261075606201
 20
1875.27034248804
 30
0.0
 11
2884.82309878387
 21
1872.139759931101
 31
0.0
  0
TEXT
  5
54B
  8
标注
  6
CONTINUOUS
 62
     0
 10
3015.41485765198
 20
1925.15779853341
 30
0.0
 40
13.8
  1
\U+2205101.5
 50
20.35540981624595
  0
LINE
  5
54C
  8
标注
 62
     0
 10
2901.699052428532
 20
1878.400925044978
 30
0.0
 11
2996.860679924804
 21
1913.70693943711
 31
0.0
  0
SOLID
  5
54D
  8
标注
 62
     0
 10
2892.739311846711
 20
1876.676671958428
 30
0.0
 11
2893.782839365691
 21
1873.864013017651
 31
0.0
 12
2901.699052428532
 22
1878.400925044978
 32
0.0
 13
2901.699052428532
 23
1878.400925044978
 33
0.0
  0
SOLID
  5
54E
  8
标注
 62
     0
 10
3004.776892987646
 20
1918.243851464437
 30
0.0
 11
3005.820420506625
 21
1915.43119252366
 31
0.0
 12
2996.860679924804
 22
1913.70693943711
 32
0.0
 13
2996.860679924804
 23
1913.70693943711
 33
0.0
  0
POINT
  5
54F
  8
DEFPOINTS
 62
     0
 10
2996.860679924804
 20
1913.70693943711
 30
0.0
  0
POINT
  5
550
  8
DEFPOINTS
 62
     0
 10
2901.699052428532
 20
1878.400925044978
 30
0.0
  0
ENDBLK
  8
0
  0
BLOCK
  8
0
  2
*D28
 70
     1
 10
0.0
 20
0.0
 30
0.0
  0
LINE
  5
4CD
  8
标注
 62
     0
 10
3199.279866176661
 20
2016.053932241041
 30
0.0
 11
3259.193771834372
 21
2016.053932241041
 31
0.0
  0
LINE
  5
4CE
  8
标注
 62
     0
 10
3199.279866176661
 20
1616.053932241041
 30
0.0
 11
3259.193771834372
 21
1616.053932241041
 31
0.0
  0
LINE
  5
4CF
  8
标注
 62
     0
 10
3249.193771834372
 20
2004.053932241041
 30
0.0
 11
3249.193771834372
 21
1628.053932241041
 31
0.0
  0
SOLID
  5
4D0
  8
标注
 62
     0
 10
3247.193771834372
 20
2004.053932241041
 30
0.0
 11
3251.193771834372
 21
2004.053932241041
 31
0.0
 12
3249.193771834372
 22
2016.053932241041
 32
0.0
 13
3249.193771834372
 23
2016.053932241041
 33
0.0
  0
SOLID
  5
4D1
  8
标注
 62
     0
 10
3247.193771834372
 20
1628.053932241041
 30
0.0
 11
3251.193771834372
 21
1628.053932241041
 31
0.0
 12
3249.193771834372
 22
1616.053932241041
 32
0.0
 13
3249.193771834372
 23
1616.053932241041
 33
0.0
  0
TEXT
  5
4D2
  8
标注
  6
CONTINUOUS
 62
     0
 10
3243.999228860293
 20
1792.396789383899
 30
0.0
 40
18.39999999999998
  1
400
 50
90.0
  0
POINT
  5
4D3
  8
DEFPOINTS
 62
     0
 10
3194.279866176661
 20
2016.053932241041
 30
0.0
  0
POINT
  5
4D4
  8
DEFPOINTS
 62
     0
 10
3194.279866176661
 20
1616.053932241041
 30
0.0
  0
POINT
  5
4D5
  8
DEFPOINTS
 62
     0
 10
3249.193771834372
 20
1616.053932241041
 30
0.0
  0
ENDBLK
  8
0
  0
BLOCK
  8
0
  2
*D29
 70
     1
 10
0.0
 20
0.0
 30
0.0
  0
LINE
  5
55A
  8
标注
 62
     0
 10
3043.961470142913
 20
2131.206821438604
 30
0.0
 11
2974.179670535314
 21
2086.873216134467
 31
0.0
  0
LINE
  5
55B
  8
标注
 62
     0
 10
2924.380061817862
 20
2055.234648347523
 30
0.0
 11
2914.251327841461
 21
2048.799685407824
 31
0.0
  0
TEXT
  5
55C
  8
标注
  6
CONTINUOUS
 62
     0
 10
2997.450776282308
 20
2108.421653459135
 30
0.0
 40
18.39999999999998
  1
\U+220535
 50
32.42851346447408
  0
LINE
  5
55D
  8
标注
 62
     0
 10
2934.508795794263
 20
2061.669611287221
 30
0.0
 11
2964.050936558913
 21
2080.438253194769
 31
0.0
  0
SOLID
  5
55E
  8
标注
 62
     0
 10
2923.307567994579
 20
2056.922770676923
 30
0.0
 11
2925.452555641145
 21
2053.546526018123
 31
0.0
 12
2934.508795794263
 22
2061.669611287221
 32
0.0
 13
2934.508795794263
 23
2061.669611287221
 33
0.0
  0
SOLID
  5
55F
  8
标注
 62
     0
 10
2973.107176712032
 20
2088.561338463868
 30
0.0
 11
2975.252164358597
 21
2085.185093805067
 31
0.0
 12
2964.050936558913
 22
2080.438253194769
 32
0.0
 13
2964.050936558913
 23
2080.438253194769
 33
0.0
  0
POINT
  5
560
  8
DEFPOINTS
 62
     0
 10
2964.050936558913
 20
2080.438253194769
 30
0.0
  0
POINT
  5
561
  8
DEFPOINTS
 62
     0
 10
2934.508795794263
 20
2061.669611287221
 30
0.0
  0
ENDBLK
  8
0
  0
BLOCK
  8
0
  2
*D30
 70
     1
 10
0.0
 20
0.0
 30
0.0
  0
LINE
  5
51E
  8
标注
 62
     0
 10
2954.279866176661
 20
2071.053932241041
 30
0.0
 11
3009.251429100962
 21
2071.053932241041
 31
0.0
  0
LINE
  5
51F
  8
标注
 62
     0
 10
2954.279866176661
 20
2016.053932241041
 30
0.0
 11
3009.251429100962
 21
2016.053932241041
 31
0.0
  0
LINE
  5
520
  8
标注
 62
     0
 10
2999.251429100962
 20
2059.053932241041
 30
0.0
 11
2999.251429100962
 21
2028.053932241041
 31
0.0
  0
SOLID
  5
521
  8
标注
 62
     0
 10
2997.251429100962
 20
2059.053932241041
 30
0.0
 11
3001.251429100962
 21
2059.053932241041
 31
0.0
 12
2999.251429100962
 22
2071.053932241041
 32
0.0
 13
2999.251429100962
 23
2071.053932241041
 33
0.0
  0
SOLID
  5
522
  8
标注
 62
     0
 10
2997.251429100962
 20
2028.053932241041
 30
0.0
 11
3001.251429100962
 21
2028.053932241041
 31
0.0
 12
2999.251429100962
 22
2016.053932241041
 32
0.0
 13
2999.251429100962
 23
2016.053932241041
 33
0.0
  0
TEXT
  5
523
  8
标注
  6
CONTINUOUS
 62
     0
 10
2994.094539605737
 20
2028.658694145818
 30
0.0
 40
18.39999999999998
  1
55
 50
90.0
  0
POINT
  5
524
  8
DEFPOINTS
 62
     0
 10
2949.279866176661
 20
2071.053932241041
 30
0.0
  0
POINT
  5
525
  8
DEFPOINTS
 62
     0
 10
2949.279866176661
 20
2016.053932241041
 30
0.0
  0
POINT
  5
526
  8
DEFPOINTS
 62
     0
 10
2999.251429100962
 20
2016.053932241041
 30
0.0
  0
ENDBLK
  8
0
  0
BLOCK
  8
0
  2
*D31
 70
     1
 10
0.0
 20
0.0
 30
0.0
  0
LINE
  5
551
  8
标注
 62
     0
 10
2944.279866176992
 20
1407.2000483643
 30
0.0
 11
2872.460165984768
 21
1407.2000483643
 31
0.0
  0
LINE
  5
552
  8
标注
 62
     0
 10
2944.279866176671
 20
1447.203089351396
 30
0.0
 11
2872.460165984768
 21
1447.203089351396
 31
0.0
  0
LINE
  5
553
  8
标注
 62
     0
 10
2882.460165984768
 20
1419.2000483643
 30
0.0
 11
2882.460165984768
 21
1435.203089351396
 31
0.0
  0
SOLID
  5
554
  8
标注
 62
     0
 10
2880.460165984768
 20
1419.2000483643
 30
0.0
 11
2884.460165984768
 21
1419.2000483643
 31
0.0
 12
2882.460165984768
 22
1407.2000483643
 32
0.0
 13
2882.460165984768
 23
1407.2000483643
 33
0.0
  0
SOLID
  5
555
  8
标注
 62
     0
 10
2880.460165984768
 20
1435.203089351396
 30
0.0
 11
2884.460165984768
 21
1435.203089351396
 31
0.0
 12
2882.460165984768
 22
1447.203089351396
 32
0.0
 13
2882.460165984768
 23
1447.203089351396
 33
0.0
  0
TEXT
  5
556
  8
标注
  6
CONTINUOUS
 62
     0
 10
2877.265623010689
 20
1412.30633076261
 30
0.0
 40
18.39999999999998
  1
40
 50
90.0
  0
POINT
  5
557
  8
DEFPOINTS
 62
     0
 10
2949.279866176992
 20
1407.2000483643
 30
0.0
  0
POINT
  5
558
  8
DEFPOINTS
 62
     0
 10
2949.279866176671
 20
1447.203089351396
 30
0.0
  0
POINT
  5
559
  8
DEFPOINTS
 62
     0
 10
2882.460165984768
 20
1447.203089351396
 30
0.0
  0
ENDBLK
  8
0
  0
BLOCK
  8
0
  2
*D32
 70
     1
 10
0.0
 20
0.0
 30
0.0
  0
LINE
  5
536
  8
标注
 62
     0
 10
2699.279866176661
 20
1447.203089351396
 30
0.0
 11
2653.753750454463
 21
1447.203089351396
 31
0.0
  0
LINE
  5
537
  8
标注
 62
     0
 10
2729.279866176661
 20
1262.203089351396
 30
0.0
 11
2653.753750454463
 21
1262.203089351396
 31
0.0
  0
LINE
  5
538
  8
标注
 62
     0
 10
2663.753750454463
 20
1435.203089351396
 30
0.0
 11
2663.753750454463
 21
1274.203089351396
 31
0.0
  0
SOLID
  5
539
  8
标注
 62
     0
 10
2661.753750454463
 20
1435.203089351396
 30
0.0
 11
2665.753750454463
 21
1435.203089351396
 31
0.0
 12
2663.753750454463
 22
1447.203089351396
 32
0.0
 13
2663.753750454463
 23
1447.203089351396
 33
0.0
  0
SOLID
  5
53A
  8
标注
 62
     0
 10
2661.753750454463
 20
1274.203089351396
 30
0.0
 11
2665.753750454463
 21
1274.203089351396
 31
0.0
 12
2663.753750454463
 22
1262.203089351396
 32
0.0
 13
2663.753750454463
 23
1262.203089351396
 33
0.0
  0
TEXT
  5
53B
  8
标注
  6
CONTINUOUS
 62
     0
 10
2658.559207480384
 20
1332.798327446634
 30
0.0
 40
18.39999999999998
  1
185
 50
90.0
  0
POINT
  5
53C
  8
DEFPOINTS
 62
     0
 10
2704.279866176661
 20
1447.203089351396
 30
0.0
  0
POINT
  5
53D
  8
DEFPOINTS
 62
     0
 10
2734.279866176661
 20
1262.203089351396
 30
0.0
  0
POINT
  5
53E
  8
DEFPOINTS
 62
     0
 10
2663.753750454463
 20
1262.203089351396
 30
0.0
  0
ENDBLK
  8
0
  0
BLOCK
  8
0
  2
*X33
 70
     1
 10
0.0
 20
0.0
 30
0.0
  0
SOLID
  5
64A
  8
外框线1
 10
2947.479874551649
 20
2003.51933182931
 30
0.0
 11
2949.479874551649
 21
2015.51933182931
 31
0.0
 12
2951.479874551649
 22
2003.51933182931
 32
0.0
 13
2951.479874551649
 23
2003.51933182931
 33
0.0
  0
LINE
  5
64B
  8
外框线1
 10
2949.479874551649
 20
2003.51933182931
 30
0.0
 11
2949.479874551649
 21
1971.215782175183
 31
0.0
  0
ENDBLK
  8
0
  0
ENDSEC
  0
SECTION
  2
ENTITIES
  0
LINE
  5
3CC
  8
外框线1
 10
3174.279866176661
 20
1272.203089351396
 30
0.0
 11
3174.279866176661
 21
1447.203089351396
 31
0.0
  0
LINE
  5
3CD
  8
外框线1
 10
2734.279866176661
 20
1262.203089351396
 30
0.0
 11
3164.279866176661
 21
1262.203089351396
 31
0.0
  0
LINE
  5
3CE
  8
外框线1
 10
2724.279866176661
 20
1447.203089351396
 30
0.0
 11
2724.279866176661
 21
1272.203089351396
 31
0.0
  0
LINE
  5
3CF
  8
外框线1
 10
2704.279866176661
 20
1447.203089351396
 30
0.0
 11
3194.279866176661
 21
1447.203089351396
 31
0.0
  0
POLYLINE
  5
3D0
  8
外框线1
 66
     1
 10
0.0
 20
0.0
 30
0.0
 70
     1
  0
VERTEX
  5
5C7
  8
外框线1
 10
2734.279866176661
 20
1616.053932241041
 30
0.0
  0
VERTEX
  5
5C8
  8
外框线1
 10
3164.279866176661
 20
1616.053932241041
 30
0.0
 42
0.414213562373095
  0
VERTEX
  5
5C9
  8
外框线1
 10
3174.279866176661
 20
1626.053932241041
 30
0.0
  0
VERTEX
  5
5CA
  8
外框线1
 10
3174.279866176661
 20
2006.053932241041
 30
0.0
 42
0.414213562373095
  0
VERTEX
  5
5CB
  8
外框线1
 10
3164.279866176661
 20
2016.053932241041
 30
0.0
  0
VERTEX
  5
5CC
  8
外框线1
 10
2734.279866176661
 20
2016.053932241041
 30
0.0
 42
0.414213562373095
  0
VERTEX
  5
5CD
  8
外框线1
 10
2724.279866176661
 20
2006.053932241041
 30
0.0
  0
VERTEX
  5
5CE
  8
外框线1
 10
2724.279866176661
 20
1626.053932241041
 30
0.0
 42
0.4142135623730948
  0
SEQEND
  5
64E
  8
外框线1
  0
POLYLINE
  5
3D1
  8
外框线2
  6
HIDDEN
 66
     1
 10
0.0
 20
0.0
 30
0.0
 70
     1
  0
VERTEX
  5
5CF
  8
外框线2
  6
HIDDEN
 10
2714.279866176661
 20
1596.053932241041
 30
0.0
  0
VERTEX
  5
5D0
  8
外框线2
  6
HIDDEN
 10
3184.279866176661
 20
1596.053932241041
 30
0.0
 42
0.414213562373095
  0
VERTEX
  5
5D1
  8
外框线2
  6
HIDDEN
 10
3194.279866176661
 20
1606.053932241041
 30
0.0
  0
VERTEX
  5
5D2
  8
外框线2
  6
HIDDEN
 10
3194.279866176661
 20
2106.053932241041
 30
0.0
 42
0.414213562373095
  0
VERTEX
  5
5D3
  8
外框线2
  6
HIDDEN
 10
3184.279866176661
 20
2116.053932241041
 30
0.0
  0
VERTEX
  5
5D4
  8
外框线2
  6
HIDDEN
 10
2714.279866176661
 20
2116.053932241041
 30
0.0
 42
0.414213562373095
  0
VERTEX
  5
5D5
  8
外框线2
  6
HIDDEN
 10
2704.279866176661
 20
2106.053932241041
 30
0.0
  0
VERTEX
  5
5D6
  8
外框线2
  6
HIDDEN
 10
2704.279866176661
 20
1606.053932241041
 30
0.0
 42
0.414213562373095
  0
SEQEND
  5
64F
  8
外框线2
  6
HIDDEN
  0
ARC
  5
3D2
  8
外框线1
 10
2734.279866176661
 20
1272.203089351396
 30
0.0
 40
10.0
 50
180.0
 51
270.0
  0
ARC
  5
3D3
  8
外框线1
 10
3164.279866176661
 20
1272.203089351396
 30
0.0
 40
10.0
 50
270.0
 51
0.0
  0
DIMENSION
  5
3D4
  8
标注
  2
*D28
 10
3249.193771834372
 20
1616.053932241041
 30
0.0
 11
3234.799228860293
 21
1816.053932241042
 31
0.0
 70
    32
 13
3194.279866176661
 23
2016.053932241041
 33
0.0
 14
3194.279866176661
 24
1616.053932241041
 34
0.0
 50
90.0
  0
DIMENSION
  5
3D7
  8
标注
  2
*D19
 10
3321.297070572215
 20
1596.053932241041
 30
0.0
 11
3305.856756793224
 21
1856.053932241042
 31
0.0
 70
    32
 13
3194.279866176661
 23
2116.053932241041
 33
0.0
 14
3194.279866176661
 24
1596.053932241041
 34
0.0
 50
90.0
  0
DIMENSION
  5
3D8
  8
标注
  2
*D20
 10
3174.279866176661
 20
1552.028275802652
 30
0.0
 11
2949.279866176661
 21
1566.422818776731
 31
0.0
 70
    32
 13
2724.279866176661
 23
1596.053932241041
 33
0.0
 14
3174.279866176661
 24
1596.053932241041
 34
0.0
  0
DIMENSION
  5
3D9
  8
标注
  2
*D21
 10
3194.279866176661
 20
1507.76111220073
 30
0.0
 11
2949.279866176661
 21
1523.201425979721
 31
0.0
 70
    32
 13
2704.279866176661
 23
1596.053932241041
 33
0.0
 14
3194.279866176661
 24
1596.053932241041
 34
0.0
  0
DIMENSION
  5
3DA
  8
标注
  2
*D22
 10
2734.279866176603
 20
1626.053932241041
 30
0.0
 11
2770.89013499506
 21
1659.232661079586
 31
0.0
 70
    36
 15
2742.977939730921
 25
1630.987847161648
 35
0.0
 40
0.0
  0
DIMENSION
  5
3DB
  8
标注
  2
*D23
 10
2714.279866176631
 20
1606.053932240997
 30
0.0
 11
2653.523636276173
 21
1564.988414763154
 31
0.0
 70
   164
 15
2705.994862894094
 25
1600.454046473555
 35
0.0
 40
0.0
  0
LINE
  5
3DC
  8
外框线1
 10
3000.279866176661
 20
1262.203089351396
 30
0.0
 11
2898.279866176661
 21
1262.203089351396
 31
0.0
  0
DIMENSION
  5
3DD
  8
标注
  2
*D24
 10
2846.127002864323
 20
2016.053932241041
 30
0.0
 11
2846.127002864323
 21
1956.053932241041
 31
0.0
 70
   160
 13
2949.279866176661
 23
1896.053932241041
 33
0.0
 14
2949.279866176661
 24
2016.053932241041
 34
0.0
 50
90.0
  0
DIMENSION
  5
3DE
  8
标注
  2
*D25
 10
3249.193771834372
 20
2116.053932241041
 30
0.0
 11
3234.799228860293
 21
2066.053932241042
 31
0.0
 70
    32
 13
3194.279866176661
 23
2016.053932241041
 33
0.0
 14
3194.279866176661
 24
2116.053932241041
 34
0.0
 50
90.0
  0
CIRCLE
  5
3DF
  8
外框线1
 10
2949.279866176661
 20
2071.053932241041
 30
0.0
 40
17.5
  0
DIMENSION
  5
3E0
  8
标注
  2
*D29
 10
2934.508795794263
 20
2061.669611287221
 30
0.0
 11
3020.110581629997
 21
2116.053932240695
 31
0.0
 70
   163
 15
2964.050936558913
 25
2080.438253194769
 35
0.0
 40
0.0
  0
LINE
  5
3E3
  8
标注
 10
2899.279866176661
 20
2016.053932241041
 30
0.0
 11
2999.279866176661
 21
2016.053932241027
 31
0.0
  0
DIMENSION
  5
3E4
  8
标注
  2
*D30
 10
2999.251429100962
 20
2016.053932241041
 30
0.0
 11
2999.251429100961
 21
2043.553932241056
 31
0.0
 70
   160
 13
2949.279866176661
 23
2071.053932241041
 33
0.0
 14
2949.279866176661
 24
2016.053932241041
 34
0.0
 50
90.0
  0
POLYLINE
  5
3E7
  8
外框线4
 66
     1
 10
0.0
 20
0.0
 30
0.0
 70
     1
  0
VERTEX
  5
5D7
  8
外框线4
 10
2784.279866176661
 20
1611.053932241041
 30
0.0
  0
VERTEX
  5
5D8
  8
外框线4
 10
2824.279866176661
 20
1611.053932241041
 30
0.0
  0
VERTEX
  5
5D9
  8
外框线4
 10
2824.279866176661
 20
1616.053932241041
 30
0.0
  0
VERTEX
  5
5DA
  8
外框线4
 10
2784.279866176661
 20
1616.053932241041
 30
0.0
  0
SEQEND
  5
650
  8
外框线4
  0
POLYLINE
  5
3E8
  8
外框线4
 66
     1
 10
0.0
 20
0.0
 30
0.0
 70
     1
  0
VERTEX
  5
5DB
  8
外框线4
 10
2719.279866176661
 20
1676.053932241041
 30
0.0
  0
VERTEX
  5
5DC
  8
外框线4
 10
2719.279866176661
 20
1716.053932241041
 30
0.0
  0
VERTEX
  5
5DD
  8
外框线4
 10
2724.279866176661
 20
1716.053932241041
 30
0.0
  0
VERTEX
  5
5DE
  8
外框线4
 10
2724.279866176661
 20
1676.053932241041
 30
0.0
  0
SEQEND
  5
651
  8
外框线4
  0
POLYLINE
  5
3E9
  8
外框线4
 66
     1
 10
0.0
 20
0.0
 30
0.0
 70
     1
  0
VERTEX
  5
5DF
  8
外框线4
 10
3114.279866176661
 20
1611.053932241041
 30
0.0
  0
VERTEX
  5
5E0
  8
外框线4
 10
3074.279866176661
 20
1611.053932241041
 30
0.0
  0
VERTEX
  5
5E1
  8
外框线4
 10
3074.279866176661
 20
1616.053932241041
 30
0.0
  0
VERTEX
  5
5E2
  8
外框线4
 10
3114.279866176661
 20
1616.053932241041
 30
0.0
  0
SEQEND
  5
652
  8
外框线4
  0
POLYLINE
  5
3EA
  8
外框线4
 66
     1
 10
0.0
 20
0.0
 30
0.0
 70
     1
  0
VERTEX
  5
5E3
  8
外框线4
 10
3179.279866176661
 20
1676.053932241041
 30
0.0
  0
VERTEX
  5
5E4
  8
外框线4
 10
3179.279866176661
 20
1716.053932241041
 30
0.0
  0
VERTEX
  5
5E5
  8
外框线4
 10
3174.279866176661
 20
1716.053932241041
 30
0.0
  0
VERTEX
  5
5E6
  8
外框线4
 10
3174.279866176661
 20
1676.053932241041
 30
0.0
  0
SEQEND
  5
653
  8
外框线4
  0
POLYLINE
  5
3EB
  8
外框线4
 66
     1
 10
0.0
 20
0.0
 30
0.0
 70
     1
  0
VERTEX
  5
5E7
  8
外框线4
 10
2719.279866176661
 20
1956.053932241041
 30
0.0
  0
VERTEX
  5
5E8
  8
外框线4
 10
2719.279866176661
 20
1916.053932241041
 30
0.0
  0
VERTEX
  5
5E9
  8
外框线4
 10
2724.279866176661
 20
1916.053932241041
 30
0.0
  0
VERTEX
  5
5EA
  8
外框线4
 10
2724.279866176661
 20
1956.053932241041
 30
0.0
  0
SEQEND
  5
654
  8
外框线4
  0
POLYLINE
  5
3EC
  8
外框线4
 66
     1
 10
0.0
 20
0.0
 30
0.0
 70
     1
  0
VERTEX
  5
5EB
  8
外框线4
 10
3179.279866176661
 20
1956.053932241041
 30
0.0
  0
VERTEX
  5
5EC
  8
外框线4
 10
3179.279866176661
 20
1916.053932241041
 30
0.0
  0
VERTEX
  5
5ED
  8
外框线4
 10
3174.279866176661
 20
1916.053932241041
 30
0.0
  0
VERTEX
  5
5EE
  8
外框线4
 10
3174.279866176661
 20
1956.053932241041
 30
0.0
  0
SEQEND
  5
655
  8
外框线4
  0
POLYLINE
  5
3ED
  8
外框线1
 66
     1
 10
0.0
 20
0.0
 30
0.0
 70
     1
  0
VERTEX
  5
5EF
  8
外框线1
 10
2946.21949324763
 20
1402.0392230878
 30
0.0
 42
0.274206687526
  0
VERTEX
  5
5F0
  8
外框线1
 10
2952.340239105633
 20
1402.0392230878
 30
0.0
  0
VERTEX
  5
5F1
  8
外框线1
 10
2973.624436447633
 20
1399.6627162874
 30
0.0
 42
-0.6299625821720002
  0
VERTEX
  5
5F2
  8
外框线1
 10
2973.802504862633
 20
1399.151666100596
 30
0.0
 42
-0.187293026366
  0
VERTEX
  5
5F3
  8
外框线1
 10
2970.279866176632
 20
1397.2000483643
 30
0.0
  0
VERTEX
  5
5F4
  8
外框线1
 10
2928.279866177039
 20
1397.2000483643
 30
0.0
 42
-0.187293026366
  0
VERTEX
  5
5F5
  8
外框线1
 10
2924.757227493134
 20
1399.151666102604
 30
0.0
 42
-0.6299625821720002
  0
VERTEX
  5
5F6
  8
外框线1
 10
2924.93529590662
 20
1399.6627162874
 30
0.0
  0
SEQEND
  5
656
  8
外框线1
  0
POLYLINE
  5
3EE
  8
外框线1
 66
     1
 10
0.0
 20
0.0
 30
0.0
 70
     1
  0
VERTEX
  5
5F7
  8
外框线1
 10
2952.340239106623
 20
1412.3608736408
 30
0.0
 42
0.274206687526
  0
VERTEX
  5
5F8
  8
外框线1
 10
2946.21949324763
 20
1412.3608736408
 30
0.0
  0
VERTEX
  5
5F9
  8
外框线1
 10
2924.93529590662
 20
1414.737380441199
 30
0.0
 42
-0.6299625821720002
  0
VERTEX
  5
5FA
  8
外框线1
 10
2924.757227491125
 20
1415.248430628003
 30
0.0
 42
-0.187293026366
  0
VERTEX
  5
5FB
  8
外框线1
 10
2928.279866177039
 20
1417.2000483643
 30
0.0
  0
VERTEX
  5
5FC
  8
外框线1
 10
2970.279866176632
 20
1417.2000483643
 30
0.0
 42
-0.187293026366
  0
VERTEX
  5
5FD
  8
外框线1
 10
2973.802504860625
 20
1415.248430625995
 30
0.0
 42
-0.6299625821720002
  0
VERTEX
  5
5FE
  8
外框线1
 10
2973.624436447633
 20
1414.737380441199
 30
0.0
  0
SEQEND
  5
657
  8
外框线1
  0
POLYLINE
  5
3EF
  8
外框线1
 66
     1
 10
0.0
 20
0.0
 30
0.0
 70
     1
  0
VERTEX
  5
5FF
  8
外框线1
 10
2954.959652068621
 20
1405.266132073398
 30
0.0
  0
VERTEX
  5
600
  8
外框线1
 10
2975.229866176614
 20
1403.692629119404
 30
0.0
  0
VERTEX
  5
601
  8
外框线1
 10
2975.229866176614
 20
1410.707467609195
 30
0.0
  0
VERTEX
  5
602
  8
外框线1
 10
2954.959652068621
 20
1409.133964655201
 30
0.0
 42
-0.165578060144
  0
SEQEND
  5
658
  8
外框线1
  0
POLYLINE
  5
3F0
  8
外框线1
 66
     1
 10
0.0
 20
0.0
 30
0.0
 70
     1
  0
VERTEX
  5
603
  8
外框线1
 10
2943.600080284934
 20
1405.266132073398
 30
0.0
  0
VERTEX
  5
604
  8
外框线1
 10
2923.329866177028
 20
1403.692629119404
 30
0.0
  0
VERTEX
  5
605
  8
外框线1
 10
2923.329866177028
 20
1410.707467609195
 30
0.0
  0
VERTEX
  5
606
  8
外框线1
 10
2943.600080284934
 20
1409.133964655201
 30
0.0
 42
0.165578060144
  0
SEQEND
  5
659
  8
外框线1
  0
POLYLINE
  5
3F1
  8
外框线1
 66
     1
 10
0.0
 20
0.0
 30
0.0
 70
     1
  0
VERTEX
  5
607
  8
外框线1
 10
2949.279866176632
 20
1410.0000483643
 30
0.0
  0
VERTEX
  5
608
  8
外框线1
 10
2948.831026733737
 20
1409.946247149429
 30
0.0
  0
VERTEX
  5
609
  8
外框线1
 10
2948.39943593892
 20
1409.786911055331
 30
0.0
  0
VERTEX
  5
60A
  8
外框线1
 10
2948.001679584388
 20
1409.528163278747
 30
0.0
  0
VERTEX
  5
60B
  8
外框线1
 10
2947.65304322378
 20
1409.179947351622
 30
0.0
  0
VERTEX
  5
60C
  8
外框线1
 10
2947.366924756917
 20
1408.755645016755
 30
0.0
  0
VERTEX
  5
60D
  8
外框线1
 10
2947.154319556024
 20
1408.271561974922
 30
0.0
  0
VERTEX
  5
60E
  8
外框线1
 10
2947.023397919741
 20
1407.746301265945
 30
0.0
  0
VERTEX
  5
60F
  8
外框线1
 10
2946.979191093129
 20
1407.2000483643
 30
0.0
  0
VERTEX
  5
610
  8
外框线1
 10
2947.023397919741
 20
1406.653795462654
 30
0.0
  0
VERTEX
  5
611
  8
外框线1
 10
2947.154319556024
 20
1406.128534753677
 30
0.0
  0
VERTEX
  5
612
  8
外框线1
 10
2947.366924756917
 20
1405.644451711845
 30
0.0
  0
VERTEX
  5
613
  8
外框线1
 10
2947.65304322378
 20
1405.220149376977
 30
0.0
  0
VERTEX
  5
614
  8
外框线1
 10
2948.001679584388
 20
1404.871933449852
 30
0.0
  0
VERTEX
  5
615
  8
外框线1
 10
2948.39943593892
 20
1404.613185673268
 30
0.0
  0
VERTEX
  5
616
  8
外框线1
 10
2948.831026733737
 20
1404.45384957917
 30
0.0
  0
VERTEX
  5
617
  8
外框线1
 10
2949.279866176632
 20
1404.400048364299
 30
0.0
  0
VERTEX
  5
618
  8
外框线1
 10
2949.728705619527
 20
1404.45384957917
 30
0.0
  0
VERTEX
  5
619
  8
外框线1
 10
2950.160296414344
 20
1404.613185673268
 30
0.0
  0
VERTEX
  5
61A
  8
外框线1
 10
2950.558052768876
 20
1404.871933449852
 30
0.0
  0
VERTEX
  5
61B
  8
外框线1
 10
2950.906689129484
 20
1405.220149376977
 30
0.0
  0
VERTEX
  5
61C
  8
外框线1
 10
2951.192807596346
 20
1405.644451711845
 30
0.0
  0
VERTEX
  5
61D
  8
外框线1
 10
2951.405412797239
 20
1406.128534753677
 30
0.0
  0
VERTEX
  5
61E
  8
外框线1
 10
2951.536334433522
 20
1406.653795462654
 30
0.0
  0
VERTEX
  5
61F
  8
外框线1
 10
2951.580541260135
 20
1407.2000483643
 30
0.0
  0
VERTEX
  5
620
  8
外框线1
 10
2951.536334433522
 20
1407.746301265945
 30
0.0
  0
VERTEX
  5
621
  8
外框线1
 10
2951.405412797239
 20
1408.271561974922
 30
0.0
  0
VERTEX
  5
622
  8
外框线1
 10
2951.192807596346
 20
1408.755645016755
 30
0.0
  0
VERTEX
  5
623
  8
外框线1
 10
2950.906689129484
 20
1409.179947351622
 30
0.0
  0
VERTEX
  5
624
  8
外框线1
 10
2950.558052768876
 20
1409.528163278747
 30
0.0
  0
VERTEX
  5
625
  8
外框线1
 10
2950.160296414344
 20
1409.786911055331
 30
0.0
  0
VERTEX
  5
626
  8
外框线1
 10
2949.728705619527
 20
1409.946247149429
 30
0.0
  0
SEQEND
  5
65A
  8
外框线1
  0
DIMENSION
  5
3F2
  8
标注
  2
*D31
 10
2882.460165984768
 20
1447.203089351396
 30
0.0
 11
2868.065623010688
 21
1427.201568857848
 31
0.0
 70
    32
 13
2949.279866176992
 23
1407.2000483643
 33
0.0
 14
2949.279866176671
 24
1447.203089351396
 34
0.0
 50
90.0
  0
POLYLINE
  5
3F5
  8
外框线4
 66
     1
 10
0.0
 20
0.0
 30
0.0
 70
     1
  0
VERTEX
  5
627
  8
外框线4
 10
2784.279866176661
 20
1362.203089351396
 30
0.0
  0
VERTEX
  5
628
  8
外框线4
 10
2824.279866176661
 20
1362.203089351396
 30
0.0
  0
VERTEX
  5
629
  8
外框线4
 10
2824.279866176661
 20
1437.203089351396
 30
0.0
  0
VERTEX
  5
62A
  8
外框线4
 10
2784.279866176661
 20
1437.203089351396
 30
0.0
  0
SEQEND
  5
65B
  8
外框线4
  0
POLYLINE
  5
3F6
  8
外框线4
 66
     1
 10
0.0
 20
0.0
 30
0.0
 70
     1
  0
VERTEX
  5
62B
  8
外框线4
 10
2721.279866176661
 20
1399.703089351396
 30
0.0
  0
VERTEX
  5
62C
  8
外框线4
 10
2721.279866176661
 20
1437.203089351396
 30
0.0
  0
VERTEX
  5
62D
  8
外框线4
 10
2724.279866176661
 20
1437.203089351396
 30
0.0
  0
VERTEX
  5
62E
  8
外框线4
 10
2724.279866176661
 20
1362.203089351396
 30
0.0
  0
VERTEX
  5
62F
  8
外框线4
 10
2721.279866176661
 20
1362.203089351396
 30
0.0
  0
VERTEX
  5
630
  8
外框线4
 10
2719.279866176661
 20
1399.703089351396
 30
0.0
  0
SEQEND
  5
65C
  8
外框线4
  0
POLYLINE
  5
3F7
  8
外框线4
 66
     1
 10
0.0
 20
0.0
 30
0.0
 70
     1
  0
VERTEX
  5
631
  8
外框线4
 10
3114.279866176661
 20
1362.203089351396
 30
0.0
  0
VERTEX
  5
632
  8
外框线4
 10
3074.279866176661
 20
1362.203089351396
 30
0.0
  0
VERTEX
  5
633
  8
外框线4
 10
3074.279866176661
 20
1437.203089351396
 30
0.0
  0
VERTEX
  5
634
  8
外框线4
 10
3114.279866176661
 20
1437.203089351396
 30
0.0
  0
SEQEND
  5
65D
  8
外框线4
  0
POLYLINE
  5
3F8
  8
外框线4
 66
     1
 10
0.0
 20
0.0
 30
0.0
 70
     1
  0
VERTEX
  5
635
  8
外框线4
 10
3177.279866176661
 20
1399.703089351396
 30
0.0
  0
VERTEX
  5
636
  8
外框线4
 10
3177.279866176661
 20
1437.203089351396
 30
0.0
  0
VERTEX
  5
637
  8
外框线4
 10
3174.279866176661
 20
1437.203089351396
 30
0.0
  0
VERTEX
  5
638
  8
外框线4
 10
3174.279866176661
 20
1362.203089351396
 30
0.0
  0
VERTEX
  5
639
  8
外框线4
 10
3177.279866176661
 20
1362.203089351396
 30
0.0
  0
VERTEX
  5
63A
  8
外框线4
 10
3179.279866176661
 20
1399.703089351396
 30
0.0
  0
SEQEND
  5
65E
  8
外框线4
  0
INSERT
  5
3F9
  8
外框线1
  2
A$C73DC396D
 10
2874.278296915789
 20
2018.05392440677
 30
0.0
  0
INSERT
  5
3FA
  8
外框线1
  2
A$C73DC396D
 10
3024.278296915789
 20
2018.05392440677
 30
0.0
 41
-1.0
  0
DIMENSION
  5
3FB
  8
标注
  2
*D32
 10
2663.753750454463
 20
1262.203089351396
 30
0.0
 11
2649.359207480384
 21
1354.703089351396
 31
0.0
 70
    32
 13
2704.279866176661
 23
1447.203089351396
 33
0.0
 14
2734.279866176661
 24
1262.203089351396
 34
0.0
 50
90.0
  0
DIMENSION
  5
3FE
  8
标注
  2
*D26
 10
2975.229866176614
 20
1323.372181578635
 30
0.0
 11
3050.07085469869
 21
1323.372181578635
 31
0.0
 70
   160
  1
{\fSimSun|b0|i0|c134|p2;53.5-53.6}
 13
2923.329866177028
 23
1410.70746760921
 33
0.0
 14
2975.229866176614
 24
1410.70746760921
 34
0.0
  0
ARC
  5
3FF
  8
外框线1
 10
2942.399866176656
 20
1907.61109884899
 30
0.0
 40
3.33
 50
300.765406939364
 51
0.0
  0
ARC
  5
400
  8
外框线1
 10
2942.711066298423
 20
1907.790770323053
 30
0.0
 40
3.33
 50
239.999999999938
 51
299.2345930572744
  0
ARC
  5
401
  8
外框线1
 10
2949.279866176661
 20
1896.053932241041
 30
0.0
 40
19.0
 50
109.0546939574534
 51
130.9453060426577
  0
ARC
  5
402
  8
外框线1
 10
2943.729866176673
 20
1912.122457375613
 30
0.0
 40
2.0
 50
0.0
 51
109.0546939574534
  0
ARC
  5
403
  8
外框线1
 10
2938.139115208822
 20
1908.894635799335
 30
0.0
 40
2.0
 50
130.9453060426577
 51
239.999999999938
  0
CIRCLE
  5
404
  8
外框线1
 10
2949.279866176661
 20
1896.053932241041
 30
0.0
 40
6.025
  0
CIRCLE
  5
405
  8
外框线1
 10
2949.279866176661
 20
1896.053932241041
 30
0.0
 40
23.55
  0
LINE
  5
406
  8
外框线1
 10
2945.729866176673
 20
1907.61109884899
 30
0.0
 11
2945.729866176673
 21
1912.122457375613
 31
0.0
  0
LINE
  5
407
  8
外框线1
 10
2941.046066298444
 20
1904.906905728444
 30
0.0
 11
2937.139115208822
 21
1907.162584991755
 31
0.0
  0
ARC
  5
408
  8
外框线1
 10
2935.831066298419
 20
1895.874260766978
 30
0.0
 40
3.33
 50
0.76540694118557
 51
59.99999999993805
  0
ARC
  5
409
  8
外框线1
 10
2935.831066298419
 20
1896.233603715119
 30
0.0
 40
3.33
 50
300.000000000062
 51
359.2345930588144
  0
ARC
  5
40A
  8
外框线1
 10
2949.279866176661
 20
1896.053932241041
 30
0.0
 40
19.0
 50
169.0546939578236
 51
190.9453060421764
  0
ARC
  5
40B
  8
外框线1
 10
2932.589115208833
 20
1899.281753817319
 30
0.0
 40
2.0
 50
59.99999999993805
 51
169.0546939578236
  0
ARC
  5
40C
  8
外框线1
 10
2932.589115208833
 20
1892.826110664763
 30
0.0
 40
2.0
 50
190.9453060421764
 51
300.000000000062
  0
LINE
  5
40D
  8
外框线1
 10
2937.496066298456
 20
1898.758125361587
 30
0.0
 11
2933.589115208833
 21
1901.013804624899
 31
0.0
  0
LINE
  5
40E
  8
外框线1
 10
2937.496066298456
 20
1893.34973912051
 30
0.0
 11
2933.589115208833
 21
1891.094059857199
 31
0.0
  0
ARC
  5
40F
  8
外框线1
 10
2942.711066298423
 20
1884.317094159044
 30
0.0
 40
3.33
 50
60.76540694272563
 51
120.0000000000619
  0
ARC
  5
410
  8
外框线1
 10
2942.399866176715
 20
1884.496765633107
 30
0.0
 40
3.33
 50
0.0
 51
59.23459306063599
  0
ARC
  5
411
  8
外框线1
 10
2949.279866176661
 20
1896.053932241041
 30
0.0
 40
19.0
 50
229.0546939573422
 51
250.9453060425467
  0
ARC
  5
412
  8
外框线1
 10
2938.139115208822
 20
1883.213228682763
 30
0.0
 40
2.0
 50
120.0000000000619
 51
229.0546939573422
  0
ARC
  5
413
  8
外框线1
 10
2943.729866176673
 20
1879.985407106485
 30
0.0
 40
2.0
 50
250.9453060425467
 51
0.0
  0
LINE
  5
414
  8
外框线1
 10
2941.046066298444
 20
1887.200958753639
 30
0.0
 11
2937.139115208822
 21
1884.945279490327
 31
0.0
  0
LINE
  5
415
  8
外框线1
 10
2945.729866176673
 20
1884.496765633107
 30
0.0
 11
2945.729866176673
 21
1879.985407106485
 31
0.0
  0
ARC
  5
416
  8
外框线1
 10
2956.159866176666
 20
1884.496765633107
 30
0.0
 40
3.33
 50
120.765406939364
 51
180.0
  0
ARC
  5
417
  8
外框线1
 10
2955.848666054957
 20
1884.317094159044
 30
0.0
 40
3.33
 50
59.99999999993805
 51
119.2345930572744
  0
ARC
  5
418
  8
外框线1
 10
2949.279866176661
 20
1896.053932241041
 30
0.0
 40
19.0
 50
289.0546939574534
 51
310.9453060426577
  0
ARC
  5
419
  8
外框线1
 10
2954.829866176708
 20
1879.985407106485
 30
0.0
 40
2.0
 50
180.0
 51
289.0546939574534
  0
ARC
  5
41A
  8
外框线1
 10
2960.420617144558
 20
1883.213228682763
 30
0.0
 40
2.0
 50
310.9453060426577
 51
59.99999999993805
  0
LINE
  5
41B
  8
外框线1
 10
2952.829866176708
 20
1884.496765633107
 30
0.0
 11
2952.829866176708
 21
1879.985407106485
 31
0.0
  0
LINE
  5
41C
  8
外框线1
 10
2957.513666054936
 20
1887.200958753653
 30
0.0
 11
2961.420617144558
 21
1884.945279490342
 31
0.0
  0
ARC
  5
41D
  8
外框线1
 10
2962.728666054903
 20
1896.233603715119
 30
0.0
 40
3.33
 50
180.7654069411856
 51
239.999999999938
  0
ARC
  5
41E
  8
外框线1
 10
2962.728666054903
 20
1895.874260766978
 30
0.0
 40
3.33
 50
120.0000000000619
 51
179.2345930588144
  0
ARC
  5
41F
  8
外框线1
 10
2949.279866176661
 20
1896.053932241056
 30
0.0
 40
19.0
 50
349.0546939578236
 51
10.94530604217638
  0
ARC
  5
420
  8
外框线1
 10
2965.970617144547
 20
1892.826110664778
 30
0.0
 40
2.0
 50
239.999999999938
 51
349.0546939578236
  0
ARC
  5
421
  8
外框线1
 10
2965.970617144547
 20
1899.281753817334
 30
0.0
 40
2.0
 50
10.94530604217638
 51
120.0000000000619
  0
LINE
  5
422
  8
外框线1
 10
2961.063666054924
 20
1893.34973912051
 30
0.0
 11
2964.970617144547
 21
1891.094059857199
 31
0.0
  0
LINE
  5
423
  8
外框线1
 10
2961.063666054924
 20
1898.758125361587
 30
0.0
 11
2964.970617144547
 21
1901.013804624899
 31
0.0
  0
ARC
  5
424
  8
外框线1
 10
2955.848666054899
 20
1907.790770323053
 30
0.0
 40
3.33
 50
240.7654069427256
 51
300.000000000062
  0
ARC
  5
425
  8
外框线1
 10
2956.159866176666
 20
1907.61109884899
 30
0.0
 40
3.33
 50
180.0
 51
239.234593060636
  0
ARC
  5
426
  8
外框线1
 10
2949.279866176661
 20
1896.053932241056
 30
0.0
 40
19.0
 50
49.05469395734227
 51
70.94530604254662
  0
ARC
  5
427
  8
外框线1
 10
2960.420617144558
 20
1908.894635799335
 30
0.0
 40
2.0
 50
300.000000000062
 51
49.05469395734227
  0
ARC
  5
428
  8
外框线1
 10
2954.829866176708
 20
1912.122457375613
 30
0.0
 40
2.0
 50
70.94530604254662
 51
180.0
  0
LINE
  5
429
  8
外框线1
 10
2957.513666054936
 20
1904.906905728444
 30
0.0
 11
2961.420617144558
 21
1907.162584991755
 31
0.0
  0
LINE
  5
42A
  8
外框线1
 10
2952.829866176708
 20
1907.61109884899
 30
0.0
 11
2952.829866176708
 21
1912.122457375613
 31
0.0
  0
CIRCLE
  5
42B
  8
外框线1
 10
2949.279866176661
 20
1896.053932241041
 30
0.0
 40
50.75
  0
DIMENSION
  5
42C
  8
标注
  2
*D27
 10
2901.699052428532
 20
1878.400925044978
 30
0.0
 11
3042.279790956412
 21
1942.484569473244
 31
0.0
 70
    35
 15
2996.860679924804
 25
1913.70693943711
 35
0.0
 40
0.0
  0
LINE
  5
42F
  8
外框线1
 10
3415.088040055478
 20
2111.053932241041
 30
0.0
 11
3415.088040055478
 21
1591.053932241041
 31
0.0
  0
LINE
  5
430
  8
外框线1
 10
3415.088040055478
 20
1611.053932241041
 30
0.0
 11
3590.088040055478
 21
1611.053932241041
 31
0.0
  0
ARC
  5
431
  8
外框线1
 10
3590.088040055478
 20
1621.053932241041
 30
0.0
 40
10.0
 50
270.0
 51
0.0
  0
LINE
  5
432
  8
外框线1
 10
3600.088040055478
 20
1621.053932241041
 30
0.0
 11
3600.088040055478
 21
2001.053932241041
 31
0.0
  0
LINE
  5
433
  8
外框线1
 10
3590.088040055478
 20
2011.053932241041
 30
0.0
 11
3415.088040055478
 21
2011.053932241041
 31
0.0
  0
ARC
  5
434
  8
外框线1
 10
3590.088040055478
 20
2001.053932241041
 30
0.0
 40
10.0
 50
0.0
 51
90.0
  0
LINE
  5
435
  8
外框线1
 10
3600.088040055478
 20
1840.053932241027
 30
0.0
 11
3603.588040055478
 21
1843.553932241027
 31
0.0
  0
LINE
  5
436
  8
外框线1
 10
3603.588040055478
 20
1843.553932241027
 30
0.0
 11
3604.588040055478
 21
1851.053932241027
 31
0.0
  0
LINE
  5
437
  8
外框线1
 10
3604.588040055478
 20
1851.053932241027
 30
0.0
 11
3604.588040055449
 21
1891.053932241114
 31
0.0
  0
LINE
  5
438
  8
外框线1
 10
3600.088040055478
 20
1942.053932241027
 30
0.0
 11
3603.588040055478
 21
1938.553932241027
 31
0.0
  0
LINE
  5
439
  8
外框线1
 10
3603.588040055478
 20
1938.553932241027
 30
0.0
 11
3604.588040055478
 21
1931.053932241027
 31
0.0
  0
LINE
  5
43A
  8
外框线1
 10
3604.588040055478
 20
1931.053932241027
 30
0.0
 11
3604.588040055449
 21
1891.053932241056
 31
0.0
  0
LINE
  5
43B
  8
外框线1
 10
3603.588040055478
 20
1843.553932241027
 30
0.0
 11
3603.588040055478
 21
1938.553932241027
 31
0.0
  0
LINE
  5
43C
  8
外框线1
 10
3600.088040055478
 20
1942.053932241027
 30
0.0
 11
3600.088040055478
 21
1840.053932241027
 31
0.0
  0
POLYLINE
  5
43D
  8
外框线4
 66
     1
 10
0.0
 20
0.0
 30
0.0
 70
     1
  0
VERTEX
  5
63B
  8
外框线4
 10
3490.088040055478
 20
1671.053932241041
 30
0.0
  0
VERTEX
  5
63C
  8
外框线4
 10
3490.088040055478
 20
1711.053932241041
 30
0.0
  0
VERTEX
  5
63D
  8
外框线4
 10
3415.088040055478
 20
1711.053932241041
 30
0.0
  0
VERTEX
  5
63E
  8
外框线4
 10
3415.088040055478
 20
1671.053932241041
 30
0.0
  0
SEQEND
  5
65F
  8
外框线4
  0
POLYLINE
  5
43E
  8
外框线4
 66
     1
 10
0.0
 20
0.0
 30
0.0
 70
     1
  0
VERTEX
  5
63F
  8
外框线4
 10
3452.588040055478
 20
1608.053932241041
 30
0.0
  0
VERTEX
  5
640
  8
外框线4
 10
3415.088040055478
 20
1608.053932241041
 30
0.0
  0
VERTEX
  5
641
  8
外框线4
 10
3415.088040055478
 20
1611.053932241041
 30
0.0
  0
VERTEX
  5
642
  8
外框线4
 10
3490.088040055478
 20
1611.053932241041
 30
0.0
  0
VERTEX
  5
643
  8
外框线4
 10
3490.088040055478
 20
1608.053932241041
 30
0.0
  0
VERTEX
  5
644
  8
外框线4
 10
3452.588040055478
 20
1606.053932241041
 30
0.0
  0
SEQEND
  5
660
  8
外框线4
  0
POLYLINE
  5
43F
  8
外框线4
 66
     1
 10
0.0
 20
0.0
 30
0.0
 70
     1
  0
VERTEX
  5
645
  8
外框线4
 10
3490.088040055478
 20
1951.053932241041
 30
0.0
  0
VERTEX
  5
646
  8
外框线4
 10
3490.088040055478
 20
1911.053932241041
 30
0.0
  0
VERTEX
  5
647
  8
外框线4
 10
3415.088040055478
 20
1911.053932241041
 30
0.0
  0
VERTEX
  5
648
  8
外框线4
 10
3415.088040055478
 20
1951.053932241041
 30
0.0
  0
SEQEND
  5
661
  8
外框线4
  0
INSERT
  5
440
  8
外框线4
  2
A$C36197F93
 10
3499.08808946508
 20
2012.053984234249
 30
0.0
 41
-1.0
  0
INSERT
  5
441
  8
标注
  2
A$C146E3994
 10
3415.088040055478
 20
2012.053932241041
 30
0.0
  0
INSERT
  5
442
  8
外框线1
  2
*X33
 10
0.0
 20
0.0
 30
0.0
  0
LINE
  5
443
  8
外框线1
 10
2724.279866176661
 20
2103.053932241041
 30
0.0
 11
3174.279866176661
 21
2103.053932241041
 31
0.0
  0
LINE
  5
444
  8
外框线1
 10
3174.279866176661
 20
2103.053932241041
 30
0.0
 11
3174.279866176661
 21
2018.053932241041
 31
0.0
  0
LINE
  5
445
  8
外框线1
 10
3174.279866176661
 20
2018.053932241041
 30
0.0
 11
2724.279866176661
 21
2018.053932241041
 31
0.0
  0
LINE
  5
446
  8
外框线1
 10
2724.279866176661
 20
2018.053932241041
 30
0.0
 11
2724.279866176661
 21
2103.053932241041
 31
0.0
  0
LINE
  5
447
  8
外框线2
  6
HIDDEN2
 10
2724.279866176661
 20
2102.053932241041
 30
0.0
 11
3174.279866176661
 21
2102.053932241041
 31
0.0
  0
LINE
  5
448
  8
外框线2
  6
HIDDEN2
 10
3174.279866176661
 20
2019.053932241041
 30
0.0
 11
2724.279866176661
 21
2019.053932241041
 31
0.0
  0
CIRCLE
  5
449
  8
外框线2
  6
HIDDEN2
 10
2949.279866176661
 20
2071.053932241041
 30
0.0
 40
19.0
  0
CIRCLE
  5
44A
  8
外框线2
  6
HIDDEN2
 10
3084.279866176661
 20
2071.053932241041
 30
0.0
 40
14.50000000000052
  0
CIRCLE
  5
44B
  8
外框线2
  6
HIDDEN2
 10
2814.279866176661
 20
2071.053932241041
 30
0.0
 40
14.5
  0
CIRCLE
  5
44C
  8
外框线2
  6
HIDDEN2
 10
3139.279866176661
 20
2071.053932241041
 30
0.0
 40
10.0
  0
ARC
  5
44D
  8
外框线1
 10
2897.014471650447
 20
1260.203089351396
 30
0.0
 40
2.0
 50
0.9999999998715059
 51
90.0
  0
LINE
  5
44E
  8
外框线1
 10
2936.148231545496
 20
1238.203089351396
 30
0.0
 11
2945.729866176702
 21
1238.203089351396
 31
0.0
  0
LINE
  5
44F
  8
外框线1
 10
2899.014167040794
 20
1260.237994164266
 30
0.0
 11
2899.098471434529
 21
1255.408198681988
 31
0.0
  0
ARC
  5
450
  8
外框线1
 10
2909.096948386086
 20
1255.582722746368
 30
0.0
 40
10.0
 50
180.9999999998715
 51
268.9999999984608
  0
LINE
  5
451
  8
外框线1
 10
2924.047318583154
 20
1245.320239783418
 30
0.0
 11
2908.922424321678
 21
1245.58424579481
 31
0.0
  0
ARC
  5
452
  8
外框线1
 10
2924.02986617669
 20
1244.320392088274
 30
0.0
 40
1.0
 50
359.9999999991662
 51
89.00000000179622
  0
LINE
  5
453
  8
外框线1
 10
2925.02986617669
 20
1244.320392088274
 30
0.0
 11
2925.081397151142
 21
1241.368184538508
 31
0.0
  0
LINE
  5
454
  8
外框线1
 10
2949.27986617669
 20
1239.403089351378
 30
0.0
 11
2927.081092541488
 21
1239.403089351378
 31
0.0
  0
ARC
  5
455
  8
外框线1
 10
2927.081092541488
 20
1241.403089351378
 30
0.0
 40
2.0
 50
180.9999999998715
 51
270.0
  0
LINE
  5
456
  8
外框线1
 10
2936.148231545496
 20
1239.403089351378
 30
0.0
 11
2936.148231545496
 21
1238.203089351396
 31
0.0
  0
LINE
  5
457
  8
外框线1
 10
2945.729866176702
 20
1239.403089351378
 30
0.0
 11
2945.729866176702
 21
1238.203089351396
 31
0.0
  0
LINE
  5
458
  8
外框线1
 10
2962.411500807884
 20
1238.203089351396
 30
0.0
 11
2952.829866176678
 21
1238.203089351396
 31
0.0
  0
LINE
  5
459
  8
外框线1
 10
2999.545565312645
 20
1260.237994164266
 30
0.0
 11
2999.46126091891
 21
1255.408198681988
 31
0.0
  0
ARC
  5
45A
  8
外框线1
 10
2989.462783967294
 20
1255.582722746368
 30
0.0
 40
10.0
 50
270.9999999982037
 51
359.0000000001285
  0
LINE
  5
45B
  8
外框线1
 10
2974.512413770284
 20
1245.320239783448
 30
0.0
 11
2989.637308031703
 21
1245.58424579481
 31
0.0
  0
ARC
  5
45C
  8
外框线1
 10
2974.52986617669
 20
1244.320392088274
 30
0.0
 40
1.0
 50
90.99999999820378
 51
180.0
  0
LINE
  5
45D
  8
外框线1
 10
2973.52986617669
 20
1244.320392088274
 30
0.0
 11
2973.478335202239
 21
1241.368184538508
 31
0.0
  0
LINE
  5
45E
  8
外框线1
 10
2949.27986617669
 20
1239.403089351378
 30
0.0
 11
2971.478639811892
 21
1239.403089351407
 31
0.0
  0
ARC
  5
45F
  8
外框线1
 10
2971.478639811892
 20
1241.403089351407
 30
0.0
 40
2.0
 50
270.0
 51
359.0000000001285
  0
LINE
  5
460
  8
外框线1
 10
2962.411500807884
 20
1239.403089351378
 30
0.0
 11
2962.411500807884
 21
1238.203089351396
 31
0.0
  0
LINE
  5
461
  8
外框线1
 10
2952.829866176678
 20
1239.403089351378
 30
0.0
 11
2952.829866176678
 21
1238.203089351396
 31
0.0
  0
ARC
  5
462
  8
外框线1
 10
3001.545260702933
 20
1260.203089351396
 30
0.0
 40
2.0
 50
90.0
 51
179.0000000001285
  0
ENDSEC
  0
EOF
