  0
SECTION
  2
HEADER
  9
$ACADVER
  1
AC1032
  9
$ACADMAINTVER
 90
      142
  9
$DWGCODEPAGE
  3
ANSI_1252
  9
$LASTSAVEDBY
  1
markpriestnal
  9
$REQUIREDVERSIONS
160
                 0
  9
$INSBASE
 10
0.0
 20
0.0
 30
0.0
  9
$EXTMIN
 10
2463.425273514125
 20
940.6170007771224
 30
0.0
  9
$EXTMAX
 10
3429.474768035237
 20
1861.572813720758
 30
0.0
  9
$LIMMIN
 10
0.0
 20
0.0
  9
$LIMMAX
 10
420.0
 20
297.0
  9
$ORTHOMODE
 70
     0
  9
$REGENMODE
 70
     1
  9
$FILLMODE
 70
     1
  9
$QTEXTMODE
 70
     0
  9
$MIRRTEXT
 70
     0
  9
$LTSCALE
 40
1.0
  9
$ATTMODE
 70
     1
  9
$TEXTSIZE
 40
2.5
  9
$TRACEWID
 40
1.0
  9
$TEXTSTYLE
  7
Standard
  9
$CLAYER
  8
0
  9
$CELTYPE
  6
ByLayer
  9
$CECOLOR
 62
   256
  9
$CELTSCALE
 40
1.0
  9
$DISPSILH
 70
     0
  9
$DIMSCALE
 40
1.0
  9
$DIMASZ
 40
2.5
  9
$DIMEXO
 40
0.625
  9
$DIMDLI
 40
3.75
  9
$DIMRND
 40
0.0
  9
$DIMDLE
 40
0.0
  9
$DIMEXE
 40
1.25
  9
$DIMTP
 40
0.0
  9
$DIMTM
 40
0.0
  9
$DIMTXT
 40
2.5
  9
$DIMCEN
 40
2.5
  9
$DIMTSZ
 40
0.0
  9
$DIMTOL
 70
     0
  9
$DIMLIM
 70
     0
  9
$DIMTIH
 70
     0
  9
$DIMTOH
 70
     0
  9
$DIMSE1
 70
     0
  9
$DIMSE2
 70
     0
  9
$DIMTAD
 70
     1
  9
$DIMZIN
 70
     8
  9
$DIMBLK
  1

  9
$DIMASO
 70
     1
  9
$DIMSHO
 70
     1
  9
$DIMPOST
  1

  9
$DIMAPOST
  1

  9
$DIMALT
 70
     0
  9
$DIMALTD
 70
     3
  9
$DIMALTF
 40
0.03937007874016
  9
$DIMLFAC
 40
1.0
  9
$DIMTOFL
 70
     1
  9
$DIMTVP
 40
0.0
  9
$DIMTIX
 70
     0
  9
$DIMSOXD
 70
     0
  9
$DIMSAH
 70
     0
  9
$DIMBLK1
  1

  9
$DIMBLK2
  1

  9
$DIMSTYLE
  2
ISO-25
  9
$DIMCLRD
 70
     0
  9
$DIMCLRE
 70
     0
  9
$DIMCLRT
 70
     0
  9
$DIMTFAC
 40
1.0
  9
$DIMGAP
 40
0.625
  9
$DIMJUST
 70
     0
  9
$DIMSD1
 70
     0
  9
$DIMSD2
 70
     0
  9
$DIMTOLJ
 70
     0
  9
$DIMTZIN
 70
     8
  9
$DIMALTZ
 70
     0
  9
$DIMALTTZ
 70
     0
  9
$DIMUPT
 70
     0
  9
$DIMDEC
 70
     2
  9
$DIMTDEC
 70
     2
  9
$DIMALTU
 70
     2
  9
$DIMALTTD
 70
     3
  9
$DIMTXSTY
  7
Standard
  9
$DIMAUNIT
 70
     0
  9
$DIMADEC
 70
     0
  9
$DIMALTRND
 40
0.0
  9
$DIMAZIN
 70
     0
  9
$DIMDSEP
 70
    44
  9
$DIMATFIT
 70
     3
  9
$DIMFRAC
 70
     0
  9
$DIMLDRBLK
  1

  9
$DIMLUNIT
 70
     2
  9
$DIMLWD
 70
    -2
  9
$DIMLWE
 70
    -2
  9
$DIMTMOVE
 70
     0
  9
$DIMFXL
 40
1.0
  9
$DIMFXLON
 70
     0
  9
$DIMJOGANG
 40
0.7853981633974483
  9
$DIMTFILL
 70
     0
  9
$DIMTFILLCLR
 70
     0
  9
$DIMARCSYM
 70
     0
  9
$DIMLTYPE
  6

  9
$DIMLTEX1
  6

  9
$DIMLTEX2
  6

  9
$DIMTXTDIRECTION
 70
     0
  9
$LUNITS
 70
     2
  9
$LUPREC
 70
     4
  9
$SKETCHINC
 40
1.0
  9
$FILLETRAD
 40
0.0
  9
$AUNITS
 70
     0
  9
$AUPREC
 70
     0
  9
$MENU
  1
.
  9
$ELEVATION
 40
0.0
  9
$PELEVATION
 40
0.0
  9
$THICKNESS
 40
0.0
  9
$LIMCHECK
 70
     0
  9
$CHAMFERA
 40
0.0
  9
$CHAMFERB
 40
0.0
  9
$CHAMFERC
 40
0.0
  9
$CHAMFERD
 40
0.0
  9
$SKPOLY
 70
     0
  9
$TDCREATE
 40
2458645.423275463
  9
$TDUCREATE
 40
2458645.339942257
  9
$TDUPDATE
 40
2459653.591203704
  9
$TDUUPDATE
 40
2459653.549537037
  9
$TDINDWG
 40
0.0013657986
  9
$TDUSRTIMER
 40
0.0013657755
  9
$USRTIMER
 70
     1
  9
$ANGBASE
 50
0.0
  9
$ANGDIR
 70
     0
  9
$PDMODE
 70
     0
  9
$PDSIZE
 40
0.0
  9
$PLINEWID
 40
0.0
  9
$SPLFRAME
 70
     0
  9
$SPLINETYPE
 70
     6
  9
$SPLINESEGS
 70
     8
  9
$HANDSEED
  5
5CF
  9
$SURFTAB1
 70
     6
  9
$SURFTAB2
 70
     6
  9
$SURFTYPE
 70
     6
  9
$SURFU
 70
     6
  9
$SURFV
 70
     6
  9
$UCSBASE
  2

  9
$UCSNAME
  2

  9
$UCSORG
 10
0.0
 20
0.0
 30
0.0
  9
$UCSXDIR
 10
1.0
 20
0.0
 30
0.0
  9
$UCSYDIR
 10
0.0
 20
1.0
 30
0.0
  9
$UCSORTHOREF
  2

  9
$UCSORTHOVIEW
 70
     0
  9
$UCSORGTOP
 10
0.0
 20
0.0
 30
0.0
  9
$UCSORGBOTTOM
 10
0.0
 20
0.0
 30
0.0
  9
$UCSORGLEFT
 10
0.0
 20
0.0
 30
0.0
  9
$UCSORGRIGHT
 10
0.0
 20
0.0
 30
0.0
  9
$UCSORGFRONT
 10
0.0
 20
0.0
 30
0.0
  9
$UCSORGBACK
 10
0.0
 20
0.0
 30
0.0
  9
$PUCSBASE
  2

  9
$PUCSNAME
  2

  9
$PUCSORG
 10
0.0
 20
0.0
 30
0.0
  9
$PUCSXDIR
 10
1.0
 20
0.0
 30
0.0
  9
$PUCSYDIR
 10
0.0
 20
1.0
 30
0.0
  9
$PUCSORTHOREF
  2

  9
$PUCSORTHOVIEW
 70
     0
  9
$PUCSORGTOP
 10
0.0
 20
0.0
 30
0.0
  9
$PUCSORGBOTTOM
 10
0.0
 20
0.0
 30
0.0
  9
$PUCSORGLEFT
 10
0.0
 20
0.0
 30
0.0
  9
$PUCSORGRIGHT
 10
0.0
 20
0.0
 30
0.0
  9
$PUCSORGFRONT
 10
0.0
 20
0.0
 30
0.0
  9
$PUCSORGBACK
 10
0.0
 20
0.0
 30
0.0
  9
$USERI1
 70
     0
  9
$USERI2
 70
     0
  9
$USERI3
 70
     0
  9
$USERI4
 70
     0
  9
$USERI5
 70
     0
  9
$USERR1
 40
0.0
  9
$USERR2
 40
0.0
  9
$USERR3
 40
0.0
  9
$USERR4
 40
0.0
  9
$USERR5
 40
0.0
  9
$WORLDVIEW
 70
     1
  9
$SHADEDGE
 70
     3
  9
$SHADEDIF
 70
    70
  9
$TILEMODE
 70
     1
  9
$MAXACTVP
 70
    64
  9
$PINSBASE
 10
0.0
 20
0.0
 30
0.0
  9
$PLIMCHECK
 70
     0
  9
$PEXTMIN
 10
0.0
 20
0.0
 30
0.0
  9
$PEXTMAX
 10
0.0
 20
0.0
 30
0.0
  9
$PLIMMIN
 10
0.0
 20
0.0
  9
$PLIMMAX
 10
12.0
 20
9.0
  9
$UNITMODE
 70
     0
  9
$VISRETAIN
 70
     1
  9
$PLINEGEN
 70
     0
  9
$PSLTSCALE
 70
     1
  9
$TREEDEPTH
 70
  3020
  9
$CMLSTYLE
  2
Standard
  9
$CMLJUST
 70
     0
  9
$CMLSCALE
 40
20.0
  9
$PROXYGRAPHICS
 70
     1
  9
$MEASUREMENT
 70
     1
  9
$CELWEIGHT
370
    -1
  9
$ENDCAPS
280
     0
  9
$JOINSTYLE
280
     0
  9
$LWDISPLAY
290
     0
  9
$INSUNITS
 70
     4
  9
$HYPERLINKBASE
  1

  9
$STYLESHEET
  1

  9
$XEDIT
290
     1
  9
$CEPSNTYPE
380
     0
  9
$PSTYLEMODE
290
     1
  9
$FINGERPRINTGUID
  2
{EC959236-7C91-4418-9459-A0D266725224}
  9
$VERSIONGUID
  2
{0237F2A0-90E3-3141-A6B4-37F7A75D6483}
  9
$EXTNAMES
290
     1
  9
$PSVPSCALE
 40
0.0
  9
$OLESTARTUP
290
     0
  9
$SORTENTS
280
   127
  9
$INDEXCTL
280
     0
  9
$HIDETEXT
280
     1
  9
$XCLIPFRAME
280
     2
  9
$HALOGAP
280
     0
  9
$OBSCOLOR
 70
   257
  9
$OBSLTYPE
280
     0
  9
$INTERSECTIONDISPLAY
280
     0
  9
$INTERSECTIONCOLOR
 70
   257
  9
$DIMASSOC
280
     2
  9
$PROJECTNAME
  1

  9
$CAMERADISPLAY
290
     0
  9
$LENSLENGTH
 40
50.0
  9
$CAMERAHEIGHT
 40
0.0
  9
$STEPSPERSEC
 40
2.0
  9
$STEPSIZE
 40
6.0
  9
$3DDWFPREC
 40
2.0
  9
$PSOLWIDTH
 40
5.0
  9
$PSOLHEIGHT
 40
80.0
  9
$LOFTANG1
 40
1.570796326794896
  9
$LOFTANG2
 40
1.570796326794896
  9
$LOFTMAG1
 40
0.0
  9
$LOFTMAG2
 40
0.0
  9
$LOFTPARAM
 70
     7
  9
$LOFTNORMALS
280
     1
  9
$LATITUDE
 40
37.795
  9
$LONGITUDE
 40
-122.394
  9
$NORTHDIRECTION
 40
0.0
  9
$TIMEZONE
 70
 -8000
  9
$LIGHTGLYPHDISPLAY
280
     1
  9
$TILEMODELIGHTSYNCH
280
     1
  9
$CMATERIAL
347
EC
  9
$SOLIDHIST
280
     0
  9
$SHOWHIST
280
     1
  9
$DWFFRAME
280
     2
  9
$DGNFRAME
280
     0
  9
$REALWORLDSCALE
290
     1
  9
$INTERFERECOLOR
 62
     1
  9
$INTERFEREOBJVS
345
F9
  9
$INTERFEREVPVS
346
F6
  9
$CSHADOW
280
     0
  9
$SHADOWPLANELOCATION
 40
0.0
  0
ENDSEC
  0
SECTION
  2
CLASSES
  0
CLASS
  1
ACDBDICTIONARYWDFLT
  2
AcDbDictionaryWithDefault
  3
ObjectDBX Classes
 90
        0
 91
        1
280
     0
281
     0
  0
CLASS
  1
DICTIONARYVAR
  2
AcDbDictionaryVar
  3
ObjectDBX Classes
 90
        0
 91
       16
280
     0
281
     0
  0
CLASS
  1
TABLESTYLE
  2
AcDbTableStyle
  3
ObjectDBX Classes
 90
     4095
 91
        1
280
     0
281
     0
  0
CLASS
  1
MATERIAL
  2
AcDbMaterial
  3
ObjectDBX Classes
 90
     1153
 91
        3
280
     0
281
     0
  0
CLASS
  1
VISUALSTYLE
  2
AcDbVisualStyle
  3
ObjectDBX Classes
 90
     4095
 91
       25
280
     0
281
     0
  0
CLASS
  1
SCALE
  2
AcDbScale
  3
ObjectDBX Classes
 90
     1153
 91
       17
280
     0
281
     0
  0
CLASS
  1
MLEADERSTYLE
  2
AcDbMLeaderStyle
  3
ACDB_MLEADERSTYLE_CLASS
 90
     4095
 91
        2
280
     0
281
     0
  0
CLASS
  1
CELLSTYLEMAP
  2
AcDbCellStyleMap
  3
ObjectDBX Classes
 90
     1152
 91
        2
280
     0
281
     0
  0
CLASS
  1
EXACXREFPANELOBJECT
  2
ExAcXREFPanelObject
  3
EXAC_ESW
 90
     1025
 91
        0
280
     0
281
     0
  0
CLASS
  1
NPOCOLLECTION
  2
AcDbImpNonPersistentObjectsCollection
  3
ObjectDBX Classes
 90
     1153
 91
        0
280
     0
281
     0
  0
CLASS
  1
LAYER_INDEX
  2
AcDbLayerIndex
  3
ObjectDBX Classes
 90
        0
 91
        0
280
     0
281
     0
  0
CLASS
  1
SPATIAL_INDEX
  2
AcDbSpatialIndex
  3
ObjectDBX Classes
 90
        0
 91
        0
280
     0
281
     0
  0
CLASS
  1
IDBUFFER
  2
AcDbIdBuffer
  3
ObjectDBX Classes
 90
        0
 91
        0
280
     0
281
     0
  0
CLASS
  1
ACDBSECTIONVIEWSTYLE
  2
AcDbSectionViewStyle
  3
ObjectDBX Classes
 90
     1025
 91
        1
280
     0
281
     0
  0
CLASS
  1
ACDBDETAILVIEWSTYLE
  2
AcDbDetailViewStyle
  3
ObjectDBX Classes
 90
     1025
 91
        1
280
     0
281
     0
  0
CLASS
  1
SORTENTSTABLE
  2
AcDbSortentsTable
  3
ObjectDBX Classes
 90
        0
 91
        6
280
     0
281
     0
  0
CLASS
  1
DIMASSOC
  2
AcDbDimAssoc
  3
"AcDbDimAssoc|Product Desc:     AcDim ARX App For Dimension|Company:          Autodesk, Inc.|WEB Address:      www.autodesk.com"
 90
        0
 91
       12
280
     0
281
     0
  0
ENDSEC
  0
SECTION
  2
TABLES
  0
TABLE
  2
VPORT
  5
8
102
{ACAD_XDICTIONARY
360
573
102
}
330
0
100
AcDbSymbolTable
 70
     1
  0
VPORT
  5
EA
330
8
100
AcDbSymbolTableRecord
100
AcDbViewportTableRecord
  2
*Active
 70
     0
 10
0.0
 20
0.0
 11
1.0
 21
1.0
 12
2929.929766671685
 22
2306.008064712788
 13
0.0
 23
0.0
 14
10.0
 24
10.0
 15
10.0
 25
10.0
 16
0.0
 26
0.0
 36
1.0
 17
0.0
 27
0.0
 37
0.0
 40
2189.0020562997
 41
0.7984496124031008
 42
50.0
 43
0.0
 44
0.0
 50
0.0
 51
0.0
 71
     0
 72
  1000
 73
     1
 74
     3
 75
     0
 76
     0
 77
     0
 78
     0
281
     0
 65
     1
110
0.0
120
0.0
130
0.0
111
1.0
121
0.0
131
0.0
112
0.0
122
1.0
132
0.0
 79
     0
146
0.0
348
F5
 60
     3
 61
     5
292
     1
282
     1
141
0.0
142
0.0
 63
   250
421
  3355443
1001
ACAD_NAV_VCDISPLAY
1070
     3
  0
ENDTAB
  0
TABLE
  2
LTYPE
  5
5
330
0
100
AcDbSymbolTable
 70
     4
  0
LTYPE
  5
14
330
5
100
AcDbSymbolTableRecord
100
AcDbLinetypeTableRecord
  2
ByBlock
 70
     0
  3

 72
    65
 73
     0
 40
0.0
  0
LTYPE
  5
15
330
5
100
AcDbSymbolTableRecord
100
AcDbLinetypeTableRecord
  2
ByLayer
 70
     0
  3

 72
    65
 73
     0
 40
0.0
  0
LTYPE
  5
16
330
5
100
AcDbSymbolTableRecord
100
AcDbLinetypeTableRecord
  2
Continuous
 70
     0
  3
Solid line
 72
    65
 73
     0
 40
0.0
  0
LTYPE
  5
366
330
5
100
AcDbSymbolTableRecord
100
AcDbLinetypeTableRecord
  2
CENTER2
 70
     0
  3
Center (.5x) ___ _ ___ _ ___ _ ___ _ ___ _ ___
 72
    65
 73
     4
 40
28.575
 49
19.05
 74
     0
 49
-3.174999999999999
 74
     0
 49
3.174999999999999
 74
     0
 49
-3.174999999999999
 74
     0
  0
LTYPE
  5
367
330
5
100
AcDbSymbolTableRecord
100
AcDbLinetypeTableRecord
  2
HIDDENX2
 70
     0
  3
Hidden (2x) ____ ____ ____ ____ ____ ____ ____
 72
    65
 73
     2
 40
19.05
 49
12.7
 74
     0
 49
-6.349999999999999
 74
     0
  0
LTYPE
  5
368
330
5
100
AcDbSymbolTableRecord
100
AcDbLinetypeTableRecord
  2
HIDDEN
 70
     0
  3
- - - - - - - - - - - - - - - - - - - -
 72
    65
 73
     2
 40
0.2
 49
0.1
 74
     0
 49
-0.1
 74
     0
  0
ENDTAB
  0
TABLE
  2
LAYER
  5
2
102
{ACAD_XDICTIONARY
360
1FF
102
}
330
0
100
AcDbSymbolTable
 70
     7
  0
LAYER
  5
10
102
{ACAD_XDICTIONARY
360
13C
102
}
330
2
100
AcDbSymbolTableRecord
100
AcDbLayerTableRecord
  2
0
 70
     0
 62
     7
  6
Continuous
370
    -3
390
F
347
EE
348
0
  0
LAYER
  5
369
330
2
100
AcDbSymbolTableRecord
100
AcDbLayerTableRecord
  2
外框线1
 70
     0
 62
     3
  6
Continuous
370
    -3
390
F
347
EE
348
0
1001
AcAecLayerStandard
1000

1000

1001
AcadStringInfo
1000
MIFCodePage
1070
     5
  0
LAYER
  5
36A
330
2
100
AcDbSymbolTableRecord
100
AcDbLayerTableRecord
  2
Defpoints
 70
     0
 62
     7
  6
Continuous
290
     0
370
    -3
390
F
347
EE
348
0
  0
LAYER
  5
36B
330
2
100
AcDbSymbolTableRecord
100
AcDbLayerTableRecord
  2
外框线2
 70
     0
 62
     6
  6
Continuous
370
    -3
390
F
347
EE
348
0
1001
AcAecLayerStandard
1000

1000

1001
AcadStringInfo
1000
MIFCodePage
1070
     5
  0
LAYER
  5
36C
330
2
100
AcDbSymbolTableRecord
100
AcDbLayerTableRecord
  2
标注
 70
     0
 62
     1
  6
Continuous
370
     9
390
F
347
EE
348
0
1001
AcAecLayerStandard
1000

1000

1001
AcadStringInfo
1000
MIFCodePage
1070
     5
  0
LAYER
  5
36D
330
2
100
AcDbSymbolTableRecord
100
AcDbLayerTableRecord
  2
外框线3
 70
     0
 62
   128
  6
CENTER2
370
    15
390
F
347
EE
348
0
1001
AcAecLayerStandard
1000

1000

1001
AcadStringInfo
1000
MIFCodePage
1070
     5
  0
LAYER
  5
36E
330
2
100
AcDbSymbolTableRecord
100
AcDbLayerTableRecord
  2
外框线5
 70
     0
 62
     2
  6
Continuous
370
     9
390
F
347
EE
348
0
1001
AcAecLayerStandard
1000

1000

1001
AcadStringInfo
1000
MIFCodePage
1070
     5
  0
ENDTAB
  0
TABLE
  2
STYLE
  5
3
330
0
100
AcDbSymbolTable
 70
     2
  0
STYLE
  5
11
330
3
100
AcDbSymbolTableRecord
100
AcDbTextStyleTableRecord
  2
Standard
 70
     0
 40
0.0
 41
1.0
 50
0.0
 71
     0
 42
2.5
  3
arial.ttf
  4

1001
ACAD
1000
Arial
1071
       34
  0
STYLE
  5
132
330
3
100
AcDbSymbolTableRecord
100
AcDbTextStyleTableRecord
  2
Annotative
 70
     0
 40
0.0
 41
1.0
 50
0.0
 71
     0
 42
2.5
  3
arial.ttf
  4

1001
AcadAnnotative
1000
AnnotativeData
1002
{
1070
     1
1070
     1
1002
}
1001
ACAD
1000
Arial
1071
       34
  0
ENDTAB
  0
TABLE
  2
VIEW
  5
6
330
0
100
AcDbSymbolTable
 70
     1
  0
ENDTAB
  0
TABLE
  2
UCS
  5
7
330
0
100
AcDbSymbolTable
 70
     0
  0
ENDTAB
  0
TABLE
  2
APPID
  5
9
330
0
100
AcDbSymbolTable
 70
    14
  0
APPID
  5
12
330
9
100
AcDbSymbolTableRecord
100
AcDbRegAppTableRecord
  2
ACAD
 70
     0
  0
APPID
  5
9E
330
9
100
AcDbSymbolTableRecord
100
AcDbRegAppTableRecord
  2
ACAD_PSEXT
 70
     0
  0
APPID
  5
133
330
9
100
AcDbSymbolTableRecord
100
AcDbRegAppTableRecord
  2
AcadAnnoPO
 70
     0
  0
APPID
  5
134
330
9
100
AcDbSymbolTableRecord
100
AcDbRegAppTableRecord
  2
AcadAnnotative
 70
     0
  0
APPID
  5
135
330
9
100
AcDbSymbolTableRecord
100
AcDbRegAppTableRecord
  2
ACAD_DSTYLE_DIMJAG
 70
     0
  0
APPID
  5
136
330
9
100
AcDbSymbolTableRecord
100
AcDbRegAppTableRecord
  2
ACAD_DSTYLE_DIMTALN
 70
     0
  0
APPID
  5
165
330
9
100
AcDbSymbolTableRecord
100
AcDbRegAppTableRecord
  2
ACAD_MLEADERVER
 70
     0
  0
APPID
  5
217
330
9
100
AcDbSymbolTableRecord
100
AcDbRegAppTableRecord
  2
ACAD_NAV_VCDISPLAY
 70
     0
  0
APPID
  5
374
330
9
100
AcDbSymbolTableRecord
100
AcDbRegAppTableRecord
  2
ACAD_DSTYLE_DIMBREAK
 70
     0
  0
APPID
  5
375
330
9
100
AcDbSymbolTableRecord
100
AcDbRegAppTableRecord
  2
AcAecLayerStandard
 70
     0
  0
APPID
  5
376
330
9
100
AcDbSymbolTableRecord
100
AcDbRegAppTableRecord
  2
AcDbDynamicBlockGUID
 70
     0
  0
APPID
  5
377
330
9
100
AcDbSymbolTableRecord
100
AcDbRegAppTableRecord
  2
ACAD_DSTYLE_DIMRADIAL_EXTENSION
 70
     0
  0
APPID
  5
5C1
330
9
100
AcDbSymbolTableRecord
100
AcDbRegAppTableRecord
  2
AcadStringInfo
 70
     0
  0
APPID
  5
5C4
330
9
100
AcDbSymbolTableRecord
100
AcDbRegAppTableRecord
  2
Acad_TC
 70
     0
  0
ENDTAB
  0
TABLE
  2
DIMSTYLE
  5
A
330
0
100
AcDbSymbolTable
 70
     8
100
AcDbDimStyleTable
 71
     2
340
27
340
137
  0
DIMSTYLE
105
1B0
330
A
100
AcDbSymbolTableRecord
100
AcDbDimStyleTableRecord
  2
Standard
 70
     0
340
11
  0
DIMSTYLE
105
137
330
A
100
AcDbSymbolTableRecord
100
AcDbDimStyleTableRecord
  2
Annotative
 70
     0
 40
0.0
 41
2.5
 42
0.625
 43
3.75
 44
1.25
 73
     0
 74
     0
 77
     1
 78
     8
140
2.5
141
2.5
143
0.03937007874016
147
0.625
171
     3
172
     1
271
     2
272
     2
274
     3
278
    44
283
     0
284
     8
340
11
1001
AcadAnnotative
1000
AnnotativeData
1002
{
1070
     1
1070
     1
1002
}
1001
ACAD_DSTYLE_DIMJAG
1070
   388
1040
1.5
1001
ACAD_DSTYLE_DIMTALN
1070
   392
1070
     0
  0
DIMSTYLE
105
27
330
A
100
AcDbSymbolTableRecord
100
AcDbDimStyleTableRecord
  2
ISO-25
 70
     0
 41
2.5
 42
0.625
 43
3.75
 44
1.25
 73
     0
 74
     0
 77
     1
 78
     8
140
2.5
141
2.5
143
0.03937007874016
147
0.625
171
     3
172
     1
271
     2
272
     2
274
     3
278
    44
283
     0
284
     8
340
11
  0
DIMSTYLE
105
36F
102
{ACAD_REACTORS
330
42C
330
42F
330
432
330
435
330
438
330
43B
330
43E
330
441
330
444
330
447
330
459
330
45C
102
}
330
A
100
AcDbSymbolTableRecord
100
AcDbDimStyleTableRecord
  2
1-8-L
 70
     0
 40
8.0
 41
1.5
 42
0.625
 43
3.75
 44
1.25
 73
     0
 74
     0
 77
     1
 78
     8
140
2.299999999999998
141
2.5
143
0.03937007874016
147
0.625
171
     8
172
     1
271
     2
272
     2
273
     7
274
     8
283
     0
284
     8
340
11
1001
ACAD_DSTYLE_DIMBREAK
1070
   391
1040
3.75
1001
ACAD_DSTYLE_DIMJAG
1070
   388
1040
1.5
1001
ACAD_DSTYLE_DIMTALN
1070
   392
1070
     0
  0
DIMSTYLE
105
370
330
A
100
AcDbSymbolTableRecord
100
AcDbDimStyleTableRecord
  2
1-2-L
 70
     0
 40
2.0
 41
1.5
 42
0.625
 43
3.75
 44
1.25
 73
     0
 74
     0
 77
     1
 78
     8
140
2.299999999999999
141
2.5
143
0.03937007874016
147
0.625
171
     8
172
     1
271
     2
272
     2
273
     7
274
     8
283
     0
284
     8
340
11
1001
ACAD_DSTYLE_DIMBREAK
1070
   391
1040
3.75
1001
ACAD_DSTYLE_DIMJAG
1070
   388
1040
1.5
1001
ACAD_DSTYLE_DIMTALN
1070
   392
1070
     0
  0
DIMSTYLE
105
371
102
{ACAD_REACTORS
330
4A5
102
}
330
A
100
AcDbSymbolTableRecord
100
AcDbDimStyleTableRecord
  2
1-6-L
 70
     0
 40
6.0
 41
1.5
 42
0.625
 43
3.75
 44
1.25
 73
     0
 74
     0
 77
     1
 78
     8
140
2.299999999999999
141
2.5
143
0.03937007874016
147
0.625
171
     8
172
     1
271
     2
272
     2
273
     7
274
     8
283
     0
284
     8
340
11
1001
ACAD_DSTYLE_DIMBREAK
1070
   391
1040
3.75
1001
ACAD_DSTYLE_DIMJAG
1070
   388
1040
1.5
1001
ACAD_DSTYLE_DIMTALN
1070
   392
1070
     0
  0
DIMSTYLE
105
372
330
A
100
AcDbSymbolTableRecord
100
AcDbDimStyleTableRecord
  2
1-4-L
 70
     0
 40
4.0
 41
1.5
 42
0.625
 43
3.75
 44
1.25
 73
     0
 74
     0
 77
     1
 78
     8
140
2.299999999999999
141
2.5
143
0.03937007874016
147
0.625
171
     8
172
     1
271
     2
272
     2
273
     7
274
     8
283
     0
284
     8
340
11
1001
ACAD_DSTYLE_DIMBREAK
1070
   391
1040
3.75
1001
ACAD_DSTYLE_DIMJAG
1070
   388
1040
1.5
1001
ACAD_DSTYLE_DIMTALN
1070
   392
1070
     0
  0
DIMSTYLE
105
373
330
A
100
AcDbSymbolTableRecord
100
AcDbDimStyleTableRecord
  2
1-5-L
 70
     0
 40
5.0
 41
1.5
 42
0.625
 43
3.75
 44
1.25
 73
     0
 74
     0
 77
     1
 78
     8
140
2.299999999999999
141
2.5
143
0.03937007874016
147
0.625
171
     8
172
     1
271
     2
272
     2
273
     7
274
     8
283
     0
284
     8
340
11
1001
ACAD_DSTYLE_DIMBREAK
1070
   391
1040
3.75
1001
ACAD_DSTYLE_DIMJAG
1070
   388
1040
1.5
1001
ACAD_DSTYLE_DIMTALN
1070
   392
1070
     0
  0
ENDTAB
  0
TABLE
  2
BLOCK_RECORD
  5
1
330
0
100
AcDbSymbolTable
 70
    33
  0
BLOCK_RECORD
  5
1F
102
{ACAD_XDICTIONARY
360
1CE
102
}
330
1
100
AcDbSymbolTableRecord
100
AcDbBlockTableRecord
  2
*Model_Space
340
22
 70
     0
280
     1
281
     0
  0
BLOCK_RECORD
  5
D2
330
1
100
AcDbSymbolTableRecord
100
AcDbBlockTableRecord
  2
*Paper_Space
340
D3
 70
     0
280
     1
281
     0
  0
BLOCK_RECORD
  5
D6
330
1
100
AcDbSymbolTableRecord
100
AcDbBlockTableRecord
  2
*Paper_Space0
340
D7
 70
     0
280
     1
281
     0
  0
BLOCK_RECORD
  5
250
102
{ACAD_XDICTIONARY
360
251
102
}
330
1
100
AcDbSymbolTableRecord
100
AcDbBlockTableRecord
  2
A$C60E228D6
340
0
102
{BLKREFS
331
44E
331
44F
102
}
 70
     4
280
     1
281
     0
1001
AcDbDynamicBlockGUID
1000
{0877BE4C-14AE-472C-9281-6B35D48E098C}
  0
BLOCK_RECORD
  5
25D
102
{ACAD_XDICTIONARY
360
25E
102
}
330
1
100
AcDbSymbolTableRecord
100
AcDbBlockTableRecord
  2
A$C67E91360
340
0
102
{BLKREFS
331
44A
331
453
102
}
 70
     4
280
     1
281
     0
  0
BLOCK_RECORD
  5
268
102
{ACAD_XDICTIONARY
360
269
102
}
330
1
100
AcDbSymbolTableRecord
100
AcDbBlockTableRecord
  2
A$C61936786
340
0
102
{BLKREFS
331
44B
331
44C
102
}
 70
     4
280
     1
281
     0
1001
AcDbDynamicBlockGUID
1000
{5330DB34-61A1-4929-805C-940E635FC5D2}
  0
BLOCK_RECORD
  5
26E
102
{ACAD_XDICTIONARY
360
26F
102
}
330
1
100
AcDbSymbolTableRecord
100
AcDbBlockTableRecord
  2
A$C538D63E5
340
0
102
{BLKREFS
331
450
331
451
102
}
 70
     4
280
     1
281
     0
  0
BLOCK_RECORD
  5
27B
102
{ACAD_XDICTIONARY
360
27C
102
}
330
1
100
AcDbSymbolTableRecord
100
AcDbBlockTableRecord
  2
A$C42CD34D6
340
0
102
{BLKREFS
331
452
102
}
 70
     4
280
     1
281
     0
  0
BLOCK_RECORD
  5
2C3
102
{ACAD_XDICTIONARY
360
2C4
102
}
330
1
100
AcDbSymbolTableRecord
100
AcDbBlockTableRecord
  2
A$C5D565640
340
0
102
{BLKREFS
331
45E
102
}
 70
     4
280
     1
281
     0
  0
BLOCK_RECORD
  5
4A9
330
1
100
AcDbSymbolTableRecord
100
AcDbBlockTableRecord
  2
*D20
340
0
 70
     0
280
     1
281
     0
  0
BLOCK_RECORD
  5
4B6
330
1
100
AcDbSymbolTableRecord
100
AcDbBlockTableRecord
  2
*D21
340
0
 70
     0
280
     1
281
     0
  0
BLOCK_RECORD
  5
4C2
330
1
100
AcDbSymbolTableRecord
100
AcDbBlockTableRecord
  2
*D22
340
0
 70
     0
280
     1
281
     0
  0
BLOCK_RECORD
  5
4CC
330
1
100
AcDbSymbolTableRecord
100
AcDbBlockTableRecord
  2
*D23
340
0
 70
     0
280
     1
281
     0
  0
BLOCK_RECORD
  5
4D8
330
1
100
AcDbSymbolTableRecord
100
AcDbBlockTableRecord
  2
*D24
340
0
 70
     0
280
     1
281
     0
  0
BLOCK_RECORD
  5
4E4
330
1
100
AcDbSymbolTableRecord
100
AcDbBlockTableRecord
  2
*D25
340
0
 70
     0
280
     1
281
     0
  0
BLOCK_RECORD
  5
4F0
330
1
100
AcDbSymbolTableRecord
100
AcDbBlockTableRecord
  2
*D26
340
0
 70
     0
280
     1
281
     0
  0
BLOCK_RECORD
  5
4FC
330
1
100
AcDbSymbolTableRecord
100
AcDbBlockTableRecord
  2
*D27
340
0
 70
     0
280
     1
281
     0
  0
BLOCK_RECORD
  5
508
330
1
100
AcDbSymbolTableRecord
100
AcDbBlockTableRecord
  2
*D28
340
0
 70
     0
280
     1
281
     0
  0
BLOCK_RECORD
  5
513
330
1
100
AcDbSymbolTableRecord
100
AcDbBlockTableRecord
  2
*D29
340
0
 70
     0
280
     1
281
     0
  0
BLOCK_RECORD
  5
51F
330
1
100
AcDbSymbolTableRecord
100
AcDbBlockTableRecord
  2
*D30
340
0
 70
     0
280
     1
281
     0
  0
BLOCK_RECORD
  5
529
330
1
100
AcDbSymbolTableRecord
100
AcDbBlockTableRecord
  2
*D31
340
0
 70
     0
280
     1
281
     0
  0
BLOCK_RECORD
  5
53F
330
1
100
AcDbSymbolTableRecord
100
AcDbBlockTableRecord
  2
*D32
340
0
 70
     0
280
     1
281
     0
  0
ENDTAB
  0
ENDSEC
  0
SECTION
  2
BLOCKS
  0
BLOCK
  5
20
330
1F
100
AcDbEntity
  8
0
100
AcDbBlockBegin
  2
*Model_Space
 70
     0
 10
0.0
 20
0.0
 30
0.0
  3
*Model_Space
  1

  0
ENDBLK
  5
21
330
1F
100
AcDbEntity
  8
0
100
AcDbBlockEnd
  0
BLOCK
  5
D4
330
D2
100
AcDbEntity
 67
     1
  8
0
100
AcDbBlockBegin
  2
*Paper_Space
 70
     0
 10
0.0
 20
0.0
 30
0.0
  3
*Paper_Space
  1

  0
ENDBLK
  5
D5
330
D2
100
AcDbEntity
 67
     1
  8
0
100
AcDbBlockEnd
  0
BLOCK
  5
D8
330
D6
100
AcDbEntity
 67
     1
  8
0
100
AcDbBlockBegin
  2
*Paper_Space0
 70
     0
 10
0.0
 20
0.0
 30
0.0
  3
*Paper_Space0
  1

  0
ENDBLK
  5
D9
330
D6
100
AcDbEntity
 67
     1
  8
0
100
AcDbBlockEnd
  0
BLOCK
  5
253
330
250
100
AcDbEntity
  8
0
100
AcDbBlockBegin
  2
A$C60E228D6
 70
     0
 10
0.0
 20
0.0
 30
0.0
  3
A$C60E228D6
  1

  0
LINE
  5
254
330
250
100
AcDbEntity
  8
外框线5
100
AcDbLine
 10
0.0
 20
83.00000027549685
 30
0.0
 11
20.0
 21
83.00000027549685
 31
0.0
  0
LINE
  5
255
330
250
100
AcDbEntity
  8
外框线5
100
AcDbLine
 10
0.0
 20
81.50000027549685
 30
0.0
 11
18.49999999999818
 21
81.50000027549685
 31
0.0
  0
LINE
  5
256
330
250
100
AcDbEntity
  8
外框线5
100
AcDbLine
 10
20.0
 20
83.00000027549685
 30
0.0
 11
20.0
 21
0.0000002754968591
 31
0.0
  0
LINE
  5
257
330
250
100
AcDbEntity
  8
外框线5
100
AcDbLine
 10
18.49999999999909
 20
81.50000027549685
 30
0.0
 11
18.5
 21
0.0000002754968591
 31
0.0
  0
LINE
  5
258
330
250
100
AcDbEntity
  8
外框线5
100
AcDbLine
 10
0.0
 20
0.0000002754968591
 30
0.0
 11
20.0
 21
0.0000002754968591
 31
0.0
  0
LINE
  5
259
330
250
100
AcDbEntity
  8
外框线5
100
AcDbLine
 10
0.0
 20
0.0000002754968591
 30
0.0
 11
0.0
 21
70.00000027549686
 31
0.0
  0
LINE
  5
25A
330
250
100
AcDbEntity
  8
外框线5
100
AcDbLine
 10
0.0
 20
70.00000027549686
 30
0.0
 11
18.49999999999909
 21
70.00000027549686
 31
0.0
  0
LINE
  5
25B
330
250
100
AcDbEntity
  8
外框线5
100
AcDbLine
 10
0.0
 20
83.00000027549685
 30
0.0
 11
0.0
 21
81.50000027549685
 31
0.0
  0
ENDBLK
  5
25C
330
250
100
AcDbEntity
  8
0
100
AcDbBlockEnd
  0
BLOCK
  5
260
330
25D
100
AcDbEntity
  8
0
100
AcDbBlockBegin
  2
A$C67E91360
 70
     0
 10
0.0
 20
0.0
 30
0.0
  3
A$C67E91360
  1

  0
LWPOLYLINE
  5
261
330
25D
100
AcDbEntity
  8
标注
100
AcDbPolyline
 90
        4
 70
     1
 43
0.0
 10
0.0
 20
48.00000741714757
 10
20.0
 20
48.00000741714757
 10
20.0
 20
3.000007417147571
 10
0.0
 20
3.000007417147571
  0
LINE
  5
262
330
25D
100
AcDbEntity
  8
标注
100
AcDbLine
 10
0.0
 20
3.000007417147571
 30
0.0
 11
0.0
 21
0.0000074171475717
 31
0.0
  0
LINE
  5
263
330
25D
100
AcDbEntity
  8
标注
100
AcDbLine
 10
0.0
 20
0.0000074171475717
 30
0.0
 11
20.0
 21
0.0000074171480264
 31
0.0
  0
LINE
  5
264
330
25D
100
AcDbEntity
  8
标注
100
AcDbLine
 10
0.0
 20
1.500007417147571
 30
0.0
 11
18.5
 21
1.500007417148026
 31
0.0
  0
LINE
  5
265
330
25D
100
AcDbEntity
  8
标注
100
AcDbLine
 10
20.0
 20
0.0000074171480264
 30
0.0
 11
20.0
 21
3.000007417147571
 31
0.0
  0
LINE
  5
266
330
25D
100
AcDbEntity
  8
标注
100
AcDbLine
 10
18.49999999999988
 20
1.500007417148026
 30
0.0
 11
18.5
 21
3.000007417147571
 31
0.0
  0
ENDBLK
  5
267
330
25D
100
AcDbEntity
  8
0
100
AcDbBlockEnd
  0
BLOCK
  5
26B
330
268
100
AcDbEntity
  8
0
100
AcDbBlockBegin
  2
A$C61936786
 70
     0
 10
0.0
 20
0.0
 30
0.0
  3
A$C61936786
  1

  0
LWPOLYLINE
  5
26C
330
268
100
AcDbEntity
  8
外框线2
 48
0.2
100
AcDbPolyline
 90
        4
 70
     1
 43
0.0
 10
0.0
 20
12.00000601095598
 10
460.0
 20
12.00000601095598
 10
460.0
 20
-0.9999939890440145
 10
-0.0000000000000002
 20
-0.9999939890440145
  0
ENDBLK
  5
26D
330
268
100
AcDbEntity
  8
0
100
AcDbBlockEnd
  0
BLOCK
  5
271
330
26E
100
AcDbEntity
  8
0
100
AcDbBlockBegin
  2
A$C538D63E5
 70
     0
 10
0.0
 20
0.0
 30
0.0
  3
A$C538D63E5
  1

  0
LINE
  5
272
330
26E
100
AcDbEntity
  8
外框线2
 48
0.2
100
AcDbLine
 10
0.0000048318247536
 20
14.00000236733649
 30
0.0
 11
0.0000048318247536
 21
24.00000236733649
 31
0.0
  0
LINE
  5
273
330
26E
100
AcDbEntity
  8
外框线2
 48
0.2
100
AcDbLine
 10
1.200004831824571
 20
14.00000236733649
 30
0.0
 11
1.200004831825026
 21
22.80000236733668
 31
0.0
  0
LINE
  5
274
330
26E
100
AcDbEntity
  8
外框线2
 48
0.2
100
AcDbLine
 10
0.0000048318247536
 20
24.00000236733649
 30
0.0
 11
13.00000483182475
 21
24.00000236733649
 31
0.0
  0
LINE
  5
275
330
26E
100
AcDbEntity
  8
外框线2
 48
0.2
100
AcDbLine
 10
1.200004831825026
 20
22.80000236733668
 30
0.0
 11
11.80000483182493
 21
22.80000236733668
 31
0.0
  0
LINE
  5
276
330
26E
100
AcDbEntity
  8
外框线2
 48
0.2
100
AcDbLine
 10
13.00000483182475
 20
24.00000236733649
 30
0.0
 11
13.00000483182475
 21
0.0000023673364922
 31
0.0
  0
LINE
  5
277
330
26E
100
AcDbEntity
  8
外框线2
 48
0.2
100
AcDbLine
 10
11.80000483182493
 20
22.80000236733668
 30
0.0
 11
11.80000483182493
 21
0.0000023673364922
 31
0.0
  0
LINE
  5
278
330
26E
100
AcDbEntity
  8
外框线2
 48
0.2
100
AcDbLine
 10
0.0000048318247536
 20
14.00000236733649
 30
0.0
 11
1.200004831824571
 21
14.00000236733649
 31
0.0
  0
LINE
  5
279
330
26E
100
AcDbEntity
  8
外框线2
 48
0.2
100
AcDbLine
 10
11.80000483182493
 20
0.0000023673364922
 30
0.0
 11
13.00000483182475
 21
0.0000023673364922
 31
0.0
  0
ENDBLK
  5
27A
330
26E
100
AcDbEntity
  8
0
100
AcDbBlockEnd
  0
BLOCK
  5
27E
330
27B
100
AcDbEntity
  8
0
100
AcDbBlockBegin
  2
A$C42CD34D6
 70
     0
 10
0.0
 20
0.0
 30
0.0
  3
A$C42CD34D6
  1

  0
LINE
  5
27F
330
27B
100
AcDbEntity
  8
外框线2
100
AcDbLine
 10
0.0000030810188036
 20
24.00000315593298
 30
0.0
 11
790.0000055321743
 21
24.00000315593298
 31
0.0
  0
LINE
  5
280
330
27B
100
AcDbEntity
  8
外框线2
  6
HIDDENX2
 48
0.2
100
AcDbLine
 10
4.000003081018803
 20
14.00000315593297
 30
0.0
 11
786.0000055321743
 21
14.00000315593297
 31
0.0
  0
LINE
  5
281
330
27B
100
AcDbEntity
  8
外框线2
100
AcDbLine
 10
10.0000030810188
 20
0.0000031559329727
 30
0.0
 11
780.0000055321743
 21
0.0000031559329727
 31
0.0
  0
ARC
  5
282
330
27B
100
AcDbEntity
  8
外框线2
100
AcDbCircle
 10
10.0000030810188
 20
10.00000315593297
 30
0.0
 40
10.0
100
AcDbArc
 50
180.0
 51
270.0
  0
LINE
  5
283
330
27B
100
AcDbEntity
  8
外框线2
100
AcDbLine
 10
0.0000030810188036
 20
24.00000315593298
 30
0.0
 11
0.0000030810188036
 21
18.00000315593297
 31
0.0
  0
ARC
  5
284
330
27B
100
AcDbEntity
  8
外框线2
  6
HIDDENX2
 48
0.2
100
AcDbCircle
 10
4.000003081018803
 20
18.00000315593297
 30
0.0
 40
4.0
100
AcDbArc
 50
180.0
 51
270.0
  0
LINE
  5
285
330
27B
100
AcDbEntity
  8
外框线2
100
AcDbLine
 10
0.0000030810188036
 20
18.00000315593297
 30
0.0
 11
0.0000030810188036
 21
10.00000315593297
 31
0.0
  0
ARC
  5
286
330
27B
100
AcDbEntity
  8
外框线2
100
AcDbCircle
 10
780.0000055321743
 20
10.00000315593297
 30
0.0
 40
10.0
100
AcDbArc
 50
270.0
 51
0.0
  0
LINE
  5
287
330
27B
100
AcDbEntity
  8
外框线2
100
AcDbLine
 10
790.0000055321743
 20
24.00000315593298
 30
0.0
 11
790.0000055321743
 21
18.00000315593297
 31
0.0
  0
ARC
  5
288
330
27B
100
AcDbEntity
  8
外框线2
  6
HIDDENX2
 48
0.2
100
AcDbCircle
 10
786.0000055321743
 20
18.00000315593297
 30
0.0
 40
4.0
100
AcDbArc
 50
270.0
 51
0.0
  0
LINE
  5
289
330
27B
100
AcDbEntity
  8
外框线2
100
AcDbLine
 10
790.0000055321743
 20
18.00000315593297
 30
0.0
 11
790.0000055321743
 21
10.00000315593297
 31
0.0
  0
LINE
  5
28A
330
27B
100
AcDbEntity
  8
外框线2
 48
0.2
100
AcDbLine
 10
748.1000055321747
 20
8.000003155932972
 30
0.0
 11
762.5000055321743
 21
8.000003155932972
 31
0.0
  0
ARC
  5
28B
330
27B
100
AcDbEntity
  8
外框线2
 48
0.2
100
AcDbCircle
 10
762.5000055321743
 20
8.300003155933154
 30
0.0
 40
0.3
100
AcDbArc
 50
270.0
 51
0.0
  0
LINE
  5
28C
330
27B
100
AcDbEntity
  8
外框线2
 48
0.2
100
AcDbLine
 10
748.1000055321747
 20
12.00000315593297
 30
0.0
 11
762.5000055321743
 21
12.00000315593297
 31
0.0
  0
ARC
  5
28D
330
27B
100
AcDbEntity
  8
外框线2
 48
0.2
100
AcDbCircle
 10
748.1000055321747
 20
11.70000315593279
 30
0.0
 40
0.3
100
AcDbArc
 50
90.0
 51
180.0
  0
LINE
  5
28E
330
27B
100
AcDbEntity
  8
外框线2
 48
0.2
100
AcDbLine
 10
747.8000055321745
 20
11.70000315593279
 30
0.0
 11
747.8000055321745
 21
8.300003155933154
 31
0.0
  0
ARC
  5
28F
330
27B
100
AcDbEntity
  8
外框线2
 48
0.2
100
AcDbCircle
 10
748.1000055321747
 20
8.300003155933154
 30
0.0
 40
0.3
100
AcDbArc
 50
180.0
 51
270.0
  0
LINE
  5
290
330
27B
100
AcDbEntity
  8
外框线2
 48
0.2
100
AcDbLine
 10
762.8000055321745
 20
11.70000315593279
 30
0.0
 11
762.8000055321745
 21
8.300003155933154
 31
0.0
  0
ARC
  5
291
330
27B
100
AcDbEntity
  8
外框线2
 48
0.2
100
AcDbCircle
 10
762.5000055321743
 20
11.70000315593279
 30
0.0
 40
0.3
100
AcDbArc
 50
0.0
 51
90.0
  0
LINE
  5
292
330
27B
100
AcDbEntity
  8
外框线2
 48
0.2
100
AcDbLine
 10
628.1000055321746
 20
8.000003155932972
 30
0.0
 11
642.5000055321743
 21
8.000003155932972
 31
0.0
  0
ARC
  5
293
330
27B
100
AcDbEntity
  8
外框线2
 48
0.2
100
AcDbCircle
 10
642.5000055321743
 20
8.300003155933154
 30
0.0
 40
0.3
100
AcDbArc
 50
270.0
 51
0.0
  0
LINE
  5
294
330
27B
100
AcDbEntity
  8
外框线2
 48
0.2
100
AcDbLine
 10
628.1000055321746
 20
12.00000315593297
 30
0.0
 11
642.5000055321743
 21
12.00000315593297
 31
0.0
  0
ARC
  5
295
330
27B
100
AcDbEntity
  8
外框线2
 48
0.2
100
AcDbCircle
 10
628.1000055321746
 20
11.70000315593279
 30
0.0
 40
0.3
100
AcDbArc
 50
90.0
 51
180.0
  0
LINE
  5
296
330
27B
100
AcDbEntity
  8
外框线2
 48
0.2
100
AcDbLine
 10
627.8000055321744
 20
11.70000315593279
 30
0.0
 11
627.8000055321744
 21
8.300003155933154
 31
0.0
  0
ARC
  5
297
330
27B
100
AcDbEntity
  8
外框线2
 48
0.2
100
AcDbCircle
 10
628.1000055321746
 20
8.300003155933154
 30
0.0
 40
0.3
100
AcDbArc
 50
180.0
 51
270.0
  0
LINE
  5
298
330
27B
100
AcDbEntity
  8
外框线2
 48
0.2
100
AcDbLine
 10
642.8000055321745
 20
11.70000315593279
 30
0.0
 11
642.8000055321745
 21
8.300003155933154
 31
0.0
  0
ARC
  5
299
330
27B
100
AcDbEntity
  8
外框线2
 48
0.2
100
AcDbCircle
 10
642.5000055321743
 20
11.70000315593279
 30
0.0
 40
0.3
100
AcDbArc
 50
0.0
 51
90.0
  0
LINE
  5
29A
330
27B
100
AcDbEntity
  8
外框线2
 48
0.2
100
AcDbLine
 10
508.1000055321746
 20
8.000003155932972
 30
0.0
 11
522.5000055321743
 21
8.000003155932972
 31
0.0
  0
ARC
  5
29B
330
27B
100
AcDbEntity
  8
外框线2
 48
0.2
100
AcDbCircle
 10
522.5000055321743
 20
8.300003155933154
 30
0.0
 40
0.3
100
AcDbArc
 50
270.0
 51
0.0
  0
LINE
  5
29C
330
27B
100
AcDbEntity
  8
外框线2
 48
0.2
100
AcDbLine
 10
508.1000055321746
 20
12.00000315593297
 30
0.0
 11
522.5000055321743
 21
12.00000315593297
 31
0.0
  0
ARC
  5
29D
330
27B
100
AcDbEntity
  8
外框线2
 48
0.2
100
AcDbCircle
 10
508.1000055321746
 20
11.70000315593279
 30
0.0
 40
0.3
100
AcDbArc
 50
90.0
 51
180.0
  0
LINE
  5
29E
330
27B
100
AcDbEntity
  8
外框线2
 48
0.2
100
AcDbLine
 10
507.8000055321744
 20
11.70000315593279
 30
0.0
 11
507.8000055321744
 21
8.300003155933154
 31
0.0
  0
ARC
  5
29F
330
27B
100
AcDbEntity
  8
外框线2
 48
0.2
100
AcDbCircle
 10
508.1000055321746
 20
8.300003155933154
 30
0.0
 40
0.3
100
AcDbArc
 50
180.0
 51
270.0
  0
LINE
  5
2A0
330
27B
100
AcDbEntity
  8
外框线2
 48
0.2
100
AcDbLine
 10
522.8000055321745
 20
11.70000315593279
 30
0.0
 11
522.8000055321745
 21
8.300003155933154
 31
0.0
  0
ARC
  5
2A1
330
27B
100
AcDbEntity
  8
外框线2
 48
0.2
100
AcDbCircle
 10
522.5000055321743
 20
11.70000315593279
 30
0.0
 40
0.3
100
AcDbArc
 50
0.0
 51
90.0
  0
LINE
  5
2A2
330
27B
100
AcDbEntity
  8
外框线2
 48
0.2
100
AcDbLine
 10
42.50000553217432
 20
8.000003155932972
 30
0.0
 11
28.10000553217469
 21
8.000003155932972
 31
0.0
  0
ARC
  5
2A3
330
27B
100
AcDbEntity
  8
外框线2
 48
0.2
100
AcDbCircle
 10
28.10000553217469
 20
8.300003155933154
 30
0.0
 40
0.3
100
AcDbArc
 50
180.0
 51
270.0
  0
LINE
  5
2A4
330
27B
100
AcDbEntity
  8
外框线2
 48
0.2
100
AcDbLine
 10
42.50000553217432
 20
12.00000315593297
 30
0.0
 11
28.10000553217469
 21
12.00000315593297
 31
0.0
  0
ARC
  5
2A5
330
27B
100
AcDbEntity
  8
外框线2
 48
0.2
100
AcDbCircle
 10
42.50000553217432
 20
11.70000315593279
 30
0.0
 40
0.3
100
AcDbArc
 50
0.0
 51
90.0
  0
LINE
  5
2A6
330
27B
100
AcDbEntity
  8
外框线2
 48
0.2
100
AcDbLine
 10
42.8000055321745
 20
11.70000315593279
 30
0.0
 11
42.8000055321745
 21
8.300003155933154
 31
0.0
  0
ARC
  5
2A7
330
27B
100
AcDbEntity
  8
外框线2
 48
0.2
100
AcDbCircle
 10
42.50000553217432
 20
8.300003155933154
 30
0.0
 40
0.3
100
AcDbArc
 50
270.0
 51
0.0
  0
LINE
  5
2A8
330
27B
100
AcDbEntity
  8
外框线2
 48
0.2
100
AcDbLine
 10
27.80000553217451
 20
11.70000315593279
 30
0.0
 11
27.80000553217451
 21
8.300003155933154
 31
0.0
  0
ARC
  5
2A9
330
27B
100
AcDbEntity
  8
外框线2
 48
0.2
100
AcDbCircle
 10
28.10000553217469
 20
11.70000315593279
 30
0.0
 40
0.3
100
AcDbArc
 50
90.0
 51
180.0
  0
LINE
  5
2AA
330
27B
100
AcDbEntity
  8
外框线2
 48
0.2
100
AcDbLine
 10
162.5000055321743
 20
8.000003155932972
 30
0.0
 11
148.1000055321747
 21
8.000003155932972
 31
0.0
  0
ARC
  5
2AB
330
27B
100
AcDbEntity
  8
外框线2
 48
0.2
100
AcDbCircle
 10
148.1000055321747
 20
8.300003155933154
 30
0.0
 40
0.3
100
AcDbArc
 50
180.0
 51
270.0
  0
LINE
  5
2AC
330
27B
100
AcDbEntity
  8
外框线2
 48
0.2
100
AcDbLine
 10
162.5000055321743
 20
12.00000315593297
 30
0.0
 11
148.1000055321747
 21
12.00000315593297
 31
0.0
  0
ARC
  5
2AD
330
27B
100
AcDbEntity
  8
外框线2
 48
0.2
100
AcDbCircle
 10
162.5000055321743
 20
11.70000315593279
 30
0.0
 40
0.3
100
AcDbArc
 50
0.0
 51
90.0
  0
LINE
  5
2AE
330
27B
100
AcDbEntity
  8
外框线2
 48
0.2
100
AcDbLine
 10
162.8000055321745
 20
11.70000315593279
 30
0.0
 11
162.8000055321745
 21
8.300003155933154
 31
0.0
  0
ARC
  5
2AF
330
27B
100
AcDbEntity
  8
外框线2
 48
0.2
100
AcDbCircle
 10
162.5000055321743
 20
8.300003155933154
 30
0.0
 40
0.3
100
AcDbArc
 50
270.0
 51
0.0
  0
LINE
  5
2B0
330
27B
100
AcDbEntity
  8
外框线2
 48
0.2
100
AcDbLine
 10
147.8000055321745
 20
11.70000315593279
 30
0.0
 11
147.8000055321745
 21
8.300003155933154
 31
0.0
  0
ARC
  5
2B1
330
27B
100
AcDbEntity
  8
外框线2
 48
0.2
100
AcDbCircle
 10
148.1000055321747
 20
11.70000315593279
 30
0.0
 40
0.3
100
AcDbArc
 50
90.0
 51
180.0
  0
LINE
  5
2B2
330
27B
100
AcDbEntity
  8
外框线2
 48
0.2
100
AcDbLine
 10
282.5000055321743
 20
8.000003155932972
 30
0.0
 11
268.1000055321747
 21
8.000003155932972
 31
0.0
  0
ARC
  5
2B3
330
27B
100
AcDbEntity
  8
外框线2
 48
0.2
100
AcDbCircle
 10
268.1000055321747
 20
8.300003155933154
 30
0.0
 40
0.3
100
AcDbArc
 50
180.0
 51
270.0
  0
LINE
  5
2B4
330
27B
100
AcDbEntity
  8
外框线2
 48
0.2
100
AcDbLine
 10
282.5000055321743
 20
12.00000315593297
 30
0.0
 11
268.1000055321747
 21
12.00000315593297
 31
0.0
  0
ARC
  5
2B5
330
27B
100
AcDbEntity
  8
外框线2
 48
0.2
100
AcDbCircle
 10
282.5000055321743
 20
11.70000315593279
 30
0.0
 40
0.3
100
AcDbArc
 50
0.0
 51
90.0
  0
LINE
  5
2B6
330
27B
100
AcDbEntity
  8
外框线2
 48
0.2
100
AcDbLine
 10
282.8000055321745
 20
11.70000315593279
 30
0.0
 11
282.8000055321745
 21
8.300003155933154
 31
0.0
  0
ARC
  5
2B7
330
27B
100
AcDbEntity
  8
外框线2
 48
0.2
100
AcDbCircle
 10
282.5000055321743
 20
8.300003155933154
 30
0.0
 40
0.3
100
AcDbArc
 50
270.0
 51
0.0
  0
LINE
  5
2B8
330
27B
100
AcDbEntity
  8
外框线2
 48
0.2
100
AcDbLine
 10
267.8000055321745
 20
11.70000315593279
 30
0.0
 11
267.8000055321745
 21
8.300003155933154
 31
0.0
  0
ARC
  5
2B9
330
27B
100
AcDbEntity
  8
外框线2
 48
0.2
100
AcDbCircle
 10
268.1000055321747
 20
11.70000315593279
 30
0.0
 40
0.3
100
AcDbArc
 50
90.0
 51
180.0
  0
LINE
  5
2BA
330
27B
100
AcDbEntity
  8
外框线2
 48
0.2
100
AcDbLine
 10
388.1000055321747
 20
8.000003155932972
 30
0.0
 11
402.5000055321743
 21
8.000003155932972
 31
0.0
  0
ARC
  5
2BB
330
27B
100
AcDbEntity
  8
外框线2
 48
0.2
100
AcDbCircle
 10
402.5000055321743
 20
8.300003155933154
 30
0.0
 40
0.3
100
AcDbArc
 50
270.0
 51
0.0
  0
LINE
  5
2BC
330
27B
100
AcDbEntity
  8
外框线2
 48
0.2
100
AcDbLine
 10
388.1000055321747
 20
12.00000315593297
 30
0.0
 11
402.5000055321743
 21
12.00000315593297
 31
0.0
  0
ARC
  5
2BD
330
27B
100
AcDbEntity
  8
外框线2
 48
0.2
100
AcDbCircle
 10
388.1000055321747
 20
11.70000315593279
 30
0.0
 40
0.3
100
AcDbArc
 50
90.0
 51
180.0
  0
LINE
  5
2BE
330
27B
100
AcDbEntity
  8
外框线2
 48
0.2
100
AcDbLine
 10
387.8000055321745
 20
11.70000315593279
 30
0.0
 11
387.8000055321745
 21
8.300003155933154
 31
0.0
  0
ARC
  5
2BF
330
27B
100
AcDbEntity
  8
外框线2
 48
0.2
100
AcDbCircle
 10
388.1000055321747
 20
8.300003155933154
 30
0.0
 40
0.3
100
AcDbArc
 50
180.0
 51
270.0
  0
LINE
  5
2C0
330
27B
100
AcDbEntity
  8
外框线2
 48
0.2
100
AcDbLine
 10
402.8000055321744
 20
11.70000315593279
 30
0.0
 11
402.8000055321744
 21
8.300003155933154
 31
0.0
  0
ARC
  5
2C1
330
27B
100
AcDbEntity
  8
外框线2
 48
0.2
100
AcDbCircle
 10
402.5000055321743
 20
11.70000315593279
 30
0.0
 40
0.3
100
AcDbArc
 50
0.0
 51
90.0
  0
ENDBLK
  5
2C2
330
27B
100
AcDbEntity
  8
0
100
AcDbBlockEnd
  0
BLOCK
  5
2C6
330
2C3
100
AcDbEntity
  8
0
100
AcDbBlockBegin
  2
A$C5D565640
 70
     0
 10
0.0
 20
0.0
 30
0.0
  3
A$C5D565640
  1

  0
LWPOLYLINE
  5
2C7
330
2C3
100
AcDbEntity
  8
外框线2
 48
0.2
100
AcDbPolyline
 90
        4
 70
     1
 43
0.0
 10
-0.0003028555074707
 20
73.80001303296921
 10
789.9996971444925
 20
73.80001303296921
 10
789.9996971444925
 20
0.0000130329681269
 10
-0.0003028555074707
 20
0.0000130329681269
  0
CIRCLE
  5
2C8
330
2C3
100
AcDbEntity
  8
外框线2
 48
0.2
100
AcDbCircle
 10
594.9996971444925
 20
43.80001303296921
 30
0.0
 40
20.0
  0
LINE
  5
2C9
330
2C3
100
AcDbEntity
  8
外框线2
 48
0.2
100
AcDbLine
 10
-0.0003028555074707
 20
1.200013032968854
 30
0.0
 11
789.9996971444925
 21
1.200013032968854
 31
0.0
  0
LINE
  5
2CA
330
2C3
100
AcDbEntity
  8
外框线2
 48
0.2
100
AcDbLine
 10
-0.0003028555074707
 20
72.6000130329703
 30
0.0
 11
789.9996971444925
 21
72.6000130329703
 31
0.0
  0
CIRCLE
  5
2CB
330
2C3
100
AcDbEntity
  8
外框线2
100
AcDbCircle
 10
709.9996971444925
 20
43.80001303292374
 30
0.0
 40
14.5
  0
ENDBLK
  5
2CC
330
2C3
100
AcDbEntity
  8
0
100
AcDbBlockEnd
  0
BLOCK
  5
4AA
330
4A9
100
AcDbEntity
  8
0
100
AcDbBlockBegin
  2
*D20
 70
     1
 10
0.0
 20
0.0
 30
0.0
  3
*D20
  1

  0
LINE
  5
535
330
4A9
100
AcDbEntity
  8
标注
 62
     0
440
 16777216
370
    -2
100
AcDbLine
 10
2768.524768035633
 20
1108.124420024186
 30
0.0
 11
2768.524768035633
 21
1028.246480595285
 31
0.0
  0
LINE
  5
536
330
4A9
100
AcDbEntity
  8
标注
 62
     0
440
 16777216
370
    -2
100
AcDbLine
 10
2820.424768035191
 20
1108.124420024186
 30
0.0
 11
2820.424768035191
 21
1028.246480595285
 31
0.0
  0
LINE
  5
537
330
4A9
100
AcDbEntity
  8
标注
 62
     0
440
 16777216
370
    -2
100
AcDbLine
 10
2780.524768035633
 20
1038.246480595285
 30
0.0
 11
2808.424768035191
 21
1038.246480595285
 31
0.0
  0
LINE
  5
538
330
4A9
100
AcDbEntity
  8
标注
 62
     0
440
 16777216
370
    -2
100
AcDbLine
 10
2820.424768035191
 20
1038.246480595285
 30
0.0
 11
2957.964432839661
 21
1038.246480595285
 31
0.0
  0
SOLID
  5
539
330
4A9
100
AcDbEntity
  8
标注
 62
     0
440
 16777216
100
AcDbTrace
 10
2780.524768035633
 20
1040.246480595285
 30
0.0
 11
2780.524768035633
 21
1036.246480595285
 31
0.0
 12
2768.524768035633
 22
1038.246480595285
 32
0.0
 13
2768.524768035633
 23
1038.246480595285
 33
0.0
  0
SOLID
  5
53A
330
4A9
100
AcDbEntity
  8
标注
 62
     0
440
 16777216
100
AcDbTrace
 10
2808.424768035191
 20
1040.246480595285
 30
0.0
 11
2808.424768035191
 21
1036.246480595285
 31
0.0
 12
2820.424768035191
 22
1038.246480595285
 32
0.0
 13
2820.424768035191
 23
1038.246480595285
 33
0.0
  0
MTEXT
  5
53B
330
4A9
100
AcDbEntity
  8
标注
 62
     0
440
 16777216
100
AcDbMText
 10
2895.194600437426
 20
1052.446480595285
 30
0.0
 40
18.39999999999998
 41
0.0
 46
0.0
 71
     5
 72
     1
  1
{\fSimSun|b0|i0|c134|p2;53.5-53.6}
 73
     1
 44
1.0
  0
POINT
  5
53C
330
4A9
100
AcDbEntity
  8
Defpoints
 62
     0
440
 16777216
100
AcDbPoint
 10
2768.524768035633
 20
1113.124420024186
 30
0.0
  0
POINT
  5
53D
330
4A9
100
AcDbEntity
  8
Defpoints
 62
     0
440
 16777216
100
AcDbPoint
 10
2820.424768035191
 20
1113.124420024186
 30
0.0
  0
POINT
  5
53E
330
4A9
100
AcDbEntity
  8
Defpoints
 62
     0
440
 16777216
100
AcDbPoint
 10
2820.424768035191
 20
1038.246480595285
 30
0.0
  0
ENDBLK
  5
4AB
330
4A9
100
AcDbEntity
  8
0
100
AcDbBlockEnd
  0
BLOCK
  5
4B7
330
4B6
100
AcDbEntity
  8
0
100
AcDbBlockBegin
  2
*D21
 70
     1
 10
0.0
 20
0.0
 30
0.0
  3
*D21
  1

  0
LINE
  5
4B9
330
4B6
100
AcDbEntity
  8
标注
 62
     0
440
 16777216
370
    -2
100
AcDbLine
 10
2730.974768035238
 20
964.6170007771225
 30
0.0
 11
2499.318927414082
 21
964.6170007771225
 31
0.0
  0
LINE
  5
4BA
330
4B6
100
AcDbEntity
  8
标注
 62
     0
440
 16777216
370
    -2
100
AcDbLine
 10
2589.474768035238
 20
1149.617000777122
 30
0.0
 11
2499.318927414083
 21
1149.617000777122
 31
0.0
  0
LINE
  5
4BB
330
4B6
100
AcDbEntity
  8
标注
 62
     0
440
 16777216
370
    -2
100
AcDbLine
 10
2509.318927414082
 20
976.6170007771224
 30
0.0
 11
2509.318927414082
 21
1137.617000777122
 31
0.0
  0
SOLID
  5
4BC
330
4B6
100
AcDbEntity
  8
标注
 62
     0
440
 16777216
100
AcDbTrace
 10
2507.318927414082
 20
976.6170007771224
 30
0.0
 11
2511.318927414082
 21
976.6170007771224
 31
0.0
 12
2509.318927414082
 22
964.6170007771225
 32
0.0
 13
2509.318927414082
 23
964.6170007771225
 33
0.0
  0
SOLID
  5
4BD
330
4B6
100
AcDbEntity
  8
标注
 62
     0
440
 16777216
100
AcDbTrace
 10
2507.318927414083
 20
1137.617000777122
 30
0.0
 11
2511.318927414083
 21
1137.617000777122
 31
0.0
 12
2509.318927414082
 22
1149.617000777122
 32
0.0
 13
2509.318927414082
 23
1149.617000777122
 33
0.0
  0
MTEXT
  5
4BE
330
4B6
100
AcDbEntity
  8
标注
 62
     0
440
 16777216
100
AcDbMText
 10
2494.924384440003
 20
1057.117000777123
 30
0.0
 40
18.39999999999998
 41
0.0
 46
0.0
 71
     5
 72
     1
  1
185
 11
0.0000000000000001
 21
1.0
 31
0.0
 73
     1
 44
1.0
  0
POINT
  5
4BF
330
4B6
100
AcDbEntity
  8
Defpoints
 62
     0
440
 16777216
100
AcDbPoint
 10
2735.974768035238
 20
964.6170007771225
 30
0.0
  0
POINT
  5
4C0
330
4B6
100
AcDbEntity
  8
Defpoints
 62
     0
440
 16777216
100
AcDbPoint
 10
2594.474768035238
 20
1149.617000777122
 30
0.0
  0
POINT
  5
4C1
330
4B6
100
AcDbEntity
  8
Defpoints
 62
     0
440
 16777216
100
AcDbPoint
 10
2509.318927414082
 20
1149.617000777122
 30
0.0
  0
ENDBLK
  5
4B8
330
4B6
100
AcDbEntity
  8
0
100
AcDbBlockEnd
  0
BLOCK
  5
4C3
330
4C2
100
AcDbEntity
  8
0
100
AcDbBlockBegin
  2
*D22
 70
     1
 10
0.0
 20
0.0
 30
0.0
  3
*D22
  1

  0
LINE
  5
559
330
4C2
100
AcDbEntity
  8
标注
 62
     0
440
 16777216
370
    -2
100
AcDbLine
 10
2904.508768356986
 20
1016.121033928458
 30
0.0
 11
2964.461425449961
 21
988.7529801201109
 31
0.0
  0
MTEXT
  5
55A
330
4C2
100
AcDbEntity
  8
标注
 62
     0
440
 16777216
100
AcDbMText
 10
2935.004560164902
 20
1018.023315931548
 30
0.0
 40
18.39999999999998
 41
0.0
 46
0.0
 71
     5
 72
     1
  1
R10
 11
0.9096973902481447
 21
-0.4152717883214731
 31
0.0
 73
     1
 44
1.0
  0
LINE
  5
55B
330
4C2
100
AcDbEntity
  8
标注
 62
     0
440
 16777216
370
    -2
100
AcDbLine
 10
2984.474768035237
 20
979.6170007771225
 30
0.0
 11
2975.37779413294
 21
983.7697186602534
 31
0.0
  0
SOLID
  5
55C
330
4C2
100
AcDbEntity
  8
标注
 62
     0
440
 16777216
100
AcDbTrace
 10
2965.291969026605
 20
990.5723749006071
 30
0.0
 11
2963.630881873319
 21
986.9335853396146
 31
0.0
 12
2975.37779413294
 22
983.7697186602534
 32
0.0
 13
2975.37779413294
 23
983.7697186602534
 33
0.0
  0
ARC
  5
55D
330
4C2
100
AcDbEntity
  8
标注
 62
     0
440
 16777216
370
    -2
100
AcDbCircle
 10
2984.474768035237
 20
979.6170007771225
 30
0.0
 40
9.999999999798092
100
AcDbArc
 50
98.16778703319618
 51
241.3521102428804
  0
POINT
  5
55E
330
4C2
100
AcDbEntity
  8
Defpoints
 62
     0
440
 16777216
100
AcDbPoint
 10
2975.37779413294
 20
983.7697186602534
 30
0.0
  0
POINT
  5
55F
330
4C2
100
AcDbEntity
  8
Defpoints
 62
     0
440
 16777216
100
AcDbPoint
 10
2984.474768035237
 20
979.6170007771225
 30
0.0
  0
ENDBLK
  5
4C4
330
4C2
100
AcDbEntity
  8
0
100
AcDbBlockEnd
  0
BLOCK
  5
4CD
330
4CC
100
AcDbEntity
  8
0
100
AcDbBlockBegin
  2
*D23
 70
     1
 10
0.0
 20
0.0
 30
0.0
  3
*D23
  1

  0
LINE
  5
4CF
330
4CC
100
AcDbEntity
  8
标注
 62
     0
440
 16777216
370
    -2
100
AcDbLine
 10
3424.474768035238
 20
1759.927247028806
 30
0.0
 11
3424.474768035238
 21
1842.989184798521
 31
0.0
  0
LINE
  5
4D0
330
4CC
100
AcDbEntity
  8
标注
 62
     0
440
 16777216
370
    -2
100
AcDbLine
 10
2564.474768035238
 20
1759.927247028806
 30
0.0
 11
2564.474768035238
 21
1842.989184798521
 31
0.0
  0
LINE
  5
4D1
330
4CC
100
AcDbEntity
  8
标注
 62
     0
440
 16777216
370
    -2
100
AcDbLine
 10
3412.474768035238
 20
1832.989184798521
 30
0.0
 11
2576.474768035238
 21
1832.989184798521
 31
0.0
  0
SOLID
  5
4D2
330
4CC
100
AcDbEntity
  8
标注
 62
     0
440
 16777216
100
AcDbTrace
 10
3412.474768035238
 20
1834.989184798521
 30
0.0
 11
3412.474768035238
 21
1830.989184798521
 31
0.0
 12
3424.474768035238
 22
1832.989184798521
 32
0.0
 13
3424.474768035238
 23
1832.989184798521
 33
0.0
  0
SOLID
  5
4D3
330
4CC
100
AcDbEntity
  8
标注
 62
     0
440
 16777216
100
AcDbTrace
 10
2576.474768035238
 20
1834.989184798521
 30
0.0
 11
2576.474768035238
 21
1830.989184798521
 31
0.0
 12
2564.474768035238
 22
1832.989184798521
 32
0.0
 13
2564.474768035238
 23
1832.989184798521
 33
0.0
  0
MTEXT
  5
4D4
330
4CC
100
AcDbEntity
  8
标注
 62
     0
440
 16777216
100
AcDbMText
 10
2994.474768035237
 20
1847.3837277726
 30
0.0
 40
18.39999999999998
 41
0.0
 46
0.0
 71
     5
 72
     1
  1
860
 73
     1
 44
1.0
  0
POINT
  5
4D5
330
4CC
100
AcDbEntity
  8
Defpoints
 62
     0
440
 16777216
100
AcDbPoint
 10
3424.474768035238
 20
1754.927247028806
 30
0.0
  0
POINT
  5
4D6
330
4CC
100
AcDbEntity
  8
Defpoints
 62
     0
440
 16777216
100
AcDbPoint
 10
2564.474768035238
 20
1754.927247028806
 30
0.0
  0
POINT
  5
4D7
330
4CC
100
AcDbEntity
  8
Defpoints
 62
     0
440
 16777216
100
AcDbPoint
 10
2564.474768035238
 20
1832.989184798521
 30
0.0
  0
ENDBLK
  5
4CE
330
4CC
100
AcDbEntity
  8
0
100
AcDbBlockEnd
  0
BLOCK
  5
4D9
330
4D8
100
AcDbEntity
  8
0
100
AcDbBlockBegin
  2
*D24
 70
     1
 10
0.0
 20
0.0
 30
0.0
  3
*D24
  1

  0
LINE
  5
4DB
330
4D8
100
AcDbEntity
  8
标注
 62
     0
440
 16777216
370
    -2
100
AcDbLine
 10
2569.474768035238
 20
1764.927247028806
 30
0.0
 11
2482.008902436362
 21
1764.927247028806
 31
0.0
  0
LINE
  5
4DC
330
4D8
100
AcDbEntity
  8
标注
 62
     0
440
 16777216
370
    -2
100
AcDbLine
 10
2569.474768035238
 20
1244.927247028806
 30
0.0
 11
2482.008902436362
 21
1244.927247028806
 31
0.0
  0
LINE
  5
4DD
330
4D8
100
AcDbEntity
  8
标注
 62
     0
440
 16777216
370
    -2
100
AcDbLine
 10
2492.008902436362
 20
1752.927247028806
 30
0.0
 11
2492.008902436362
 21
1256.927247028806
 31
0.0
  0
SOLID
  5
4DE
330
4D8
100
AcDbEntity
  8
标注
 62
     0
440
 16777216
100
AcDbTrace
 10
2490.008902436362
 20
1752.927247028806
 30
0.0
 11
2494.008902436363
 21
1752.927247028806
 31
0.0
 12
2492.008902436362
 22
1764.927247028806
 32
0.0
 13
2492.008902436362
 23
1764.927247028806
 33
0.0
  0
SOLID
  5
4DF
330
4D8
100
AcDbEntity
  8
标注
 62
     0
440
 16777216
100
AcDbTrace
 10
2490.008902436362
 20
1256.927247028806
 30
0.0
 11
2494.008902436363
 21
1256.927247028806
 31
0.0
 12
2492.008902436362
 22
1244.927247028806
 32
0.0
 13
2492.008902436362
 23
1244.927247028806
 33
0.0
  0
MTEXT
  5
4E0
330
4D8
100
AcDbEntity
  8
标注
 62
     0
440
 16777216
100
AcDbMText
 10
2477.614359462283
 20
1504.927247028806
 30
0.0
 40
18.39999999999998
 41
0.0
 46
0.0
 71
     5
 72
     1
  1
520
 11
0.0000000000000001
 21
1.0
 31
0.0
 73
     1
 44
1.0
  0
POINT
  5
4E1
330
4D8
100
AcDbEntity
  8
Defpoints
 62
     0
440
 16777216
100
AcDbPoint
 10
2574.474768035238
 20
1764.927247028806
 30
0.0
  0
POINT
  5
4E2
330
4D8
100
AcDbEntity
  8
Defpoints
 62
     0
440
 16777216
100
AcDbPoint
 10
2574.474768035238
 20
1244.927247028806
 30
0.0
  0
POINT
  5
4E3
330
4D8
100
AcDbEntity
  8
Defpoints
 62
     0
440
 16777216
100
AcDbPoint
 10
2492.008902436362
 20
1244.927247028806
 30
0.0
  0
ENDBLK
  5
4DA
330
4D8
100
AcDbEntity
  8
0
100
AcDbBlockEnd
  0
BLOCK
  5
4E5
330
4E4
100
AcDbEntity
  8
0
100
AcDbBlockBegin
  2
*D25
 70
     1
 10
0.0
 20
0.0
 30
0.0
  3
*D25
  1

  0
LINE
  5
4E7
330
4E4
100
AcDbEntity
  8
标注
 62
     0
440
 16777216
370
    -2
100
AcDbLine
 10
2599.474768035238
 20
1674.927247028806
 30
0.0
 11
2517.123934615003
 21
1674.927247028806
 31
0.0
  0
LINE
  5
4E8
330
4E4
100
AcDbEntity
  8
标注
 62
     0
440
 16777216
370
    -2
100
AcDbLine
 10
2599.474768035238
 20
1274.927247028806
 30
0.0
 11
2517.123934615003
 21
1274.927247028806
 31
0.0
  0
LINE
  5
4E9
330
4E4
100
AcDbEntity
  8
标注
 62
     0
440
 16777216
370
    -2
100
AcDbLine
 10
2527.123934615004
 20
1662.927247028806
 30
0.0
 11
2527.123934615004
 21
1286.927247028806
 31
0.0
  0
SOLID
  5
4EA
330
4E4
100
AcDbEntity
  8
标注
 62
     0
440
 16777216
100
AcDbTrace
 10
2525.123934615003
 20
1662.927247028806
 30
0.0
 11
2529.123934615003
 21
1662.927247028806
 31
0.0
 12
2527.123934615004
 22
1674.927247028806
 32
0.0
 13
2527.123934615004
 23
1674.927247028806
 33
0.0
  0
SOLID
  5
4EB
330
4E4
100
AcDbEntity
  8
标注
 62
     0
440
 16777216
100
AcDbTrace
 10
2525.123934615003
 20
1286.927247028806
 30
0.0
 11
2529.123934615003
 21
1286.927247028806
 31
0.0
 12
2527.123934615004
 22
1274.927247028806
 32
0.0
 13
2527.123934615004
 23
1274.927247028806
 33
0.0
  0
MTEXT
  5
4EC
330
4E4
100
AcDbEntity
  8
标注
 62
     0
440
 16777216
100
AcDbMText
 10
2512.729391640924
 20
1474.927247028806
 30
0.0
 40
18.39999999999998
 41
0.0
 46
0.0
 71
     5
 72
     1
  1
400
 11
0.0000000000000001
 21
1.0
 31
0.0
 73
     1
 44
1.0
  0
POINT
  5
4ED
330
4E4
100
AcDbEntity
  8
Defpoints
 62
     0
440
 16777216
100
AcDbPoint
 10
2604.474768035238
 20
1674.927247028806
 30
0.0
  0
POINT
  5
4EE
330
4E4
100
AcDbEntity
  8
Defpoints
 62
     0
440
 16777216
100
AcDbPoint
 10
2604.474768035238
 20
1274.927247028806
 30
0.0
  0
POINT
  5
4EF
330
4E4
100
AcDbEntity
  8
Defpoints
 62
     0
440
 16777216
100
AcDbPoint
 10
2527.123934615004
 20
1274.927247028806
 30
0.0
  0
ENDBLK
  5
4E6
330
4E4
100
AcDbEntity
  8
0
100
AcDbBlockEnd
  0
BLOCK
  5
4F1
330
4F0
100
AcDbEntity
  8
0
100
AcDbBlockBegin
  2
*D26
 70
     1
 10
0.0
 20
0.0
 30
0.0
  3
*D26
  1

  0
LINE
  5
4F3
330
4F0
100
AcDbEntity
  8
标注
 62
     0
440
 16777216
370
    -2
100
AcDbLine
 10
2994.474768035237
 20
1669.927247028806
 30
0.0
 11
2994.474768035237
 21
1802.975505983785
 31
0.0
  0
LINE
  5
4F4
330
4F0
100
AcDbEntity
  8
标注
 62
     0
440
 16777216
370
    -2
100
AcDbLine
 10
2594.474768035238
 20
1669.927247028806
 30
0.0
 11
2594.474768035238
 21
1802.975505983785
 31
0.0
  0
LINE
  5
4F5
330
4F0
100
AcDbEntity
  8
标注
 62
     0
440
 16777216
370
    -2
100
AcDbLine
 10
2982.474768035237
 20
1792.975505983785
 30
0.0
 11
2606.474768035238
 21
1792.975505983785
 31
0.0
  0
SOLID
  5
4F6
330
4F0
100
AcDbEntity
  8
标注
 62
     0
440
 16777216
100
AcDbTrace
 10
2982.474768035237
 20
1794.975505983785
 30
0.0
 11
2982.474768035237
 21
1790.975505983785
 31
0.0
 12
2994.474768035237
 22
1792.975505983785
 32
0.0
 13
2994.474768035237
 23
1792.975505983785
 33
0.0
  0
SOLID
  5
4F7
330
4F0
100
AcDbEntity
  8
标注
 62
     0
440
 16777216
100
AcDbTrace
 10
2606.474768035238
 20
1794.975505983785
 30
0.0
 11
2606.474768035238
 21
1790.975505983785
 31
0.0
 12
2594.474768035238
 22
1792.975505983785
 32
0.0
 13
2594.474768035238
 23
1792.975505983785
 33
0.0
  0
MTEXT
  5
4F8
330
4F0
100
AcDbEntity
  8
标注
 62
     0
440
 16777216
100
AcDbMText
 10
2794.474768035238
 20
1807.370048957864
 30
0.0
 40
18.39999999999998
 41
0.0
 46
0.0
 71
     5
 72
     1
  1
400
 73
     1
 44
1.0
  0
POINT
  5
4F9
330
4F0
100
AcDbEntity
  8
Defpoints
 62
     0
440
 16777216
100
AcDbPoint
 10
2994.474768035237
 20
1664.927247028806
 30
0.0
  0
POINT
  5
4FA
330
4F0
100
AcDbEntity
  8
Defpoints
 62
     0
440
 16777216
100
AcDbPoint
 10
2594.474768035238
 20
1664.927247028806
 30
0.0
  0
POINT
  5
4FB
330
4F0
100
AcDbEntity
  8
Defpoints
 62
     0
440
 16777216
100
AcDbPoint
 10
2594.474768035238
 20
1792.975505983785
 30
0.0
  0
ENDBLK
  5
4F2
330
4F0
100
AcDbEntity
  8
0
100
AcDbBlockEnd
  0
BLOCK
  5
4FD
330
4FC
100
AcDbEntity
  8
0
100
AcDbBlockBegin
  2
*D27
 70
     1
 10
0.0
 20
0.0
 30
0.0
  3
*D27
  1

  0
LINE
  5
4FF
330
4FC
100
AcDbEntity
  8
标注
 62
     0
440
 16777216
370
    -2
100
AcDbLine
 10
2994.474768035237
 20
1669.927247028806
 30
0.0
 11
2994.474768035237
 21
1802.975505983785
 31
0.0
  0
LINE
  5
500
330
4FC
100
AcDbEntity
  8
标注
 62
     0
440
 16777216
370
    -2
100
AcDbLine
 10
3394.474768035238
 20
1679.927247028806
 30
0.0
 11
3394.474768035238
 21
1802.975505983785
 31
0.0
  0
LINE
  5
501
330
4FC
100
AcDbEntity
  8
标注
 62
     0
440
 16777216
370
    -2
100
AcDbLine
 10
3006.474768035238
 20
1792.975505983785
 30
0.0
 11
3382.474768035237
 21
1792.975505983785
 31
0.0
  0
SOLID
  5
502
330
4FC
100
AcDbEntity
  8
标注
 62
     0
440
 16777216
100
AcDbTrace
 10
3006.474768035238
 20
1794.975505983785
 30
0.0
 11
3006.474768035238
 21
1790.975505983785
 31
0.0
 12
2994.474768035237
 22
1792.975505983785
 32
0.0
 13
2994.474768035237
 23
1792.975505983785
 33
0.0
  0
SOLID
  5
503
330
4FC
100
AcDbEntity
  8
标注
 62
     0
440
 16777216
100
AcDbTrace
 10
3382.474768035237
 20
1794.975505983785
 30
0.0
 11
3382.474768035237
 21
1790.975505983785
 31
0.0
 12
3394.474768035238
 22
1792.975505983785
 32
0.0
 13
3394.474768035238
 23
1792.975505983785
 33
0.0
  0
MTEXT
  5
504
330
4FC
100
AcDbEntity
  8
标注
 62
     0
440
 16777216
100
AcDbMText
 10
3194.474768035238
 20
1807.370048957864
 30
0.0
 40
18.39999999999998
 41
0.0
 46
0.0
 71
     5
 72
     1
  1
400
 73
     1
 44
1.0
  0
POINT
  5
505
330
4FC
100
AcDbEntity
  8
Defpoints
 62
     0
440
 16777216
100
AcDbPoint
 10
2994.474768035237
 20
1664.927247028806
 30
0.0
  0
POINT
  5
506
330
4FC
100
AcDbEntity
  8
Defpoints
 62
     0
440
 16777216
100
AcDbPoint
 10
3394.474768035238
 20
1674.927247028806
 30
0.0
  0
POINT
  5
507
330
4FC
100
AcDbEntity
  8
Defpoints
 62
     0
440
 16777216
100
AcDbPoint
 10
3394.474768035238
 20
1792.975505983785
 30
0.0
  0
ENDBLK
  5
4FE
330
4FC
100
AcDbEntity
  8
0
100
AcDbBlockEnd
  0
BLOCK
  5
509
330
508
100
AcDbEntity
  8
0
100
AcDbBlockBegin
  2
*D28
 70
     1
 10
0.0
 20
0.0
 30
0.0
  3
*D28
  1

  0
LINE
  5
551
330
508
100
AcDbEntity
  8
标注
 62
     0
440
 16777216
370
    -2
100
AcDbLine
 10
2906.01360302854
 20
1757.815924434654
 30
0.0
 11
2822.407198082899
 21
1729.415626850066
 31
0.0
  0
LINE
  5
552
330
508
100
AcDbEntity
  8
标注
 62
     0
440
 16777216
370
    -2
100
AcDbLine
 10
2766.542337987569
 20
1710.438867207544
 30
0.0
 11
2755.179993561402
 21
1706.579187280252
 31
0.0
  0
MTEXT
  5
553
102
{ACAD_XDICTIONARY
360
5B5
102
}
330
508
100
AcDbEntity
  8
标注
 62
     0
440
 16777216
100
AcDbMText
 10
2874.462463728988
 20
1762.844146167816
 30
0.0
 40
18.39999999999998
 41
0.0
 46
0.0
 71
     5
 72
     1
  1
∅35
 11
0.9468620355139544
 21
0.3216399939410067
 31
0.0
 73
     1
 44
1.0
  0
LINE
  5
554
330
508
100
AcDbEntity
  8
标注
 62
     0
440
 16777216
370
    -2
100
AcDbLine
 10
2777.904682413737
 20
1714.298547134836
 30
0.0
 11
2811.044853656732
 21
1725.555946922773
 31
0.0
  0
SOLID
  5
555
330
508
100
AcDbEntity
  8
标注
 62
     0
440
 16777216
100
AcDbTrace
 10
2765.899057999687
 20
1712.332591278572
 30
0.0
 11
2767.185617975451
 21
1708.545143136516
 31
0.0
 12
2777.904682413737
 22
1714.298547134836
 32
0.0
 13
2777.904682413737
 23
1714.298547134836
 33
0.0
  0
SOLID
  5
556
330
508
100
AcDbEntity
  8
标注
 62
     0
440
 16777216
100
AcDbTrace
 10
2821.763918095017
 20
1731.309350921093
 30
0.0
 11
2823.050478070781
 21
1727.521902779038
 31
0.0
 12
2811.044853656732
 22
1725.555946922773
 32
0.0
 13
2811.044853656732
 23
1725.555946922773
 33
0.0
  0
POINT
  5
557
330
508
100
AcDbEntity
  8
Defpoints
 62
     0
440
 16777216
100
AcDbPoint
 10
2811.044853656732
 20
1725.555946922773
 30
0.0
  0
POINT
  5
558
330
508
100
AcDbEntity
  8
Defpoints
 62
     0
440
 16777216
100
AcDbPoint
 10
2777.904682413737
 20
1714.298547134836
 30
0.0
  0
ENDBLK
  5
50A
330
508
100
AcDbEntity
  8
0
100
AcDbBlockEnd
  0
BLOCK
  5
514
330
513
100
AcDbEntity
  8
0
100
AcDbBlockBegin
  2
*D29
 70
     1
 10
0.0
 20
0.0
 30
0.0
  3
*D29
  1

  0
LINE
  5
516
330
513
100
AcDbEntity
  8
标注
 62
     0
440
 16777216
370
    -2
100
AcDbLine
 10
2789.474768035237
 20
1674.927247028806
 30
0.0
 11
2667.186680262741
 21
1674.927247028806
 31
0.0
  0
LINE
  5
517
330
513
100
AcDbEntity
  8
标注
 62
     0
440
 16777216
370
    -2
100
AcDbLine
 10
2789.474768035237
 20
1554.927247028806
 30
0.0
 11
2667.186680262741
 21
1554.927247028806
 31
0.0
  0
LINE
  5
518
330
513
100
AcDbEntity
  8
标注
 62
     0
440
 16777216
370
    -2
100
AcDbLine
 10
2677.186680262741
 20
1662.927247028806
 30
0.0
 11
2677.186680262741
 21
1566.927247028806
 31
0.0
  0
SOLID
  5
519
330
513
100
AcDbEntity
  8
标注
 62
     0
440
 16777216
100
AcDbTrace
 10
2675.186680262741
 20
1662.927247028806
 30
0.0
 11
2679.186680262741
 21
1662.927247028806
 31
0.0
 12
2677.186680262741
 22
1674.927247028806
 32
0.0
 13
2677.186680262741
 23
1674.927247028806
 33
0.0
  0
SOLID
  5
51A
330
513
100
AcDbEntity
  8
标注
 62
     0
440
 16777216
100
AcDbTrace
 10
2675.186680262741
 20
1566.927247028806
 30
0.0
 11
2679.186680262741
 21
1566.927247028806
 31
0.0
 12
2677.186680262741
 22
1554.927247028806
 32
0.0
 13
2677.186680262741
 23
1554.927247028806
 33
0.0
  0
MTEXT
  5
51B
330
513
100
AcDbEntity
  8
标注
 62
     0
440
 16777216
100
AcDbMText
 10
2662.792137288662
 20
1614.927247028806
 30
0.0
 40
18.39999999999998
 41
0.0
 46
0.0
 71
     5
 72
     1
  1
120
 11
0.0000000000000001
 21
1.0
 31
0.0
 73
     1
 44
1.0
  0
POINT
  5
51C
330
513
100
AcDbEntity
  8
Defpoints
 62
     0
440
 16777216
100
AcDbPoint
 10
2794.474768035238
 20
1674.927247028806
 30
0.0
  0
POINT
  5
51D
330
513
100
AcDbEntity
  8
Defpoints
 62
     0
440
 16777216
100
AcDbPoint
 10
2794.474768035238
 20
1554.927247028806
 30
0.0
  0
POINT
  5
51E
330
513
100
AcDbEntity
  8
Defpoints
 62
     0
440
 16777216
100
AcDbPoint
 10
2677.186680262741
 20
1554.927247028806
 30
0.0
  0
ENDBLK
  5
515
330
513
100
AcDbEntity
  8
0
100
AcDbBlockEnd
  0
BLOCK
  5
520
330
51F
100
AcDbEntity
  8
0
100
AcDbBlockBegin
  2
*D30
 70
     1
 10
0.0
 20
0.0
 30
0.0
  3
*D30
  1

  0
LINE
  5
54A
330
51F
100
AcDbEntity
  8
标注
 62
     0
440
 16777216
370
    -2
100
AcDbLine
 10
2903.740964644024
 20
1319.700203918915
 30
0.0
 11
2964.269264796446
 21
1293.629984464088
 31
0.0
  0
MTEXT
  5
54B
330
51F
100
AcDbEntity
  8
标注
 62
     0
440
 16777216
100
AcDbMText
 10
2934.188701473488
 20
1322.258976432196
 30
0.0
 40
18.39999999999998
 41
0.0
 46
0.0
 71
     5
 72
     1
  1
R10
 11
0.9184319653993457
 21
-0.3955789743309104
 31
0.0
 73
     1
 44
1.0
  0
LINE
  5
54C
330
51F
100
AcDbEntity
  8
标注
 62
     0
440
 16777216
370
    -2
100
AcDbLine
 10
2984.474768035238
 20
1284.927247028806
 30
0.0
 11
2975.290448381239
 21
1288.883036772117
 31
0.0
  0
SOLID
  5
54D
330
51F
100
AcDbEntity
  8
标注
 62
     0
440
 16777216
100
AcDbTrace
 10
2965.060422745109
 20
1295.466848394887
 30
0.0
 11
2963.478106847785
 21
1291.79312053329
 31
0.0
 12
2975.290448381239
 22
1288.883036772117
 32
0.0
 13
2975.290448381239
 23
1288.883036772117
 33
0.0
  0
ARC
  5
54E
330
51F
100
AcDbEntity
  8
标注
 62
     0
440
 16777216
370
    -2
100
AcDbCircle
 10
2984.474768035238
 20
1284.927247028806
 30
0.0
 40
10.00000000000591
100
AcDbArc
 50
99.40213238891461
 51
241.3521102434757
  0
POINT
  5
54F
330
51F
100
AcDbEntity
  8
Defpoints
 62
     0
440
 16777216
100
AcDbPoint
 10
2975.290448381239
 20
1288.883036772117
 30
0.0
  0
POINT
  5
550
330
51F
100
AcDbEntity
  8
Defpoints
 62
     0
440
 16777216
100
AcDbPoint
 10
2984.474768035238
 20
1284.927247028806
 30
0.0
  0
ENDBLK
  5
521
330
51F
100
AcDbEntity
  8
0
100
AcDbBlockEnd
  0
BLOCK
  5
52A
330
529
100
AcDbEntity
  8
0
100
AcDbBlockBegin
  2
*D31
 70
     1
 10
0.0
 20
0.0
 30
0.0
  3
*D31
  1

  0
LINE
  5
52C
330
529
100
AcDbEntity
  8
标注
 62
     0
440
 16777216
370
    -2
100
AcDbLine
 10
2799.474768035238
 20
1149.617000777122
 30
0.0
 11
2864.483586749127
 21
1149.617000777122
 31
0.0
  0
LINE
  5
52D
330
529
100
AcDbEntity
  8
标注
 62
     0
440
 16777216
370
    -2
100
AcDbLine
 10
2799.474768035238
 20
1109.617000779814
 30
0.0
 11
2864.483586749127
 21
1109.617000779814
 31
0.0
  0
LINE
  5
52E
330
529
100
AcDbEntity
  8
标注
 62
     0
440
 16777216
370
    -2
100
AcDbLine
 10
2854.483586749127
 20
1137.617000777122
 30
0.0
 11
2854.483586749127
 21
1121.617000779814
 31
0.0
  0
SOLID
  5
52F
330
529
100
AcDbEntity
  8
标注
 62
     0
440
 16777216
100
AcDbTrace
 10
2852.483586749128
 20
1137.617000777122
 30
0.0
 11
2856.483586749128
 21
1137.617000777122
 31
0.0
 12
2854.483586749127
 22
1149.617000777122
 32
0.0
 13
2854.483586749127
 23
1149.617000777122
 33
0.0
  0
SOLID
  5
530
330
529
100
AcDbEntity
  8
标注
 62
     0
440
 16777216
100
AcDbTrace
 10
2852.483586749128
 20
1121.617000779814
 30
0.0
 11
2856.483586749128
 21
1121.617000779814
 31
0.0
 12
2854.483586749127
 22
1109.617000779814
 32
0.0
 13
2854.483586749127
 23
1109.617000779814
 33
0.0
  0
MTEXT
  5
531
330
529
100
AcDbEntity
  8
标注
 62
     0
440
 16777216
100
AcDbMText
 10
2840.089043775048
 20
1129.617000778469
 30
0.0
 40
18.39999999999998
 41
0.0
 46
0.0
 71
     5
 72
     1
  1
40
 11
0.0000000000000001
 21
1.0
 31
0.0
 73
     1
 44
1.0
  0
POINT
  5
532
330
529
100
AcDbEntity
  8
Defpoints
 62
     0
440
 16777216
100
AcDbPoint
 10
2794.474768035238
 20
1149.617000777122
 30
0.0
  0
POINT
  5
533
330
529
100
AcDbEntity
  8
Defpoints
 62
     0
440
 16777216
100
AcDbPoint
 10
2794.474768035238
 20
1109.617000779814
 30
0.0
  0
POINT
  5
534
330
529
100
AcDbEntity
  8
Defpoints
 62
     0
440
 16777216
100
AcDbPoint
 10
2854.483586749127
 20
1109.617000779814
 30
0.0
  0
ENDBLK
  5
52B
330
529
100
AcDbEntity
  8
0
100
AcDbBlockEnd
  0
BLOCK
  5
540
330
53F
100
AcDbEntity
  8
0
100
AcDbBlockBegin
  2
*D32
 70
     1
 10
0.0
 20
0.0
 30
0.0
  3
*D32
  1

  0
LINE
  5
560
330
53F
100
AcDbEntity
  8
标注
 62
     0
440
 16777216
370
    -2
100
AcDbLine
 10
2917.271598710685
 20
1492.100289960899
 30
0.0
 11
2847.666977808041
 21
1527.712337154026
 31
0.0
  0
LINE
  5
561
330
53F
100
AcDbEntity
  8
标注
 62
     0
440
 16777216
370
    -2
100
AcDbLine
 10
2741.282558262667
 20
1582.142156903527
 30
0.0
 11
2733.27034256468
 21
1586.241473872113
 31
0.0
  0
MTEXT
  5
562
102
{ACAD_XDICTIONARY
360
5B7
102
}
330
53F
100
AcDbEntity
  8
标注
 62
     0
440
 16777216
100
AcDbMText
 10
2891.568503834538
 20
1517.811259215265
 30
0.0
 40
13.8
 41
0.0
 46
0.0
 71
     5
 72
     1
  1
∅101.5
 11
0.8902461886651746
 21
-0.4554796631762282
 31
0.0
 73
     1
 44
1.0
  0
LINE
  5
563
330
53F
100
AcDbEntity
  8
标注
 62
     0
440
 16777216
370
    -2
100
AcDbLine
 10
2749.294773960653
 20
1578.042839934941
 30
0.0
 11
2839.654762110054
 21
1531.811654122612
 31
0.0
  0
SOLID
  5
564
330
53F
100
AcDbEntity
  8
标注
 62
     0
440
 16777216
100
AcDbTrace
 10
2741.96577775743
 20
1583.477526186525
 30
0.0
 11
2740.599338767902
 21
1580.80678762053
 31
0.0
 12
2749.294773960653
 22
1578.042839934941
 32
0.0
 13
2749.294773960653
 23
1578.042839934941
 33
0.0
  0
SOLID
  5
565
330
53F
100
AcDbEntity
  8
标注
 62
     0
440
 16777216
100
AcDbTrace
 10
2848.350197302804
 20
1529.047706437024
 30
0.0
 11
2846.983758313276
 21
1526.376967871029
 31
0.0
 12
2839.654762110054
 22
1531.811654122612
 32
0.0
 13
2839.654762110054
 23
1531.811654122612
 33
0.0
  0
POINT
  5
566
330
53F
100
AcDbEntity
  8
Defpoints
 62
     0
440
 16777216
100
AcDbPoint
 10
2839.654762110054
 20
1531.811654122612
 30
0.0
  0
POINT
  5
567
330
53F
100
AcDbEntity
  8
Defpoints
 62
     0
440
 16777216
100
AcDbPoint
 10
2749.294773960653
 20
1578.042839934941
 30
0.0
  0
ENDBLK
  5
541
330
53F
100
AcDbEntity
  8
0
100
AcDbBlockEnd
  0
ENDSEC
  0
SECTION
  2
ENTITIES
  0
LWPOLYLINE
  5
415
102
{ACAD_REACTORS
330
434
330
437
102
}
330
1F
100
AcDbEntity
  8
外框线2
  6
HIDDEN
 48
0.2
100
AcDbPolyline
 90
        8
 70
     1
 43
0.0
 10
3414.474768035237
 20
1764.927247028806
 10
2574.474768035238
 20
1764.927247028806
 42
0.4142135623730951
 10
2564.474768035238
 20
1754.927247028806
 10
2564.474768035238
 20
1254.927247028806
 42
0.4142135623730951
 10
2574.474768035238
 20
1244.927247028806
 10
3414.474768035237
 20
1244.927247028806
 42
0.4142135623730951
 10
3424.474768035238
 20
1254.927247028806
 10
3424.474768035238
 20
1754.927247028806
 42
0.4142135623730951
  0
LWPOLYLINE
  5
416
102
{ACAD_REACTORS
330
43A
330
43D
330
440
330
446
330
449
102
}
330
1F
100
AcDbEntity
  8
外框线1
100
AcDbPolyline
 90
        8
 70
     1
 43
0.0
 10
2984.474768035238
 20
1674.927247028806
 10
2604.474768035238
 20
1674.927247028806
 42
0.4142135623730951
 10
2594.474768035238
 20
1664.927247028806
 10
2594.474768035238
 20
1284.927247028806
 42
0.4142135623730951
 10
2604.474768035238
 20
1274.927247028806
 10
2984.474768035238
 20
1274.927247028806
 42
0.4142135623730951
 10
2994.474768035237
 20
1284.927247028806
 10
2994.474768035237
 20
1664.927247028806
 42
0.4142135623730951
  0
CIRCLE
  5
417
102
{ACAD_REACTORS
330
443
102
}
330
1F
100
AcDbEntity
  8
外框线1
100
AcDbCircle
 10
2794.474768035238
 20
1719.927247028806
 30
0.0
 40
17.5
  0
LINE
  5
418
330
1F
100
AcDbEntity
  8
外框线1
100
AcDbLine
 10
2984.474768035238
 20
1674.927247028806
 30
0.0
 11
3394.474768035238
 21
1674.927247028806
 31
0.0
  0
LINE
  5
419
330
1F
100
AcDbEntity
  8
外框线1
100
AcDbLine
 10
2984.474768035238
 20
1274.927247028806
 30
0.0
 11
3394.474768035238
 21
1274.927247028806
 31
0.0
  0
LINE
  5
41A
102
{ACAD_REACTORS
330
440
102
}
330
1F
100
AcDbEntity
  8
外框线1
100
AcDbLine
 10
3394.474768035238
 20
1674.927247028806
 30
0.0
 11
3394.474768035238
 21
1274.927247028806
 31
0.0
  0
LINE
  5
41B
330
1F
100
AcDbEntity
  8
外框线1
100
AcDbLine
 10
2994.474768035237
 20
1599.234074397283
 30
0.0
 11
3394.474768035238
 21
1599.234074397283
 31
0.0
  0
LINE
  5
41C
330
1F
100
AcDbEntity
  8
外框线1
100
AcDbLine
 10
2994.474768035237
 20
1592.620419660329
 30
0.0
 11
3394.474768035238
 21
1592.620419660329
 31
0.0
  0
LINE
  5
41D
330
1F
100
AcDbEntity
  8
外框线1
100
AcDbLine
 10
2994.474768035237
 20
1602.307603809059
 30
0.0
 11
3394.474768035238
 21
1599.234074397283
 31
0.0
  0
LINE
  5
41E
330
1F
100
AcDbEntity
  8
外框线1
100
AcDbLine
 10
2994.474768035237
 20
1589.546890248567
 30
0.0
 11
3394.474768035238
 21
1592.620419660329
 31
0.0
  0
LINE
  5
41F
330
1F
100
AcDbEntity
  8
外框线1
100
AcDbLine
 10
2994.474768035237
 20
1357.234074397283
 30
0.0
 11
3394.474768035238
 21
1357.234074397283
 31
0.0
  0
LINE
  5
420
330
1F
100
AcDbEntity
  8
外框线1
100
AcDbLine
 10
2994.474768035237
 20
1350.620419660329
 30
0.0
 11
3394.474768035238
 21
1350.620419660329
 31
0.0
  0
LINE
  5
421
330
1F
100
AcDbEntity
  8
外框线1
100
AcDbLine
 10
2994.474768035237
 20
1360.307603809059
 30
0.0
 11
3394.474768035238
 21
1357.234074397283
 31
0.0
  0
LINE
  5
422
330
1F
100
AcDbEntity
  8
外框线1
100
AcDbLine
 10
2994.474768035237
 20
1347.546890248567
 30
0.0
 11
3394.474768035238
 21
1350.620419660329
 31
0.0
  0
LINE
  5
423
330
1F
100
AcDbEntity
  8
外框线1
100
AcDbLine
 10
3429.474768035237
 20
1149.617000777122
 30
0.0
 11
2559.474768035238
 21
1149.617000777122
 31
0.0
  0
LINE
  5
424
102
{ACAD_REACTORS
330
42E
102
}
330
1F
100
AcDbEntity
  8
外框线1
100
AcDbLine
 10
2594.474768035238
 20
1149.617000777122
 30
0.0
 11
2594.474768035238
 21
979.6170007771225
 31
0.0
  0
LINE
  5
425
330
1F
100
AcDbEntity
  8
外框线1
100
AcDbLine
 10
2994.474768035237
 20
1136.817000777119
 30
0.0
 11
2994.474768035237
 21
979.6170007771225
 31
0.0
  0
LINE
  5
426
330
1F
100
AcDbEntity
  8
外框线1
100
AcDbLine
 10
2984.474768035238
 20
969.6170007771225
 30
0.0
 11
2604.474768035238
 21
969.6170007771225
 31
0.0
  0
ARC
  5
427
330
1F
100
AcDbEntity
  8
外框线1
100
AcDbCircle
 10
2604.474768035238
 20
979.6170007771225
 30
0.0
 40
10.0
100
AcDbArc
 50
180.0
 51
270.0
  0
ARC
  5
428
102
{ACAD_REACTORS
330
431
102
}
330
1F
100
AcDbEntity
  8
外框线1
100
AcDbCircle
 10
2984.474768035238
 20
979.6170007771225
 30
0.0
 40
10.0
100
AcDbArc
 50
270.0
 51
0.0
  0
LINE
  5
429
330
1F
100
AcDbEntity
  8
外框线1
100
AcDbLine
 10
2984.474768035238
 20
969.6170007771225
 30
0.0
 11
2852.974768035238
 21
964.6170007771225
 31
0.0
  0
LINE
  5
42A
102
{ACAD_REACTORS
330
42E
102
}
330
1F
100
AcDbEntity
  8
外框线1
100
AcDbLine
 10
2604.474768035238
 20
969.6170007771225
 30
0.0
 11
2735.974768035238
 21
964.6170007771225
 31
0.0
  0
LINE
  5
42B
330
1F
100
AcDbEntity
  8
外框线1
100
AcDbLine
 10
3394.474768035238
 20
1149.617000777122
 30
0.0
 11
2994.474768035237
 21
1136.817000777119
 31
0.0
  0
DIMENSION
  5
42C
102
{ACAD_XDICTIONARY
360
42D
102
}
102
{ACAD_REACTORS
330
42E
102
}
330
1F
100
AcDbEntity
  8
标注
100
AcDbDimension
280
     0
  2
*D21
 10
2509.318927414082
 20
1149.617000777122
 30
0.0
 11
2494.924384440003
 21
1057.117000777123
 31
0.0
 70
    32
 71
     5
 42
185.0000000000001
 73
     0
 74
     0
 75
     0
  3
1-8-L
100
AcDbAlignedDimension
 13
2735.974768035238
 23
964.6170007771225
 33
0.0
 14
2594.474768035238
 24
1149.617000777122
 34
0.0
 50
90.0
100
AcDbRotatedDimension
  0
DIMENSION
  5
42F
102
{ACAD_XDICTIONARY
360
430
102
}
102
{ACAD_REACTORS
330
431
102
}
330
1F
100
AcDbEntity
  8
标注
100
AcDbDimension
280
     0
  2
*D22
 10
2984.474768035237
 20
979.6170007771225
 30
0.0
 11
2935.004560164902
 21
1018.023315931548
 31
0.0
 70
    36
 71
     5
 42
9.999999999798092
 73
     0
 74
     0
 75
     0
  3
1-8-L
100
AcDbRadialDimension
 15
2975.37779413294
 25
983.7697186602534
 35
0.0
 40
0.0
1001
ACAD
1000
DSTYLE
1002
{
1070
   288
1070
     1
1002
}
1001
ACAD_DSTYLE_DIMRADIAL_EXTENSION
1070
   387
1070
     1
1070
   388
1040
4.712388980384689
1070
   390
1040
0.0
  0
DIMENSION
  5
432
102
{ACAD_XDICTIONARY
360
433
102
}
102
{ACAD_REACTORS
330
434
102
}
330
1F
100
AcDbEntity
  8
标注
100
AcDbDimension
280
     0
  2
*D23
 10
2564.474768035238
 20
1832.989184798521
 30
0.0
 11
2994.474768035237
 21
1847.3837277726
 31
0.0
 70
    32
 71
     5
 42
860.0
 73
     0
 74
     0
 75
     0
  3
1-8-L
100
AcDbAlignedDimension
 13
3424.474768035238
 23
1754.927247028806
 33
0.0
 14
2564.474768035238
 24
1754.927247028806
 34
0.0
 50
180.0
100
AcDbRotatedDimension
  0
DIMENSION
  5
435
102
{ACAD_XDICTIONARY
360
436
102
}
102
{ACAD_REACTORS
330
437
102
}
330
1F
100
AcDbEntity
  8
标注
100
AcDbDimension
280
     0
  2
*D24
 10
2492.008902436362
 20
1244.927247028806
 30
0.0
 11
2477.614359462283
 21
1504.927247028806
 31
0.0
 70
    32
 71
     5
 42
520.0
 73
     0
 74
     0
 75
     0
  3
1-8-L
100
AcDbAlignedDimension
 13
2574.474768035238
 23
1764.927247028806
 33
0.0
 14
2574.474768035238
 24
1244.927247028806
 34
0.0
 50
90.0
100
AcDbRotatedDimension
  0
DIMENSION
  5
438
102
{ACAD_XDICTIONARY
360
439
102
}
102
{ACAD_REACTORS
330
43A
102
}
330
1F
100
AcDbEntity
  8
标注
100
AcDbDimension
280
     0
  2
*D25
 10
2527.123934615004
 20
1274.927247028806
 30
0.0
 11
2512.729391640924
 21
1474.927247028806
 31
0.0
 70
    32
 71
     5
 42
400.0
 73
     0
 74
     0
 75
     0
  3
1-8-L
100
AcDbAlignedDimension
 13
2604.474768035238
 23
1674.927247028806
 33
0.0
 14
2604.474768035238
 24
1274.927247028806
 34
0.0
 50
90.0
100
AcDbRotatedDimension
  0
DIMENSION
  5
43B
102
{ACAD_XDICTIONARY
360
43C
102
}
102
{ACAD_REACTORS
330
43D
102
}
330
1F
100
AcDbEntity
  8
标注
100
AcDbDimension
280
     0
  2
*D26
 10
2594.474768035238
 20
1792.975505983785
 30
0.0
 11
2794.474768035238
 21
1807.370048957864
 31
0.0
 70
    32
 71
     5
 42
400.0
 73
     0
 74
     0
 75
     0
  3
1-8-L
100
AcDbAlignedDimension
 13
2994.474768035237
 23
1664.927247028806
 33
0.0
 14
2594.474768035238
 24
1664.927247028806
 34
0.0
 50
180.0
100
AcDbRotatedDimension
  0
DIMENSION
  5
43E
102
{ACAD_XDICTIONARY
360
43F
102
}
102
{ACAD_REACTORS
330
440
102
}
330
1F
100
AcDbEntity
  8
标注
100
AcDbDimension
280
     0
  2
*D27
 10
3394.474768035238
 20
1792.975505983785
 30
0.0
 11
3194.474768035238
 21
1807.370048957864
 31
0.0
 70
    32
 71
     5
 42
400.0
 73
     0
 74
     0
 75
     0
  3
1-8-L
100
AcDbAlignedDimension
 13
2994.474768035237
 23
1664.927247028806
 33
0.0
 14
3394.474768035238
 24
1674.927247028806
 34
0.0
 50
180.0
100
AcDbRotatedDimension
  0
DIMENSION
  5
441
102
{ACAD_XDICTIONARY
360
442
102
}
102
{ACAD_REACTORS
330
443
102
}
330
1F
100
AcDbEntity
  8
标注
100
AcDbDimension
280
     0
  2
*D28
 10
2777.904682413737
 20
1714.298547134836
 30
0.0
 11
2879.257839594997
 21
1748.727247028784
 31
0.0
 70
   163
 71
     5
 42
35.00000000000682
 73
     0
 74
     0
 75
     0
  3
1-8-L
100
AcDbDiametricDimension
 15
2811.044853656732
 25
1725.555946922773
 35
0.0
 40
0.0
1001
ACAD
1000
DSTYLE
1002
{
1070
   288
1070
     1
1002
}
1001
ACAD_DSTYLE_DIMRADIAL_EXTENSION
1070
   387
1070
     1
1070
   388
1040
0.0
1070
   390
1040
0.0
  0
DIMENSION
  5
444
102
{ACAD_XDICTIONARY
360
445
102
}
102
{ACAD_REACTORS
330
446
102
}
330
1F
100
AcDbEntity
  8
标注
100
AcDbDimension
280
     0
  2
*D29
 10
2677.186680262741
 20
1554.927247028806
 30
0.0
 11
2662.792137288662
 21
1614.927247028806
 31
0.0
 70
    32
 71
     5
 42
120.0
 73
     0
 74
     0
 75
     0
  3
1-8-L
100
AcDbAlignedDimension
 13
2794.474768035238
 23
1674.927247028806
 33
0.0
 14
2794.474768035238
 24
1554.927247028806
 34
0.0
 50
90.0
100
AcDbRotatedDimension
  0
DIMENSION
  5
447
102
{ACAD_XDICTIONARY
360
448
102
}
102
{ACAD_REACTORS
330
449
102
}
330
1F
100
AcDbEntity
  8
标注
100
AcDbDimension
280
     0
  2
*D30
 10
2984.474768035238
 20
1284.927247028806
 30
0.0
 11
2934.188701473488
 21
1322.258976432196
 31
0.0
 70
    36
 71
     5
 42
10.00000000000591
 73
     0
 74
     0
 75
     0
  3
1-8-L
100
AcDbRadialDimension
 15
2975.290448381239
 25
1288.883036772117
 35
0.0
 40
0.0
1001
ACAD
1000
DSTYLE
1002
{
1070
   288
1070
     1
1002
}
1001
ACAD_DSTYLE_DIMRADIAL_EXTENSION
1070
   387
1070
     1
1070
   388
1040
4.712388980384689
1070
   390
1040
0.0
  0
INSERT
  5
44A
330
1F
100
AcDbEntity
  8
标注
100
AcDbBlockReference
  2
A$C67E91360
 10
2944.474768035238
 20
1676.127239611663
 30
0.0
  0
INSERT
  5
44B
330
1F
100
AcDbEntity
  8
标注
100
AcDbBlockReference
  2
A$C61936786
 10
2592.274774046157
 20
1734.927247028806
 30
0.0
 41
-1.0
 50
90.0
  0
INSERT
  5
44C
330
1F
100
AcDbEntity
  8
标注
100
AcDbBlockReference
  2
A$C61936786
 10
3396.674762024261
 20
1734.927247028806
 30
0.0
 50
270.0
  0
LWPOLYLINE
  5
44D
330
1F
100
AcDbEntity
  8
外框线2
 48
0.2
100
AcDbPolyline
 90
        4
 70
     1
 43
0.0
 10
3389.474768035237
 20
1273.727247028809
 10
2599.474768035238
 20
1273.727247028809
 10
2599.474768035238
 20
1260.727247028809
 10
3389.474768035237
 20
1260.727247028809
  0
INSERT
  5
44E
330
1F
100
AcDbEntity
  8
外框线2
 48
0.2
100
AcDbBlockReference
  2
A$C60E228D6
 10
2944.474768035238
 20
1066.617000501626
 30
0.0
  0
INSERT
  5
44F
330
1F
100
AcDbEntity
  8
外框线2
 48
0.2
100
AcDbBlockReference
  2
A$C60E228D6
 10
2644.474768035238
 20
1066.617000501626
 30
0.0
 41
-1.0
  0
INSERT
  5
450
330
1F
100
AcDbEntity
  8
标注
100
AcDbBlockReference
  2
A$C538D63E5
 10
2593.274772867044
 20
1125.616998409788
 30
0.0
 41
-1.0
  0
INSERT
  5
451
330
1F
100
AcDbEntity
  8
标注
100
AcDbBlockReference
  2
A$C538D63E5
 10
3394.674763203374
 20
1125.616998409788
 30
0.0
  0
INSERT
  5
452
330
1F
100
AcDbEntity
  8
标注
100
AcDbBlockReference
  2
A$C42CD34D6
 10
3389.474772341789
 20
1125.61699762119
 30
0.0
 41
-1.0
  0
INSERT
  5
453
330
1F
100
AcDbEntity
  8
标注
100
AcDbBlockReference
  2
A$C67E91360
 10
2644.474768035238
 20
1676.127239611663
 30
0.0
 41
-1.0
  0
LWPOLYLINE
  5
454
330
1F
100
AcDbEntity
  8
外框线1
100
AcDbPolyline
 90
        8
 70
     1
 43
0.0
 10
2791.414395106207
 20
1104.456175503314
 42
0.274206687526
 10
2797.53514096421
 20
1104.456175503314
 10
2818.81933830621
 20
1102.079668702915
 42
-0.6299625821720002
 10
2818.997406721239
 20
1101.568618516111
 42
-0.187293026366
 10
2815.474768035238
 20
1099.617000779814
 10
2773.474768035587
 20
1099.617000779814
 42
-0.187293026366
 10
2769.952129351681
 20
1101.568618518119
 42
-0.6299625821720002
 10
2770.130197765197
 20
1102.079668702915
  0
LWPOLYLINE
  5
455
330
1F
100
AcDbEntity
  8
外框线1
100
AcDbPolyline
 90
        8
 70
     1
 43
0.0
 10
2797.5351409652
 20
1114.777826056314
 42
0.274206687526
 10
2791.414395106207
 20
1114.777826056314
 10
2770.130197765197
 20
1117.154332856714
 42
-0.6299625821720002
 10
2769.952129349702
 20
1117.665383043518
 42
-0.187293026366
 10
2773.474768035587
 20
1119.617000779814
 10
2815.474768035238
 20
1119.617000779814
 42
-0.187293026366
 10
2818.997406719202
 20
1117.66538304151
 42
-0.6299625821720002
 10
2818.81933830621
 20
1117.154332856714
  0
LWPOLYLINE
  5
456
330
1F
100
AcDbEntity
  8
外框线1
100
AcDbPolyline
 90
        4
 70
     1
 43
0.0
 10
2800.154553927198
 20
1107.683084488913
 10
2820.424768035191
 20
1106.109581534919
 10
2820.424768035191
 20
1113.12442002471
 10
2800.154553927198
 20
1111.550917070716
 42
-0.165578060144
  0
LWPOLYLINE
  5
457
330
1F
100
AcDbEntity
  8
外框线1
100
AcDbPolyline
 90
        4
 70
     1
 43
0.0
 10
2788.794982143511
 20
1107.683084488913
 10
2768.524768035633
 20
1106.109581534919
 10
2768.524768035633
 20
1113.12442002471
 10
2788.794982143511
 20
1111.550917070716
 42
0.165578060144
  0
ELLIPSE
  5
458
102
{ACAD_REACTORS
330
45B
102
}
330
1F
100
AcDbEntity
  8
外框线1
100
AcDbEllipse
 10
2794.474768035238
 20
1109.617000779814
 30
0.0
 11
0.0
 21
2.800000000000181
 31
0.0
210
0.0
220
0.0
230
1.0
 40
0.8216696726797591
 41
0.0
 42
6.283185307179586
  0
DIMENSION
  5
459
102
{ACAD_XDICTIONARY
360
45A
102
}
102
{ACAD_REACTORS
330
45B
102
}
330
1F
100
AcDbEntity
  8
标注
100
AcDbDimension
280
     0
  2
*D31
 10
2854.483586749127
 20
1109.617000779814
 30
0.0
 11
2840.089043775048
 21
1129.617000778469
 31
0.0
 70
    32
 71
     5
 42
39.99999999730789
 73
     0
 74
     0
 75
     0
  3
1-8-L
100
AcDbAlignedDimension
 13
2794.474768035238
 23
1149.617000777122
 33
0.0
 14
2794.474768035238
 24
1109.617000779814
 34
0.0
 50
90.0
100
AcDbRotatedDimension
1001
ACAD
1000
DSTYLE
1002
{
1070
   288
1070
     1
1002
}
  0
DIMENSION
  5
45C
330
1F
100
AcDbEntity
  8
标注
100
AcDbDimension
280
     0
  2
*D20
 10
2820.424768035191
 20
1038.246480595285
 30
0.0
 11
2895.194600437426
 21
1038.246480595285
 31
0.0
 70
   160
  1
{\fSimSun|b0|i0|c134|p2;53.5-53.6}
 71
     5
 42
51.89999999955762
 73
     0
 74
     0
 75
     0
  3
1-8-L
100
AcDbAlignedDimension
 13
2768.524768035633
 23
1113.124420024186
 33
0.0
 14
2820.424768035191
 24
1113.124420024186
 34
0.0
100
AcDbRotatedDimension
  0
LEADER
  5
45D
330
1F
100
AcDbEntity
  8
外框线1
100
AcDbLeader
  3
1-8-L
 76
     2
 10
2794.568638441568
 20
1673.903569942407
 30
0.0
 10
2794.568638441568
 20
1629.600020288294
 30
0.0
1001
ACAD
1000
DSTYLE
1002
{
1070
   147
1040
0.625
1070
    77
1070
     0
1002
}
  0
INSERT
  5
45E
330
1F
100
AcDbEntity
  8
外框线1
100
AcDbBlockReference
  2
A$C5D565640
 10
3389.474465179731
 20
1676.127233995831
 30
0.0
 41
-1.0
  0
CIRCLE
  5
45F
330
1F
100
AcDbEntity
  8
标注
100
AcDbCircle
 10
3389.474768035237
 20
1267.227247028809
 30
0.0
 40
5.0
  0
CIRCLE
  5
460
330
1F
100
AcDbEntity
  8
标注
100
AcDbCircle
 10
3402.174768035191
 20
1274.927247028806
 30
0.0
 40
5.0
  0
LINE
  5
461
330
1F
100
AcDbEntity
  8
外框线1
100
AcDbLine
 10
2852.974768035238
 20
964.6170007771225
 30
0.0
 11
2735.974768035296
 21
964.6170007771225
 31
0.0
  0
ARC
  5
462
330
1F
100
AcDbEntity
  8
外框线1
100
AcDbCircle
 10
2742.209373508995
 20
962.6170007771225
 30
0.0
 40
2.0
100
AcDbArc
 50
0.9999999998715059
 51
90.0
  0
LINE
  5
463
330
1F
100
AcDbEntity
  8
外框线1
100
AcDbLine
 10
2781.343133404043
 20
940.6170007771224
 30
0.0
 11
2790.92476803525
 21
940.6170007771224
 31
0.0
  0
LINE
  5
464
330
1F
100
AcDbEntity
  8
外框线1
100
AcDbLine
 10
2744.209068899341
 20
962.6519055900072
 30
0.0
 11
2744.293373293076
 21
957.8221101077296
 31
0.0
  0
ARC
  5
465
330
1F
100
AcDbEntity
  8
外框线1
100
AcDbCircle
 10
2754.291850244634
 20
957.9966341720947
 30
0.0
 40
10.0
100
AcDbArc
 50
180.9999999998715
 51
268.9999999984608
  0
LINE
  5
466
330
1F
100
AcDbEntity
  8
外框线1
100
AcDbLine
 10
2769.242220441702
 20
947.7341512091598
 30
0.0
 11
2754.117326180225
 21
947.9981572205369
 31
0.0
  0
ARC
  5
467
330
1F
100
AcDbEntity
  8
外框线1
100
AcDbCircle
 10
2769.224768035238
 20
946.7343035140157
 30
0.0
 40
1.0
100
AcDbArc
 50
359.9999999991662
 51
89.00000000179634
  0
LINE
  5
468
330
1F
100
AcDbEntity
  8
外框线1
100
AcDbLine
 10
2770.224768035238
 20
946.7343035140157
 30
0.0
 11
2770.276299009689
 21
943.7820959642495
 31
0.0
  0
LINE
  5
469
330
1F
100
AcDbEntity
  8
外框线1
100
AcDbLine
 10
2794.474768035238
 20
941.8170007771195
 30
0.0
 11
2772.275994400036
 21
941.8170007771195
 31
0.0
  0
ARC
  5
46A
330
1F
100
AcDbEntity
  8
外框线1
100
AcDbCircle
 10
2772.275994400036
 20
943.8170007771196
 30
0.0
 40
2.0
100
AcDbArc
 50
180.9999999998715
 51
270.0
  0
LINE
  5
46B
330
1F
100
AcDbEntity
  8
外框线1
100
AcDbLine
 10
2781.343133404043
 20
941.8170007771195
 30
0.0
 11
2781.343133404043
 21
940.6170007771224
 31
0.0
  0
LINE
  5
46C
330
1F
100
AcDbEntity
  8
外框线1
100
AcDbLine
 10
2790.92476803525
 20
941.8170007771195
 30
0.0
 11
2790.92476803525
 21
940.6170007771224
 31
0.0
  0
LINE
  5
46D
330
1F
100
AcDbEntity
  8
外框线1
100
AcDbLine
 10
2807.606402666431
 20
940.6170007771224
 30
0.0
 11
2798.024768035226
 21
940.6170007771224
 31
0.0
  0
LINE
  5
46E
330
1F
100
AcDbEntity
  8
外框线1
100
AcDbLine
 10
2844.740467171192
 20
962.6519055900072
 30
0.0
 11
2844.656162777457
 21
957.8221101077296
 31
0.0
  0
ARC
  5
46F
330
1F
100
AcDbEntity
  8
外框线1
100
AcDbCircle
 10
2834.657685825841
 20
957.9966341720947
 30
0.0
 40
10.0
100
AcDbArc
 50
270.9999999982037
 51
359.0000000001285
  0
LINE
  5
470
330
1F
100
AcDbEntity
  8
外框线1
100
AcDbLine
 10
2819.707315628832
 20
947.7341512091744
 30
0.0
 11
2834.83220989025
 21
947.9981572205369
 31
0.0
  0
ARC
  5
471
330
1F
100
AcDbEntity
  8
外框线1
100
AcDbCircle
 10
2819.724768035238
 20
946.7343035140157
 30
0.0
 40
1.0
100
AcDbArc
 50
90.99999999820365
 51
180.0
  0
LINE
  5
472
330
1F
100
AcDbEntity
  8
外框线1
100
AcDbLine
 10
2818.724768035238
 20
946.7343035140157
 30
0.0
 11
2818.673237060786
 21
943.7820959642495
 31
0.0
  0
LINE
  5
473
330
1F
100
AcDbEntity
  8
外框线1
100
AcDbLine
 10
2794.474768035238
 20
941.8170007771195
 30
0.0
 11
2816.67354167044
 21
941.817000777134
 31
0.0
  0
ARC
  5
474
330
1F
100
AcDbEntity
  8
外框线1
100
AcDbCircle
 10
2816.67354167044
 20
943.8170007771342
 30
0.0
 40
2.0
100
AcDbArc
 50
270.0
 51
359.0000000001285
  0
LINE
  5
475
330
1F
100
AcDbEntity
  8
外框线1
100
AcDbLine
 10
2807.606402666431
 20
941.8170007771195
 30
0.0
 11
2807.606402666431
 21
940.6170007771224
 31
0.0
  0
LINE
  5
476
330
1F
100
AcDbEntity
  8
外框线1
100
AcDbLine
 10
2798.024768035226
 20
941.8170007771195
 30
0.0
 11
2798.024768035226
 21
940.6170007771224
 31
0.0
  0
ARC
  5
477
330
1F
100
AcDbEntity
  8
外框线1
100
AcDbCircle
 10
2846.74016256148
 20
962.6170007771225
 30
0.0
 40
2.0
100
AcDbArc
 50
90.0
 51
179.0000000001285
  0
ARC
  5
478
330
1F
100
AcDbEntity
  8
外框线1
100
AcDbCircle
 10
2787.594768035291
 20
1566.484413636769
 30
0.0
 40
3.33
100
AcDbArc
 50
300.765406939364
 51
0.0
  0
ARC
  5
479
330
1F
100
AcDbEntity
  8
外框线1
100
AcDbCircle
 10
2787.905968157058
 20
1566.664085110832
 30
0.0
 40
3.33
100
AcDbArc
 50
239.999999999938
 51
299.2345930572712
  0
ARC
  5
47A
330
1F
100
AcDbEntity
  8
外框线1
100
AcDbCircle
 10
2794.474768035296
 20
1554.927247028806
 30
0.0
 40
19.0
100
AcDbArc
 50
109.0546939574512
 51
130.9453060426577
  0
ARC
  5
47B
330
1F
100
AcDbEntity
  8
外框线1
100
AcDbCircle
 10
2788.924768035307
 20
1570.995772163391
 30
0.0
 40
2.0
100
AcDbArc
 50
0.0
 51
109.0546939574512
  0
ARC
  5
47C
330
1F
100
AcDbEntity
  8
外框线1
100
AcDbCircle
 10
2783.334017067457
 20
1567.767950587099
 30
0.0
 40
2.0
100
AcDbArc
 50
130.9453060426577
 51
239.999999999938
  0
CIRCLE
  5
47D
330
1F
100
AcDbEntity
  8
外框线1
100
AcDbCircle
 10
2794.474768035296
 20
1554.927247028806
 30
0.0
 40
6.025
  0
CIRCLE
  5
47E
330
1F
100
AcDbEntity
  8
外框线1
100
AcDbCircle
 10
2794.474768035296
 20
1554.927247028806
 30
0.0
 40
23.55
  0
LINE
  5
47F
330
1F
100
AcDbEntity
  8
外框线1
100
AcDbLine
 10
2790.924768035308
 20
1566.484413636769
 30
0.0
 11
2790.924768035308
 21
1570.995772163391
 31
0.0
  0
LINE
  5
480
330
1F
100
AcDbEntity
  8
外框线1
100
AcDbLine
 10
2786.240968157079
 20
1563.780220516209
 30
0.0
 11
2782.334017067457
 21
1566.035899779534
 31
0.0
  0
ARC
  5
481
330
1F
100
AcDbEntity
  8
外框线1
100
AcDbCircle
 10
2781.025968157053
 20
1554.747575554743
 30
0.0
 40
3.33
100
AcDbArc
 50
0.7654069411920834
 51
59.99999999993804
  0
ARC
  5
482
330
1F
100
AcDbEntity
  8
外框线1
100
AcDbCircle
 10
2781.025968157053
 20
1555.106918502898
 30
0.0
 40
3.33
100
AcDbArc
 50
300.0000000000619
 51
359.2345930588079
  0
ARC
  5
483
330
1F
100
AcDbEntity
  8
外框线1
100
AcDbCircle
 10
2794.474768035296
 20
1554.927247028806
 30
0.0
 40
19.0
100
AcDbArc
 50
169.0546939578236
 51
190.9453060421764
  0
ARC
  5
484
330
1F
100
AcDbEntity
  8
外框线1
100
AcDbCircle
 10
2777.784017067468
 20
1558.155068605098
 30
0.0
 40
2.0
100
AcDbArc
 50
59.99999999993804
 51
169.0546939578236
  0
ARC
  5
485
330
1F
100
AcDbEntity
  8
外框线1
100
AcDbCircle
 10
2777.784017067468
 20
1551.699425452542
 30
0.0
 40
2.0
100
AcDbArc
 50
190.9453060421764
 51
300.0000000000619
  0
LINE
  5
486
330
1F
100
AcDbEntity
  8
外框线1
100
AcDbLine
 10
2782.690968157091
 20
1557.631440149366
 30
0.0
 11
2778.784017067468
 21
1559.887119412663
 31
0.0
  0
LINE
  5
487
330
1F
100
AcDbEntity
  8
外框线1
100
AcDbLine
 10
2782.690968157091
 20
1552.223053908275
 30
0.0
 11
2778.784017067468
 21
1549.967374644978
 31
0.0
  0
ARC
  5
488
330
1F
100
AcDbEntity
  8
外框线1
100
AcDbCircle
 10
2787.905968157058
 20
1543.190408946809
 30
0.0
 40
3.329999999999999
100
AcDbArc
 50
60.76540694272882
 51
120.0000000000619
  0
ARC
  5
489
330
1F
100
AcDbEntity
  8
外框线1
100
AcDbCircle
 10
2787.594768035349
 20
1543.370080420872
 30
0.0
 40
3.329999999999999
100
AcDbArc
 50
0.0
 51
59.23459306063598
  0
ARC
  5
48A
330
1F
100
AcDbEntity
  8
外框线1
100
AcDbCircle
 10
2794.474768035296
 20
1554.927247028806
 30
0.0
 40
19.0
100
AcDbArc
 50
229.0546939573423
 51
250.9453060425487
  0
ARC
  5
48B
330
1F
100
AcDbEntity
  8
外框线1
100
AcDbCircle
 10
2783.334017067457
 20
1542.086543470542
 30
0.0
 40
1.999999999999999
100
AcDbArc
 50
120.0000000000619
 51
229.0546939573423
  0
ARC
  5
48C
330
1F
100
AcDbEntity
  8
外框线1
100
AcDbCircle
 10
2788.924768035307
 20
1538.858721894249
 30
0.0
 40
1.999999999999999
100
AcDbArc
 50
250.9453060425487
 51
0.0
  0
LINE
  5
48D
330
1F
100
AcDbEntity
  8
外框线1
100
AcDbLine
 10
2786.240968157079
 20
1546.074273541403
 30
0.0
 11
2782.334017067457
 21
1543.818594278106
 31
0.0
  0
LINE
  5
48E
330
1F
100
AcDbEntity
  8
外框线1
100
AcDbLine
 10
2790.924768035308
 20
1543.370080420872
 30
0.0
 11
2790.924768035308
 21
1538.858721894249
 31
0.0
  0
ARC
  5
48F
330
1F
100
AcDbEntity
  8
外框线1
100
AcDbCircle
 10
2801.354768035301
 20
1543.370080420872
 30
0.0
 40
3.33
100
AcDbArc
 50
120.765406939364
 51
180.0
  0
ARC
  5
490
330
1F
100
AcDbEntity
  8
外框线1
100
AcDbCircle
 10
2801.043567913592
 20
1543.190408946809
 30
0.0
 40
3.33
100
AcDbArc
 50
59.99999999993804
 51
119.2345930572711
  0
ARC
  5
491
330
1F
100
AcDbEntity
  8
外框线1
100
AcDbCircle
 10
2794.474768035296
 20
1554.927247028806
 30
0.0
 40
19.0
100
AcDbArc
 50
289.0546939574512
 51
310.9453060426577
  0
ARC
  5
492
330
1F
100
AcDbEntity
  8
外框线1
100
AcDbCircle
 10
2800.024768035342
 20
1538.858721894249
 30
0.0
 40
2.0
100
AcDbArc
 50
180.0
 51
289.0546939574512
  0
ARC
  5
493
330
1F
100
AcDbEntity
  8
外框线1
100
AcDbCircle
 10
2805.615519003194
 20
1542.086543470542
 30
0.0
 40
2.0
100
AcDbArc
 50
310.9453060426577
 51
59.99999999993804
  0
LINE
  5
494
330
1F
100
AcDbEntity
  8
外框线1
100
AcDbLine
 10
2798.024768035342
 20
1543.370080420872
 30
0.0
 11
2798.024768035342
 21
1538.858721894249
 31
0.0
  0
LINE
  5
495
330
1F
100
AcDbEntity
  8
外框线1
100
AcDbLine
 10
2802.708567913571
 20
1546.074273541432
 30
0.0
 11
2806.615519003193
 21
1543.818594278106
 31
0.0
  0
ARC
  5
496
330
1F
100
AcDbEntity
  8
外框线1
100
AcDbCircle
 10
2807.923567913539
 20
1555.106918502898
 30
0.0
 40
3.33
100
AcDbArc
 50
180.7654069411921
 51
239.999999999938
  0
ARC
  5
497
330
1F
100
AcDbEntity
  8
外框线1
100
AcDbCircle
 10
2807.923567913539
 20
1554.747575554743
 30
0.0
 40
3.33
100
AcDbArc
 50
120.0000000000619
 51
179.2345930588079
  0
ARC
  5
498
330
1F
100
AcDbEntity
  8
外框线1
100
AcDbCircle
 10
2794.474768035296
 20
1554.927247028835
 30
0.0
 40
19.0
100
AcDbArc
 50
349.0546939578236
 51
10.94530604217638
  0
ARC
  5
499
330
1F
100
AcDbEntity
  8
外框线1
100
AcDbCircle
 10
2811.165519003182
 20
1551.699425452542
 30
0.0
 40
2.0
100
AcDbArc
 50
239.999999999938
 51
349.0546939578236
  0
ARC
  5
49A
330
1F
100
AcDbEntity
  8
外框线1
100
AcDbCircle
 10
2811.165519003182
 20
1558.155068605098
 30
0.0
 40
2.0
100
AcDbArc
 50
10.94530604217638
 51
120.0000000000619
  0
LINE
  5
49B
330
1F
100
AcDbEntity
  8
外框线1
100
AcDbLine
 10
2806.258567913559
 20
1552.223053908275
 30
0.0
 11
2810.165519003182
 21
1549.967374644978
 31
0.0
  0
LINE
  5
49C
330
1F
100
AcDbEntity
  8
外框线1
100
AcDbLine
 10
2806.258567913559
 20
1557.631440149366
 30
0.0
 11
2810.165519003182
 21
1559.887119412663
 31
0.0
  0
ARC
  5
49D
330
1F
100
AcDbEntity
  8
外框线1
100
AcDbCircle
 10
2801.043567913533
 20
1566.664085110832
 30
0.0
 40
3.33
100
AcDbArc
 50
240.7654069427288
 51
300.0000000000619
  0
ARC
  5
49E
330
1F
100
AcDbEntity
  8
外框线1
100
AcDbCircle
 10
2801.354768035301
 20
1566.484413636769
 30
0.0
 40
3.33
100
AcDbArc
 50
180.0
 51
239.234593060636
  0
ARC
  5
49F
330
1F
100
AcDbEntity
  8
外框线1
100
AcDbCircle
 10
2794.474768035296
 20
1554.927247028835
 30
0.0
 40
19.0
100
AcDbArc
 50
49.05469395734226
 51
70.94530604254877
  0
ARC
  5
4A0
330
1F
100
AcDbEntity
  8
外框线1
100
AcDbCircle
 10
2805.615519003194
 20
1567.767950587099
 30
0.0
 40
2.0
100
AcDbArc
 50
300.0000000000619
 51
49.05469395734226
  0
ARC
  5
4A1
330
1F
100
AcDbEntity
  8
外框线1
100
AcDbCircle
 10
2800.024768035342
 20
1570.995772163391
 30
0.0
 40
2.0
100
AcDbArc
 50
70.94530604254877
 51
180.0
  0
LINE
  5
4A2
330
1F
100
AcDbEntity
  8
外框线1
100
AcDbLine
 10
2802.708567913571
 20
1563.780220516209
 30
0.0
 11
2806.615519003193
 21
1566.035899779534
 31
0.0
  0
LINE
  5
4A3
330
1F
100
AcDbEntity
  8
外框线1
100
AcDbLine
 10
2798.024768035342
 20
1566.484413636769
 30
0.0
 11
2798.024768035342
 21
1570.995772163391
 31
0.0
  0
CIRCLE
  5
4A4
102
{ACAD_REACTORS
330
4A7
102
}
330
1F
100
AcDbEntity
  8
外框线1
100
AcDbCircle
 10
2794.474768035296
 20
1554.927247028806
 30
0.0
 40
50.75
  0
DIMENSION
  5
4A5
102
{ACAD_XDICTIONARY
360
4A6
102
}
102
{ACAD_REACTORS
330
4A7
102
}
330
1F
100
AcDbEntity
  8
标注
100
AcDbDimension
280
     0
  2
*D32
 10
2749.294773960653
 20
1578.042839934941
 30
0.0
 11
2891.568503834538
 21
1517.811259215265
 31
0.0
 70
    35
 71
     5
 42
101.4999999998715
 73
     0
 74
     0
 75
     0
  3
1-6-L
100
AcDbDiametricDimension
 15
2839.654762110054
 25
1531.811654122612
 35
0.0
 40
0.0
1001
ACAD_DSTYLE_DIMRADIAL_EXTENSION
1070
   387
1070
     1
1070
   388
1040
0.0
1070
   390
1040
0.0
  0
LWPOLYLINE
  5
4A8
330
1F
100
AcDbEntity
  8
外框线3
 48
0.2
100
AcDbPolyline
 90
        4
 70
     1
 43
0.0
 10
3094.474768035238
 20
1675.927247028806
 10
3194.474768035238
 20
1675.927247028806
 10
3194.474768035238
 20
1273.927247028806
 10
3094.474768035238
 20
1273.927247028806
  0
ENDSEC
  0
SECTION
  2
OBJECTS
  0
DICTIONARY
  5
C
330
0
100
AcDbDictionary
281
     1
  3
ACAD_CIP_PREVIOUS_PRODUCT_INFO
350
216
  3
ACAD_COLOR
350
6B
  3
ACAD_DETAILVIEWSTYLE
350
21B
  3
ACAD_GROUP
350
D
  3
ACAD_LAYOUT
350
1A
  3
ACAD_MATERIAL
350
6A
  3
ACAD_MLEADERSTYLE
350
12D
  3
ACAD_MLINESTYLE
350
17
  3
ACAD_PLOTSETTINGS
350
19
  3
ACAD_PLOTSTYLENAME
350
E
  3
ACAD_SCALELIST
350
10C
  3
ACAD_SECTIONVIEWSTYLE
350
219
  3
ACAD_TABLESTYLE
350
7E
  3
ACAD_VISUALSTYLE
350
EF
  3
ACDB_RECOMPOSE_DATA
350
5CE
  3
AcDbVariableDictionary
350
5E
  0
DICTIONARY
  5
573
330
8
100
AcDbDictionary
280
     1
281
     1
  0
DICTIONARY
  5
1FF
330
2
100
AcDbDictionary
280
     1
281
     1
  3
ACAD_LAYERSTATES
360
200
  0
DICTIONARY
  5
13C
330
10
100
AcDbDictionary
280
     1
281
     1
  0
DICTIONARY
  5
1CE
330
1F
100
AcDbDictionary
280
     1
281
     1
  0
DICTIONARY
  5
251
330
250
100
AcDbDictionary
280
     1
281
     1
  3
ACAD_SORTENTS
360
252
  0
DICTIONARY
  5
25E
330
25D
100
AcDbDictionary
280
     1
281
     1
  3
ACAD_SORTENTS
360
25F
  0
DICTIONARY
  5
269
330
268
100
AcDbDictionary
280
     1
281
     1
  3
ACAD_SORTENTS
360
26A
  0
DICTIONARY
  5
26F
330
26E
100
AcDbDictionary
280
     1
281
     1
  3
ACAD_SORTENTS
360
270
  0
DICTIONARY
  5
27C
330
27B
100
AcDbDictionary
280
     1
281
     1
  3
ACAD_SORTENTS
360
27D
  0
DICTIONARY
  5
2C4
330
2C3
100
AcDbDictionary
280
     1
281
     1
  3
ACAD_SORTENTS
360
2C5
  0
DICTIONARY
  5
5B5
330
553
100
AcDbDictionary
280
     1
281
     1
  0
DICTIONARY
  5
5B7
330
562
100
AcDbDictionary
280
     1
281
     1
  0
DICTIONARY
  5
42D
330
42C
100
AcDbDictionary
280
     1
281
     1
  3
ACAD_DIMASSOC
360
42E
  0
DICTIONARY
  5
430
330
42F
100
AcDbDictionary
280
     1
281
     1
  3
ACAD_DIMASSOC
360
431
  0
DICTIONARY
  5
433
330
432
100
AcDbDictionary
280
     1
281
     1
  3
ACAD_DIMASSOC
360
434
  0
DICTIONARY
  5
436
330
435
100
AcDbDictionary
280
     1
281
     1
  3
ACAD_DIMASSOC
360
437
  0
DICTIONARY
  5
439
330
438
100
AcDbDictionary
280
     1
281
     1
  3
ACAD_DIMASSOC
360
43A
  0
DICTIONARY
  5
43C
330
43B
100
AcDbDictionary
280
     1
281
     1
  3
ACAD_DIMASSOC
360
43D
  0
DICTIONARY
  5
43F
330
43E
100
AcDbDictionary
280
     1
281
     1
  3
ACAD_DIMASSOC
360
440
  0
DICTIONARY
  5
442
330
441
100
AcDbDictionary
280
     1
281
     1
  3
ACAD_DIMASSOC
360
443
  0
DICTIONARY
  5
445
330
444
100
AcDbDictionary
280
     1
281
     1
  3
ACAD_DIMASSOC
360
446
  0
DICTIONARY
  5
448
330
447
100
AcDbDictionary
280
     1
281
     1
  3
ACAD_DIMASSOC
360
449
  0
DICTIONARY
  5
45A
330
459
100
AcDbDictionary
280
     1
281
     1
  3
ACAD_DIMASSOC
360
45B
  0
DICTIONARY
  5
4A6
330
4A5
100
AcDbDictionary
280
     1
281
     1
  3
ACAD_DIMASSOC
360
4A7
  0
XRECORD
  5
216
102
{ACAD_REACTORS
330
C
102
}
330
C
100
AcDbXrecord
280
     1
300
ACDMAC
300
2022
300

  0
DICTIONARY
  5
6B
102
{ACAD_REACTORS
330
C
102
}
330
C
100
AcDbDictionary
281
     1
  0
DICTIONARY
  5
21B
102
{ACAD_REACTORS
330
C
102
}
330
C
100
AcDbDictionary
281
     1
  3
Metric50
350
21C
  0
DICTIONARY
  5
D
102
{ACAD_REACTORS
330
C
102
}
330
C
100
AcDbDictionary
281
     1
  0
DICTIONARY
  5
1A
102
{ACAD_REACTORS
330
C
102
}
330
C
100
AcDbDictionary
281
     1
  3
Model
350
22
  3
布局1
350
D3
  3
布局2
350
D7
1001
AcadStringInfo
1000
MIFCodePage
1070
     5
  0
DICTIONARY
  5
6A
102
{ACAD_REACTORS
330
C
102
}
330
C
100
AcDbDictionary
281
     1
  3
ByBlock
350
ED
  3
ByLayer
350
EC
  3
Global
350
EE
  0
DICTIONARY
  5
12D
102
{ACAD_REACTORS
330
C
102
}
330
C
100
AcDbDictionary
281
     1
  3
Annotative
350
13B
  3
Standard
350
12E
  0
DICTIONARY
  5
17
102
{ACAD_REACTORS
330
C
102
}
330
C
100
AcDbDictionary
281
     1
  3
Standard
350
18
  0
DICTIONARY
  5
19
102
{ACAD_REACTORS
330
C
102
}
330
C
100
AcDbDictionary
281
     1
  0
ACDBDICTIONARYWDFLT
  5
E
102
{ACAD_REACTORS
330
C
102
}
330
C
100
AcDbDictionary
281
     1
  3
Normal
350
F
100
AcDbDictionaryWithDefault
340
F
  0
DICTIONARY
  5
10C
102
{ACAD_REACTORS
330
C
102
}
330
C
100
AcDbDictionary
281
     1
  3
A0
350
10D
  3
A1
350
1BE
  3
A2
350
1BF
  3
A3
350
1C0
  3
A4
350
1C1
  3
A5
350
1C2
  3
A6
350
1C3
  3
A7
350
1C4
  3
A8
350
1C5
  3
A9
350
1C6
  3
B0
350
1C7
  3
B1
350
1C8
  3
B2
350
1C9
  3
B3
350
1CA
  3
B4
350
1CB
  3
B5
350
1CC
  3
B6
350
1CD
  0
DICTIONARY
  5
219
102
{ACAD_REACTORS
330
C
102
}
330
C
100
AcDbDictionary
281
     1
  3
Metric50
350
21A
  0
DICTIONARY
  5
7E
102
{ACAD_REACTORS
330
C
102
}
330
C
100
AcDbDictionary
281
     1
  3
Standard
350
7F
  0
DICTIONARY
  5
EF
102
{ACAD_REACTORS
330
C
102
}
330
C
100
AcDbDictionary
281
     1
  3
2dWireframe
350
F5
  3
3dWireframe
350
378
  3
Basic
350
F4
  3
Brighten
350
FB
  3
ColorChange
350
FF
  3
Conceptual
350
F8
  3
Dim
350
FA
  3
EdgeColorOff
350
1E6
  3
Facepattern
350
FE
  3
Flat
350
F0
  3
FlatWithEdges
350
F1
  3
Gouraud
350
F2
  3
GouraudWithEdges
350
F3
  3
Hidden
350
F7
  3
JitterOff
350
1E4
  3
Linepattern
350
FD
  3
OverhangOff
350
1E5
  3
Realistic
350
F9
  3
Shaded
350
1F3
  3
Shaded with edges
350
1F2
  3
Shades of Gray
350
1EF
  3
Sketchy
350
1F0
  3
Thicken
350
FC
  3
Wireframe
350
F6
  3
X-Ray
350
1F1
  0
XRECORD
  5
5CE
102
{ACAD_REACTORS
330
C
102
}
330
C
100
AcDbXrecord
280
     1
 90
        1
330
7F
  0
DICTIONARY
  5
5E
102
{ACAD_REACTORS
330
C
102
}
330
C
100
AcDbDictionary
281
     1
  3
CANNOSCALE
350
146
  3
CMLEADERSTYLE
350
145
  3
CTABLESTYLE
350
84
  3
CVIEWDETAILSTYLE
350
227
  3
CVIEWSECTIONSTYLE
350
228
  3
DIMASSOC
350
5F
  3
HIDETEXT
350
63
  3
INDEXCTL
350
5BC
  3
LAYEREVAL
350
1AE
  3
LAYERNOTIFY
350
1AF
  3
LIGHTINGUNITS
350
5BA
  3
MSLTSCALE
350
5B9
  3
SORTENTS
350
5BB
  0
DICTIONARY
  5
200
102
{ACAD_REACTORS
330
1FF
102
}
330
1FF
100
AcDbDictionary
281
     1
  0
SORTENTSTABLE
  5
252
102
{ACAD_REACTORS
330
251
102
}
330
251
100
AcDbSortentsTable
330
250
  0
SORTENTSTABLE
  5
25F
102
{ACAD_REACTORS
330
25E
102
}
330
25E
100
AcDbSortentsTable
330
25D
  0
SORTENTSTABLE
  5
26A
102
{ACAD_REACTORS
330
269
102
}
330
269
100
AcDbSortentsTable
330
268
  0
SORTENTSTABLE
  5
270
102
{ACAD_REACTORS
330
26F
102
}
330
26F
100
AcDbSortentsTable
330
26E
  0
SORTENTSTABLE
  5
27D
102
{ACAD_REACTORS
330
27C
102
}
330
27C
100
AcDbSortentsTable
330
27B
  0
SORTENTSTABLE
  5
2C5
102
{ACAD_REACTORS
330
2C4
102
}
330
2C4
100
AcDbSortentsTable
330
2C3
  0
DIMASSOC
  5
42E
102
{ACAD_REACTORS
330
42D
102
}
330
42D
100
AcDbDimAssoc
330
42C
 90
        3
 70
     0
 71
     0
  1
AcDbOsnapPointRef
 72
     1
331
42A
 73
     2
 91
        0
 40
0.9999999999999998
 10
0.0
 20
0.0
 30
2.000000000000000E+50
 75
     0
  1
AcDbOsnapPointRef
 72
    13
331
424
 73
     2
 91
        0
 40
0.0
 10
0.0
 20
0.0
 30
2.000000000000000E+50
 75
     0
  0
DIMASSOC
  5
431
102
{ACAD_REACTORS
330
430
102
}
330
430
100
AcDbDimAssoc
330
42F
 90
        2
 70
     0
 71
     0
  1
AcDbOsnapPointRef
 72
     3
331
428
 73
     2
 91
        0
 40
0.0
 10
0.0
 20
0.0
 30
0.0
 75
     0
  0
DIMASSOC
  5
434
102
{ACAD_REACTORS
330
433
102
}
330
433
100
AcDbDimAssoc
330
432
 90
        3
 70
     0
 71
     0
  1
AcDbOsnapPointRef
 72
    11
331
415
 73
     2
 91
        0
 40
6.999999999999999
 10
0.0
 20
0.0
 30
0.0
332
415
 74
     2
 92
        0
 75
     0
  1
AcDbOsnapPointRef
 72
     8
331
415
 73
     2
 91
        3
 40
0.0
 10
0.0
 20
0.0
 30
0.0
 75
     1
  1
AcDbOsnapPointRef
 72
    11
331
415
 73
     2
 91
        0
 40
6.999999999999999
 10
0.0
 20
0.0
 30
0.0
332
415
 74
     2
 92
        0
 75
     0
  0
DIMASSOC
  5
437
102
{ACAD_REACTORS
330
436
102
}
330
436
100
AcDbDimAssoc
330
435
 90
        3
 70
     0
 71
     0
  1
AcDbOsnapPointRef
 72
    13
331
415
 73
     2
 91
        2
 40
1.570796326794896
 10
0.0
 20
0.0
 30
2.000000000000000E+50
 75
     0
  1
AcDbOsnapPointRef
 72
     1
331
415
 73
     2
 91
        4
 40
4.712388980384689
 10
0.0
 20
0.0
 30
2.000000000000000E+50
 75
     0
  0
DIMASSOC
  5
43A
102
{ACAD_REACTORS
330
439
102
}
330
439
100
AcDbDimAssoc
330
438
 90
        3
 70
     0
 71
     0
  1
AcDbOsnapPointRef
 72
     1
331
416
 73
     2
 91
        1
 40
1.0
 10
0.0
 20
0.0
 30
2.000000000000000E+50
 75
     0
  1
AcDbOsnapPointRef
 72
     1
331
416
 73
     2
 91
        4
 40
4.712388980384689
 10
0.0
 20
0.0
 30
2.000000000000000E+50
 75
     0
  0
DIMASSOC
  5
43D
102
{ACAD_REACTORS
330
43C
102
}
330
43C
100
AcDbDimAssoc
330
43B
 90
        3
 70
     0
 71
     0
  1
AcDbOsnapPointRef
 72
     1
331
416
 73
     2
 91
        7
 40
1.0
 10
0.0
 20
0.0
 30
2.000000000000000E+50
 75
     0
  1
AcDbOsnapPointRef
 72
     1
331
416
 73
     2
 91
        2
 40
0.0
 10
0.0
 20
0.0
 30
2.000000000000000E+50
 75
     0
  0
DIMASSOC
  5
440
102
{ACAD_REACTORS
330
43F
102
}
330
43F
100
AcDbDimAssoc
330
43E
 90
        3
 70
     0
 71
     0
  1
AcDbOsnapPointRef
 72
    11
331
416
 73
     2
 91
        0
 40
6.999999999999999
 10
0.0
 20
0.0
 30
0.0
332
416
 74
     2
 92
        0
 75
     0
  1
AcDbOsnapPointRef
 72
    13
331
41A
 73
     2
 91
        0
 40
0.0
 10
0.0
 20
0.0
 30
2.000000000000000E+50
 75
     0
  0
DIMASSOC
  5
443
102
{ACAD_REACTORS
330
442
102
}
330
442
100
AcDbDimAssoc
330
441
 90
        2
 70
     0
 71
     0
  1
AcDbOsnapPointRef
 72
     3
331
417
 73
     2
 91
        0
 40
0.0
 10
0.0
 20
0.0
 30
0.0
 75
     0
  0
DIMASSOC
  5
446
102
{ACAD_REACTORS
330
445
102
}
330
445
100
AcDbDimAssoc
330
444
 90
        1
 70
     0
 71
     0
  1
AcDbOsnapPointRef
 72
     2
331
416
 73
     2
 91
        1
 40
0.5
 10
0.0
 20
0.0
 30
0.0
 75
     0
  0
DIMASSOC
  5
449
102
{ACAD_REACTORS
330
448
102
}
330
448
100
AcDbDimAssoc
330
447
 90
        2
 70
     0
 71
     0
  1
AcDbOsnapPointRef
 72
     3
331
416
 73
     2
 91
        6
 40
0.0
 10
0.0
 20
0.0
 30
0.0
 75
     0
  0
DIMASSOC
  5
45B
102
{ACAD_REACTORS
330
45A
102
}
330
45A
100
AcDbDimAssoc
330
459
 90
        2
 70
     0
 71
     0
  1
AcDbOsnapPointRef
 72
     3
331
458
 73
     2
 91
        0
 40
0.0
 10
0.0
 20
6.283185307179586
 30
2.000000000000000E+50
 75
     0
  0
DIMASSOC
  5
4A7
102
{ACAD_REACTORS
330
4A6
102
}
330
4A6
100
AcDbDimAssoc
330
4A5
 90
        2
 70
     0
 71
     0
  1
AcDbOsnapPointRef
 72
     3
331
4A4
 73
     2
 91
        0
 40
0.0
 10
0.0
 20
0.0
 30
0.0
 75
     0
  0
ACDBDETAILVIEWSTYLE
  5
21C
102
{ACAD_REACTORS
330
21B
102
}
330
21B
100
AcDbModelDocViewStyle
 70
     0
  3
Metric50
290
     0
300
Metric50
 90
        0
100
AcDbDetailViewStyle
 70
     0
 71
     0
 90
        3
 71
     1
340
11
 62
   256
 40
5.0
340
0
 62
   256
 40
5.0
300

 40
0.0
280
     1
 71
     2
340
16
 90
       25
 62
   256
 71
     3
340
11
 62
   256
 40
5.0
 90
        0
 40
15.0
 90
        1
300
%<\AcVar ViewDetailId>% (%<\AcVar ViewScale \f "%sn">%)
 71
     4
340
16
 90
       25
 62
   256
340
16
 90
       25
 62
   256
280
     0
  0
LAYOUT
  5
22
102
{ACAD_XDICTIONARY
360
205
102
}
102
{ACAD_REACTORS
330
1A
102
}
330
1A
100
AcDbPlotSettings
  1

  2
none_device
  4
ISO_A4_(210.00_x_297.00_MM)
  6

 40
7.5
 41
20.0
 42
7.5
 43
20.0
 44
210.0
 45
297.0
 46
11.54999923706054
 47
-13.65000009536743
 48
0.0
 49
0.0
140
0.0
141
0.0
142
1.0
143
8.704084754739808
 70
 11952
 72
     1
 73
     0
 74
     0
  7

 75
     0
147
0.1148885871608098
 76
     0
 77
     2
 78
   300
148
0.0
149
0.0
100
AcDbLayout
  1
Model
 70
     1
 71
     0
 10
0.0
 20
0.0
 11
12.0
 21
9.0
 12
0.0
 22
0.0
 32
0.0
 14
0.0
 24
0.0
 34
0.0
 15
0.0
 25
0.0
 35
0.0
146
0.0
 13
0.0
 23
0.0
 33
0.0
 16
1.0
 26
0.0
 36
0.0
 17
0.0
 27
1.0
 37
0.0
 76
     0
330
1F
331
EA
1001
ACAD_PSEXT
1000
None
1000
None
1000
Not applicable
1000
The layout will not be plotted unless a new plotter configuration name is selected.
1070
     0
  0
LAYOUT
  5
D3
102
{ACAD_REACTORS
330
1A
102
}
330
1A
100
AcDbPlotSettings
  1

  2
C:\Documents and Settings\basas\Application Data\Autodesk\AutoCAD 2005\R16.1\enu\plotters\Default Windows System Printer.pc3
  4

  6

 40
0.0
 41
0.0
 42
0.0
 43
0.0
 44
0.0
 45
0.0
 46
0.0
 47
0.0
 48
0.0
 49
0.0
140
0.0
141
0.0
142
1.0
143
1.0
 70
   688
 72
     0
 73
     0
 74
     5
  7

 75
    16
147
1.0
 76
     0
 77
     2
 78
   300
148
0.0
149
0.0
100
AcDbLayout
  1
布局1
 70
     1
 71
     1
 10
0.0
 20
0.0
 11
12.0
 21
9.0
 12
0.0
 22
0.0
 32
0.0
 14
0.0
 24
0.0
 34
0.0
 15
0.0
 25
0.0
 35
0.0
146
0.0
 13
0.0
 23
0.0
 33
0.0
 16
1.0
 26
0.0
 36
0.0
 17
0.0
 27
1.0
 37
0.0
 76
     0
330
D2
1001
AcadStringInfo
1000
MIFCodePage
1070
     5
  0
LAYOUT
  5
D7
102
{ACAD_REACTORS
330
1A
102
}
330
1A
100
AcDbPlotSettings
  1

  2
C:\Documents and Settings\basas\Application Data\Autodesk\AutoCAD 2005\R16.1\enu\plotters\Default Windows System Printer.pc3
  4

  6

 40
0.0
 41
0.0
 42
0.0
 43
0.0
 44
0.0
 45
0.0
 46
0.0
 47
0.0
 48
0.0
 49
0.0
140
0.0
141
0.0
142
1.0
143
1.0
 70
   688
 72
     0
 73
     0
 74
     5
  7

 75
    16
147
1.0
 76
     0
 77
     2
 78
   300
148
0.0
149
0.0
100
AcDbLayout
  1
布局2
 70
     1
 71
     2
 10
0.0
 20
0.0
 11
12.0
 21
9.0
 12
0.0
 22
0.0
 32
0.0
 14
0.0
 24
0.0
 34
0.0
 15
0.0
 25
0.0
 35
0.0
146
0.0
 13
0.0
 23
0.0
 33
0.0
 16
1.0
 26
0.0
 36
0.0
 17
0.0
 27
1.0
 37
0.0
 76
     0
330
D6
1001
AcadStringInfo
1000
MIFCodePage
1070
     5
  0
MATERIAL
  5
ED
102
{ACAD_XDICTIONARY
360
1F9
102
}
102
{ACAD_REACTORS
330
6A
102
}
330
6A
100
AcDbMaterial
  1
ByBlock
 94
       63
  0
MATERIAL
  5
EC
102
{ACAD_XDICTIONARY
360
1F7
102
}
102
{ACAD_REACTORS
330
6A
102
}
330
6A
100
AcDbMaterial
  1
ByLayer
 94
       63
  0
MATERIAL
  5
EE
102
{ACAD_XDICTIONARY
360
173
102
}
102
{ACAD_REACTORS
330
6A
102
}
330
6A
100
AcDbMaterial
  1
Global
 43
0.0007999999797903
 43
0.0
 43
0.0
 43
0.0
 43
0.0
 43
0.0007999999797903
 43
0.0
 43
0.0
 43
0.0
 43
0.0
 43
1.0
 43
0.0
 43
0.0
 43
0.0
 43
0.0
 43
1.0
 49
0.0007999999797903
 49
0.0
 49
0.0
 49
0.0
 49
0.0
 49
0.0007999999797903
 49
0.0
 49
0.0
 49
0.0
 49
0.0
 49
1.0
 49
0.0
 49
0.0
 49
0.0
 49
0.0
 49
1.0
142
0.0007999999797903
142
0.0
142
0.0
142
0.0
142
0.0
142
0.0007999999797903
142
0.0
142
0.0
142
0.0
142
0.0
142
1.0
142
0.0
142
0.0
142
0.0
142
0.0
142
1.0
144
0.0007999999797903
144
0.0
144
0.0
144
0.0
144
0.0
144
0.0007999999797903
144
0.0
144
0.0
144
0.0
144
0.0
144
1.0
144
0.0
144
0.0
144
0.0
144
0.0
144
1.0
 94
       63
1001
ACAD
1070
    -1
1070
     3
1070
     0
1000

1071
        0
1070
     0
  0
MLEADERSTYLE
  5
13B
102
{ACAD_REACTORS
330
12D
102
}
330
12D
100
AcDbMLeaderStyle
179
     2
170
     2
171
     1
172
     0
 90
        2
 40
0.0
 41
0.0
173
     1
 91
-1056964608
340
14
 92
       -2
290
     1
 42
2.0
291
     1
 43
8.0
  3
Standard
 44
4.0
300

342
11
174
     1
178
     1
175
     1
176
     0
 93
-1056964608
 45
4.0
292
     0
297
     0
 46
4.0
 94
-1056964608
 47
1.0
 49
1.0
140
1.0
293
     1
141
0.0
294
     1
177
     0
142
1.0
295
     0
296
     1
143
3.75
271
     0
272
     9
273
     9
298
     0
  0
MLEADERSTYLE
  5
12E
102
{ACAD_REACTORS
330
12D
102
}
330
12D
100
AcDbMLeaderStyle
179
     2
170
     2
171
     1
172
     0
 90
        2
 40
0.0
 41
0.0
173
     1
 91
-1056964608
340
14
 92
       -2
290
     1
 42
2.0
291
     1
 43
8.0
  3
Standard
 44
4.0
300

342
11
174
     1
178
     1
175
     1
176
     0
 93
-1056964608
 45
4.0
292
     0
297
     0
 46
4.0
 94
-1056964608
 47
1.0
 49
1.0
140
1.0
293
     1
141
0.0
294
     1
177
     0
142
1.0
295
     0
296
     0
143
3.75
271
     0
272
     9
273
     9
298
     0
  0
MLINESTYLE
  5
18
102
{ACAD_REACTORS
330
17
102
}
330
17
100
AcDbMlineStyle
  2
STANDARD
 70
     0
  3

 62
   256
 51
90.0
 52
90.0
 71
     2
 49
0.5
 62
   256
  6
BYLAYER
 49
-0.5
 62
   256
  6
BYLAYER
  0
ACDBPLACEHOLDER
  5
F
102
{ACAD_REACTORS
330
E
102
}
330
E
  0
SCALE
  5
10D
102
{ACAD_REACTORS
330
10C
102
}
330
10C
100
AcDbScale
 70
     0
300
1:1
140
1.0
141
1.0
290
     1
  0
SCALE
  5
1BE
102
{ACAD_REACTORS
330
10C
102
}
330
10C
100
AcDbScale
 70
     0
300
1:2
140
1.0
141
2.0
290
     0
  0
SCALE
  5
1BF
102
{ACAD_REACTORS
330
10C
102
}
330
10C
100
AcDbScale
 70
     0
300
1:4
140
1.0
141
4.0
290
     0
  0
SCALE
  5
1C0
102
{ACAD_REACTORS
330
10C
102
}
330
10C
100
AcDbScale
 70
     0
300
1:5
140
1.0
141
5.0
290
     0
  0
SCALE
  5
1C1
102
{ACAD_REACTORS
330
10C
102
}
330
10C
100
AcDbScale
 70
     0
300
1:8
140
1.0
141
8.0
290
     0
  0
SCALE
  5
1C2
102
{ACAD_REACTORS
330
10C
102
}
330
10C
100
AcDbScale
 70
     0
300
1:10
140
1.0
141
10.0
290
     0
  0
SCALE
  5
1C3
102
{ACAD_REACTORS
330
10C
102
}
330
10C
100
AcDbScale
 70
     0
300
1:16
140
1.0
141
16.0
290
     0
  0
SCALE
  5
1C4
102
{ACAD_REACTORS
330
10C
102
}
330
10C
100
AcDbScale
 70
     0
300
1:20
140
1.0
141
20.0
290
     0
  0
SCALE
  5
1C5
102
{ACAD_REACTORS
330
10C
102
}
330
10C
100
AcDbScale
 70
     0
300
1:30
140
1.0
141
30.0
290
     0
  0
SCALE
  5
1C6
102
{ACAD_REACTORS
330
10C
102
}
330
10C
100
AcDbScale
 70
     0
300
1:40
140
1.0
141
40.0
290
     0
  0
SCALE
  5
1C7
102
{ACAD_REACTORS
330
10C
102
}
330
10C
100
AcDbScale
 70
     0
300
1:50
140
1.0
141
50.0
290
     0
  0
SCALE
  5
1C8
102
{ACAD_REACTORS
330
10C
102
}
330
10C
100
AcDbScale
 70
     0
300
1:100
140
1.0
141
100.0
290
     0
  0
SCALE
  5
1C9
102
{ACAD_REACTORS
330
10C
102
}
330
10C
100
AcDbScale
 70
     0
300
2:1
140
2.0
141
1.0
290
     0
  0
SCALE
  5
1CA
102
{ACAD_REACTORS
330
10C
102
}
330
10C
100
AcDbScale
 70
     0
300
4:1
140
4.0
141
1.0
290
     0
  0
SCALE
  5
1CB
102
{ACAD_REACTORS
330
10C
102
}
330
10C
100
AcDbScale
 70
     0
300
8:1
140
8.0
141
1.0
290
     0
  0
SCALE
  5
1CC
102
{ACAD_REACTORS
330
10C
102
}
330
10C
100
AcDbScale
 70
     0
300
10:1
140
10.0
141
1.0
290
     0
  0
SCALE
  5
1CD
102
{ACAD_REACTORS
330
10C
102
}
330
10C
100
AcDbScale
 70
     0
300
100:1
140
100.0
141
1.0
290
     0
  0
ACDBSECTIONVIEWSTYLE
  5
21A
102
{ACAD_REACTORS
330
219
102
}
330
219
100
AcDbModelDocViewStyle
 70
     0
  3
Metric50
290
     0
300
Metric50
 90
        0
100
AcDbSectionViewStyle
 70
     0
 71
     0
 90
      102
 71
     1
340
11
 62
   256
 40
5.0
340
0
340
0
 62
   256
 40
5.0
300
I, O, Q, S, X, Z
 40
10.0
 90
        0
 40
2.5
 90
        0
 71
     2
340
16
 90
       25
 62
   256
340
16
 90
       50
 62
   256
 40
5.0
 40
2.5
 40
5.0
 71
     3
340
11
 62
   256
 40
5.0
 90
        0
 40
15.0
 90
        1
300
%<\AcVar ViewSectionStartId>%-%<\AcVar ViewSectionEndId>% (%<\AcVar ViewScale \f "%sn">%)
 71
     4
 62
   256
 62
   257
300
ANSI31
 40
1.0
 90
        0
290
     0
290
     0
 90
        6
 40
0.0
 40
1.570796326794896
 40
0.2617993877991494
 40
1.308996938995747
 40
-0.2617993877991494
 40
1.832595714594046
  0
TABLESTYLE
  5
7F
102
{ACAD_XDICTIONARY
360
162
102
}
102
{ACAD_REACTORS
330
7E
102
}
330
7E
100
AcDbTableStyle
280
     0
  3
Standard
 70
     0
 71
     0
 40
1.5
 41
1.5
280
     0
281
     0
  7
Standard
140
4.5
170
     2
 62
     0
 63
     7
283
     0
 90
      512
 91
        0
  1

274
    -2
284
     1
 64
     0
275
    -2
285
     1
 65
     0
276
    -2
286
     1
 66
     0
277
    -2
287
     1
 67
     0
278
    -2
288
     1
 68
     0
279
    -2
289
     1
 69
     0
  7
Standard
140
6.0
170
     5
 62
     0
 63
     7
283
     0
 90
      512
 91
        0
  1

274
    -2
284
     1
 64
     0
275
    -2
285
     1
 65
     0
276
    -2
286
     1
 66
     0
277
    -2
287
     1
 67
     0
278
    -2
288
     1
 68
     0
279
    -2
289
     1
 69
     0
  7
Standard
140
4.5
170
     5
 62
     0
 63
     7
283
     0
 90
      512
 91
        0
  1

274
    -2
284
     1
 64
     0
275
    -2
285
     1
 65
     0
276
    -2
286
     1
 66
     0
277
    -2
287
     1
 67
     0
278
    -2
288
     1
 68
     0
279
    -2
289
     1
 69
     0
  0
VISUALSTYLE
  5
F5
102
{ACAD_REACTORS
330
EF
102
}
330
EF
100
AcDbVisualStyle
  2
2dWireframe
 70
     4
177
     3
291
     0
 70
    58
 90
        0
176
     1
 90
        2
176
     1
 90
        1
176
     1
 90
        0
176
     1
 40
0.6
176
     1
 40
30.0
176
     1
 62
     7
176
     1
 90
        1
176
     1
 90
        4
176
     1
 62
     7
176
     1
 62
   257
176
     1
 90
        1
176
     1
 90
        1
176
     1
 40
1.0
176
     1
 90
        0
176
     1
 62
   257
176
     1
 40
1.0
176
     1
 90
        1
176
     1
 90
        6
176
     1
 90
        2
176
     1
 62
     7
176
     1
 90
        5
176
     1
 90
        0
176
     1
 90
        0
176
     1
290
     0
176
     1
 90
        1
176
     1
 40
0.0
176
     1
 90
        0
176
     1
290
     1
176
     1
290
     1
176
     1
290
     0
176
     1
290
     0
176
     1
290
     0
176
     1
290
     0
176
     1
290
     0
176
     1
290
     0
176
     1
290
     0
176
     1
 90
       50
176
     1
 40
0.0
176
     1
 40
1.0
176
     1
 90
        0
176
     1
 62
    18
420
        0
176
     1
 90
       50
176
     1
 90
        3
176
     1
 62
     5
420
      255
176
     1
290
     0
176
     1
 90
       50
176
     1
 90
       50
176
     1
 90
       50
176
     1
290
     0
176
     1
 90
       50
176
     1
 62
   256
176
     0
 40
1.0
176
     0
 90
        2
176
     1
  1
strokes_ogs.tif
176
     1
290
     0
176
     1
 40
1.0
176
     1
 40
1.0
176
     1
  0
VISUALSTYLE
  5
378
102
{ACAD_REACTORS
330
EF
102
}
330
EF
100
AcDbVisualStyle
  2
3dWireframe
 70
     5
177
     3
291
     0
 70
    58
 90
        0
176
     1
 90
        2
176
     1
 90
        1
176
     1
 90
        0
176
     1
 40
0.6
176
     1
 40
30.0
176
     1
 62
     7
176
     1
 90
        1
176
     1
 90
        4
176
     1
 62
     7
176
     1
 62
   257
176
     1
 90
        1
176
     1
 90
        1
176
     1
 40
1.0
176
     1
 90
        0
176
     1
 62
   257
176
     1
 40
1.0
176
     1
 90
        1
176
     1
 90
        6
176
     1
 90
        2
176
     1
 62
     7
176
     1
 90
        5
176
     1
 90
        0
176
     1
 90
        0
176
     1
290
     0
176
     1
 90
        1
176
     1
 40
0.0
176
     1
 90
        0
176
     1
290
     0
176
     1
290
     1
176
     1
290
     1
176
     1
290
     0
176
     1
290
     0
176
     1
290
     0
176
     1
290
     0
176
     1
290
     0
176
     1
290
     0
176
     1
 90
       50
176
     1
 40
0.0
176
     1
 40
1.0
176
     1
 90
        0
176
     1
 62
    18
420
        0
176
     1
 90
       50
176
     1
 90
        3
176
     1
 62
     5
420
      255
176
     1
290
     0
176
     1
 90
       50
176
     1
 90
       50
176
     1
 90
       50
176
     1
290
     0
176
     1
 90
       50
176
     1
 62
   256
176
     0
 40
1.0
176
     0
 90
        2
176
     1
  1
strokes_ogs.tif
176
     1
290
     0
176
     1
 40
1.0
176
     1
 40
1.0
176
     1
  0
VISUALSTYLE
  5
F4
102
{ACAD_REACTORS
330
EF
102
}
330
EF
100
AcDbVisualStyle
  2
Basic
 70
     7
177
     3
291
     1
 70
    58
 90
        1
176
     1
 90
        0
176
     1
 90
        1
176
     1
 90
        0
176
     1
 40
0.6
176
     1
 40
30.0
176
     1
 62
     7
176
     1
 90
        0
176
     1
 90
        4
176
     1
 62
     7
176
     1
 62
   257
176
     1
 90
        1
176
     1
 90
        1
176
     1
 40
1.0
176
     1
 90
        8
176
     1
 62
     7
176
     1
 40
1.0
176
     1
 90
        1
176
     1
 90
        6
176
     1
 90
        2
176
     1
 62
     7
176
     1
 90
        5
176
     1
 90
        0
176
     1
 90
        0
176
     1
290
     0
176
     1
 90
        1
176
     1
 40
0.0
176
     1
 90
        0
176
     1
290
     0
176
     1
290
     1
176
     1
290
     1
176
     1
290
     0
176
     1
290
     0
176
     1
290
     0
176
     1
290
     0
176
     1
290
     0
176
     1
290
     0
176
     1
 90
       50
176
     1
 40
0.0
176
     1
 40
1.0
176
     1
 90
        0
176
     1
 62
    18
420
        0
176
     1
 90
       50
176
     1
 90
        3
176
     1
 62
     5
420
      255
176
     1
290
     0
176
     1
 90
       50
176
     1
 90
       50
176
     1
 90
       50
176
     1
290
     0
176
     1
 90
       50
176
     1
 62
   256
176
     0
 40
1.0
176
     0
 90
        2
176
     1
  1
strokes_ogs.tif
176
     1
290
     0
176
     1
 40
1.0
176
     1
 40
1.0
176
     1
  0
VISUALSTYLE
  5
FB
102
{ACAD_REACTORS
330
EF
102
}
330
EF
100
AcDbVisualStyle
  2
Brighten
 70
    12
177
     3
291
     1
 70
    58
 90
        2
176
     1
 90
        2
176
     1
 90
        1
176
     1
 90
        0
176
     1
 40
0.6
176
     1
 40
30.0
176
     1
 62
     7
176
     1
 90
        1
176
     1
 90
        4
176
     1
 62
     7
176
     1
 62
   257
176
     1
 90
        1
176
     1
 90
        1
176
     1
 40
1.0
176
     1
 90
        8
176
     1
 62
     7
176
     1
 40
1.0
176
     1
 90
        1
176
     1
 90
        6
176
     1
 90
        2
176
     1
 62
     7
176
     1
 90
        5
176
     1
 90
        0
176
     1
 90
        0
176
     1
290
     0
176
     1
 90
        1
176
     1
 40
50.0
176
     1
 90
        0
176
     1
290
     0
176
     1
290
     1
176
     1
290
     1
176
     1
290
     0
176
     1
290
     0
176
     1
290
     0
176
     1
290
     0
176
     1
290
     0
176
     1
290
     0
176
     1
 90
       50
176
     1
 40
0.0
176
     1
 40
1.0
176
     1
 90
        0
176
     1
 62
    18
420
        0
176
     1
 90
       50
176
     1
 90
        3
176
     1
 62
     5
420
      255
176
     1
290
     0
176
     1
 90
       50
176
     1
 90
       50
176
     1
 90
       50
176
     1
290
     0
176
     1
 90
       50
176
     1
 62
   256
176
     0
 40
1.0
176
     0
 90
        2
176
     1
  1
strokes_ogs.tif
176
     1
290
     0
176
     1
 40
1.0
176
     1
 40
1.0
176
     1
  0
VISUALSTYLE
  5
FF
102
{ACAD_REACTORS
330
EF
102
}
330
EF
100
AcDbVisualStyle
  2
ColorChange
 70
    16
177
     3
291
     1
 70
    58
 90
        2
176
     1
 90
        2
176
     1
 90
        3
176
     1
 90
        0
176
     1
 40
0.6
176
     1
 40
30.0
176
     1
 62
     8
176
     1
 90
        1
176
     1
 90
        4
176
     1
 62
     7
176
     1
 62
   257
176
     1
 90
        1
176
     1
 90
        1
176
     1
 40
1.0
176
     1
 90
        8
176
     1
 62
     8
176
     1
 40
1.0
176
     1
 90
        1
176
     1
 90
        6
176
     1
 90
        2
176
     1
 62
     7
176
     1
 90
        5
176
     1
 90
        0
176
     1
 90
        0
176
     1
290
     0
176
     1
 90
        1
176
     1
 40
0.0
176
     1
 90
        0
176
     1
290
     0
176
     1
290
     1
176
     1
290
     1
176
     1
290
     0
176
     1
290
     0
176
     1
290
     0
176
     1
290
     0
176
     1
290
     0
176
     1
290
     0
176
     1
 90
       50
176
     1
 40
0.0
176
     1
 40
1.0
176
     1
 90
        0
176
     1
 62
    18
420
        0
176
     1
 90
       50
176
     1
 90
        3
176
     1
 62
     5
420
      255
176
     1
290
     0
176
     1
 90
       50
176
     1
 90
       50
176
     1
 90
       50
176
     1
290
     0
176
     1
 90
       50
176
     1
 62
   256
176
     0
 40
1.0
176
     0
 90
        2
176
     1
  1
strokes_ogs.tif
176
     1
290
     0
176
     1
 40
1.0
176
     1
 40
1.0
176
     1
  0
VISUALSTYLE
  5
F8
102
{ACAD_REACTORS
330
EF
102
}
330
EF
100
AcDbVisualStyle
  2
Conceptual
 70
     9
177
     3
291
     0
 70
    58
 90
        3
176
     1
 90
        2
176
     1
 90
        1
176
     1
 90
        0
176
     1
 40
0.6
176
     1
 40
30.0
176
     1
 62
     7
176
     1
 90
        2
176
     1
 90
        2
176
     1
 62
     7
176
     1
 62
   257
176
     1
 90
        1
176
     1
 90
        1
176
     1
 40
40.0
176
     1
 90
        8
176
     1
 62
     7
176
     1
 40
1.0
176
     1
 90
        1
176
     1
 90
        6
176
     1
 90
        2
176
     1
 62
     7
176
     1
 90
        3
176
     1
 90
        0
176
     1
 90
        0
176
     1
290
     0
176
     1
 90
        1
176
     1
 40
0.0
176
     1
 90
        0
176
     1
290
     0
176
     1
290
     1
176
     1
290
     1
176
     1
290
     0
176
     1
290
     0
176
     1
290
     0
176
     1
290
     0
176
     1
290
     0
176
     1
290
     0
176
     1
 90
       50
176
     1
 40
0.0
176
     1
 40
1.0
176
     1
 90
        0
176
     1
 62
    18
420
        0
176
     1
 90
       50
176
     1
 90
        3
176
     1
 62
     5
420
      255
176
     1
290
     0
176
     1
 90
       50
176
     1
 90
       50
176
     1
 90
       50
176
     1
290
     0
176
     1
 90
       50
176
     1
 62
   256
176
     0
 40
1.0
176
     0
 90
        2
176
     1
  1
strokes_ogs.tif
176
     1
290
     0
176
     1
 40
1.0
176
     1
 40
1.0
176
     1
  0
VISUALSTYLE
  5
FA
102
{ACAD_REACTORS
330
EF
102
}
330
EF
100
AcDbVisualStyle
  2
Dim
 70
    11
177
     3
291
     1
 70
    58
 90
        2
176
     1
 90
        2
176
     1
 90
        1
176
     1
 90
        0
176
     1
 40
0.6
176
     1
 40
30.0
176
     1
 62
     7
176
     1
 90
        1
176
     1
 90
        4
176
     1
 62
     7
176
     1
 62
   257
176
     1
 90
        1
176
     1
 90
        1
176
     1
 40
1.0
176
     1
 90
        8
176
     1
 62
     7
176
     1
 40
1.0
176
     1
 90
        1
176
     1
 90
        6
176
     1
 90
        2
176
     1
 62
     7
176
     1
 90
        5
176
     1
 90
        0
176
     1
 90
        0
176
     1
290
     0
176
     1
 90
        1
176
     1
 40
-50.0
176
     1
 90
        0
176
     1
290
     0
176
     1
290
     1
176
     1
290
     1
176
     1
290
     0
176
     1
290
     0
176
     1
290
     0
176
     1
290
     0
176
     1
290
     0
176
     1
290
     0
176
     1
 90
       50
176
     1
 40
0.0
176
     1
 40
1.0
176
     1
 90
        0
176
     1
 62
    18
420
        0
176
     1
 90
       50
176
     1
 90
        3
176
     1
 62
     5
420
      255
176
     1
290
     0
176
     1
 90
       50
176
     1
 90
       50
176
     1
 90
       50
176
     1
290
     0
176
     1
 90
       50
176
     1
 62
   256
176
     0
 40
1.0
176
     0
 90
        2
176
     1
  1
strokes_ogs.tif
176
     1
290
     0
176
     1
 40
1.0
176
     1
 40
1.0
176
     1
  0
VISUALSTYLE
  5
1E6
102
{ACAD_REACTORS
330
EF
102
}
330
EF
100
AcDbVisualStyle
  2
EdgeColorOff
 70
    22
177
     3
291
     1
 70
    58
 90
        2
176
     0
 90
        2
176
     0
 90
        0
176
     0
 90
        0
176
     0
 40
0.6
176
     0
 40
30.0
176
     0
 62
     7
176
     0
 90
        1
176
     0
 90
        4
176
     0
 62
     7
176
     0
 62
   257
176
     0
 90
        1
176
     0
 90
        1
176
     0
 40
1.0
176
     0
 90
        8
176
     2
 62
     7
176
     0
 40
1.0
176
     0
 90
        1
176
     0
 90
        6
176
     0
 90
        2
176
     0
 62
     7
176
     0
 90
        5
176
     0
 90
        0
176
     0
 90
        0
176
     0
290
     0
176
     0
 90
        1
176
     0
 40
0.0
176
     0
 90
        0
176
     0
290
     0
176
     1
290
     1
176
     1
290
     1
176
     1
290
     0
176
     1
290
     0
176
     1
290
     0
176
     1
290
     0
176
     1
290
     0
176
     1
290
     0
176
     1
 90
       50
176
     1
 40
0.0
176
     1
 40
1.0
176
     1
 90
        0
176
     1
 62
    18
420
        0
176
     1
 90
       50
176
     1
 90
        3
176
     1
 62
     5
420
      255
176
     1
290
     0
176
     1
 90
       50
176
     1
 90
       50
176
     1
 90
       50
176
     1
290
     0
176
     1
 90
       50
176
     1
 62
   256
176
     0
 40
1.0
176
     0
 90
        2
176
     1
  1
strokes_ogs.tif
176
     1
290
     0
176
     1
 40
1.0
176
     1
 40
1.0
176
     1
  0
VISUALSTYLE
  5
FE
102
{ACAD_REACTORS
330
EF
102
}
330
EF
100
AcDbVisualStyle
  2
Facepattern
 70
    15
177
     3
291
     1
 70
    58
 90
        2
176
     1
 90
        2
176
     1
 90
        1
176
     1
 90
        0
176
     1
 40
0.6
176
     1
 40
30.0
176
     1
 62
     7
176
     1
 90
        1
176
     1
 90
        4
176
     1
 62
     7
176
     1
 62
   257
176
     1
 90
        1
176
     1
 90
        1
176
     1
 40
1.0
176
     1
 90
        8
176
     1
 62
     7
176
     1
 40
1.0
176
     1
 90
        1
176
     1
 90
        6
176
     1
 90
        2
176
     1
 62
     7
176
     1
 90
        5
176
     1
 90
        0
176
     1
 90
        0
176
     1
290
     0
176
     1
 90
        1
176
     1
 40
0.0
176
     1
 90
        0
176
     1
290
     0
176
     1
290
     1
176
     1
290
     1
176
     1
290
     0
176
     1
290
     0
176
     1
290
     0
176
     1
290
     0
176
     1
290
     0
176
     1
290
     0
176
     1
 90
       50
176
     1
 40
0.0
176
     1
 40
1.0
176
     1
 90
        0
176
     1
 62
    18
420
        0
176
     1
 90
       50
176
     1
 90
        3
176
     1
 62
     5
420
      255
176
     1
290
     0
176
     1
 90
       50
176
     1
 90
       50
176
     1
 90
       50
176
     1
290
     0
176
     1
 90
       50
176
     1
 62
   256
176
     0
 40
1.0
176
     0
 90
        2
176
     1
  1
strokes_ogs.tif
176
     1
290
     0
176
     1
 40
1.0
176
     1
 40
1.0
176
     1
  0
VISUALSTYLE
  5
F0
102
{ACAD_REACTORS
330
EF
102
}
330
EF
100
AcDbVisualStyle
  2
Flat
 70
     0
177
     3
291
     1
 70
    58
 90
        2
176
     1
 90
        1
176
     1
 90
        1
176
     1
 90
        2
176
     1
 40
0.6
176
     1
 40
30.0
176
     1
 62
     7
176
     1
 90
        0
176
     1
 90
        0
176
     1
 62
     7
176
     1
 62
   257
176
     1
 90
        1
176
     1
 90
        1
176
     1
 40
1.0
176
     1
 90
        8
176
     1
 62
     7
176
     1
 40
1.0
176
     1
 90
        1
176
     1
 90
        6
176
     1
 90
        2
176
     1
 62
     7
176
     1
 90
        5
176
     1
 90
        0
176
     1
 90
        0
176
     1
290
     0
176
     1
 90
       13
176
     1
 40
0.0
176
     1
 90
        0
176
     1
290
     0
176
     1
290
     1
176
     1
290
     1
176
     1
290
     0
176
     1
290
     0
176
     1
290
     0
176
     1
290
     0
176
     1
290
     0
176
     1
290
     0
176
     1
 90
       50
176
     1
 40
0.0
176
     1
 40
1.0
176
     1
 90
        0
176
     1
 62
    18
420
        0
176
     1
 90
       50
176
     1
 90
        3
176
     1
 62
     5
420
      255
176
     1
290
     0
176
     1
 90
       50
176
     1
 90
       50
176
     1
 90
       50
176
     1
290
     0
176
     1
 90
       50
176
     1
 62
   256
176
     0
 40
1.0
176
     0
 90
        2
176
     1
  1
strokes_ogs.tif
176
     1
290
     0
176
     1
 40
1.0
176
     1
 40
1.0
176
     1
  0
VISUALSTYLE
  5
F1
102
{ACAD_REACTORS
330
EF
102
}
330
EF
100
AcDbVisualStyle
  2
FlatWithEdges
 70
     1
177
     3
291
     1
 70
    58
 90
        2
176
     1
 90
        1
176
     1
 90
        1
176
     1
 90
        2
176
     1
 40
0.6
176
     1
 40
30.0
176
     1
 62
     7
176
     1
 90
        1
176
     1
 90
        0
176
     1
 62
     7
176
     1
 62
   257
176
     1
 90
        1
176
     1
 90
        1
176
     1
 40
1.0
176
     1
 90
        0
176
     1
 62
   257
176
     1
 40
1.0
176
     1
 90
        1
176
     1
 90
        6
176
     1
 90
        2
176
     1
 62
     7
176
     1
 90
        5
176
     1
 90
        0
176
     1
 90
        0
176
     1
290
     0
176
     1
 90
       13
176
     1
 40
0.0
176
     1
 90
        0
176
     1
290
     0
176
     1
290
     1
176
     1
290
     1
176
     1
290
     0
176
     1
290
     0
176
     1
290
     0
176
     1
290
     0
176
     1
290
     0
176
     1
290
     0
176
     1
 90
       50
176
     1
 40
0.0
176
     1
 40
1.0
176
     1
 90
        0
176
     1
 62
    18
420
        0
176
     1
 90
       50
176
     1
 90
        3
176
     1
 62
     5
420
      255
176
     1
290
     0
176
     1
 90
       50
176
     1
 90
       50
176
     1
 90
       50
176
     1
290
     0
176
     1
 90
       50
176
     1
 62
   256
176
     0
 40
1.0
176
     0
 90
        2
176
     1
  1
strokes_ogs.tif
176
     1
290
     0
176
     1
 40
1.0
176
     1
 40
1.0
176
     1
  0
VISUALSTYLE
  5
F2
102
{ACAD_REACTORS
330
EF
102
}
330
EF
100
AcDbVisualStyle
  2
Gouraud
 70
     2
177
     3
291
     1
 70
    58
 90
        2
176
     1
 90
        2
176
     1
 90
        1
176
     1
 90
        2
176
     1
 40
0.6
176
     1
 40
30.0
176
     1
 62
     7
176
     1
 90
        0
176
     1
 90
        0
176
     1
 62
     7
176
     1
 62
   257
176
     1
 90
        1
176
     1
 90
        1
176
     1
 40
1.0
176
     1
 90
        0
176
     1
 62
     7
176
     1
 40
1.0
176
     1
 90
        1
176
     1
 90
        6
176
     1
 90
        2
176
     1
 62
     7
176
     1
 90
        5
176
     1
 90
        0
176
     1
 90
        0
176
     1
290
     0
176
     1
 90
       13
176
     1
 40
0.0
176
     1
 90
        0
176
     1
290
     0
176
     1
290
     1
176
     1
290
     1
176
     1
290
     0
176
     1
290
     0
176
     1
290
     0
176
     1
290
     0
176
     1
290
     0
176
     1
290
     0
176
     1
 90
       50
176
     1
 40
0.0
176
     1
 40
1.0
176
     1
 90
        0
176
     1
 62
    18
420
        0
176
     1
 90
       50
176
     1
 90
        3
176
     1
 62
     5
420
      255
176
     1
290
     0
176
     1
 90
       50
176
     1
 90
       50
176
     1
 90
       50
176
     1
290
     0
176
     1
 90
       50
176
     1
 62
   256
176
     0
 40
1.0
176
     0
 90
        2
176
     1
  1
strokes_ogs.tif
176
     1
290
     0
176
     1
 40
1.0
176
     1
 40
1.0
176
     1
  0
VISUALSTYLE
  5
F3
102
{ACAD_REACTORS
330
EF
102
}
330
EF
100
AcDbVisualStyle
  2
GouraudWithEdges
 70
     3
177
     3
291
     1
 70
    58
 90
        2
176
     1
 90
        2
176
     1
 90
        1
176
     1
 90
        2
176
     1
 40
0.6
176
     1
 40
30.0
176
     1
 62
     7
176
     1
 90
        1
176
     1
 90
        0
176
     1
 62
     7
176
     1
 62
   257
176
     1
 90
        1
176
     1
 90
        1
176
     1
 40
1.0
176
     1
 90
        0
176
     1
 62
   257
176
     1
 40
1.0
176
     1
 90
        1
176
     1
 90
        6
176
     1
 90
        2
176
     1
 62
     7
176
     1
 90
        5
176
     1
 90
        0
176
     1
 90
        0
176
     1
290
     0
176
     1
 90
       13
176
     1
 40
0.0
176
     1
 90
        0
176
     1
290
     0
176
     1
290
     1
176
     1
290
     1
176
     1
290
     0
176
     1
290
     0
176
     1
290
     0
176
     1
290
     0
176
     1
290
     0
176
     1
290
     0
176
     1
 90
       50
176
     1
 40
0.0
176
     1
 40
1.0
176
     1
 90
        0
176
     1
 62
    18
420
        0
176
     1
 90
       50
176
     1
 90
        3
176
     1
 62
     5
420
      255
176
     1
290
     0
176
     1
 90
       50
176
     1
 90
       50
176
     1
 90
       50
176
     1
290
     0
176
     1
 90
       50
176
     1
 62
   256
176
     0
 40
1.0
176
     0
 90
        2
176
     1
  1
strokes_ogs.tif
176
     1
290
     0
176
     1
 40
1.0
176
     1
 40
1.0
176
     1
  0
VISUALSTYLE
  5
F7
102
{ACAD_REACTORS
330
EF
102
}
330
EF
100
AcDbVisualStyle
  2
Hidden
 70
     6
177
     3
291
     0
 70
    58
 90
        1
176
     1
 90
        2
176
     1
 90
        2
176
     1
 90
        0
176
     1
 40
0.6
176
     1
 40
30.0
176
     1
 62
     7
176
     1
 90
        2
176
     1
 90
        2
176
     1
 62
     7
176
     1
 62
   257
176
     1
 90
        2
176
     1
 90
        1
176
     1
 40
40.0
176
     1
 90
        0
176
     1
 62
   257
176
     1
 40
1.0
176
     1
 90
        1
176
     1
 90
        6
176
     1
 90
        2
176
     1
 62
     7
176
     1
 90
        3
176
     1
 90
        0
176
     1
 90
        0
176
     1
290
     0
176
     1
 90
        1
176
     1
 40
0.0
176
     1
 90
        0
176
     1
290
     0
176
     1
290
     1
176
     1
290
     1
176
     1
290
     0
176
     1
290
     0
176
     1
290
     0
176
     1
290
     0
176
     1
290
     0
176
     1
290
     0
176
     1
 90
       50
176
     1
 40
0.0
176
     1
 40
1.0
176
     1
 90
        0
176
     1
 62
    18
420
        0
176
     1
 90
       50
176
     1
 90
        3
176
     1
 62
     5
420
      255
176
     1
290
     0
176
     1
 90
       50
176
     1
 90
       50
176
     1
 90
       50
176
     1
290
     0
176
     1
 90
       50
176
     1
 62
   256
176
     0
 40
1.0
176
     0
 90
        2
176
     1
  1
strokes_ogs.tif
176
     1
290
     0
176
     1
 40
1.0
176
     1
 40
1.0
176
     1
  0
VISUALSTYLE
  5
1E4
102
{ACAD_REACTORS
330
EF
102
}
330
EF
100
AcDbVisualStyle
  2
JitterOff
 70
    20
177
     3
291
     1
 70
    58
 90
        2
176
     0
 90
        2
176
     0
 90
        0
176
     0
 90
        0
176
     0
 40
0.6
176
     0
 40
30.0
176
     0
 62
     7
176
     0
 90
        1
176
     0
 90
        4
176
     0
 62
     7
176
     0
 62
   257
176
     0
 90
        1
176
     0
 90
        1
176
     0
 40
1.0
176
     0
 90
       10
176
     2
 62
     7
176
     0
 40
1.0
176
     0
 90
        1
176
     0
 90
        6
176
     0
 90
        2
176
     0
 62
     7
176
     0
 90
        5
176
     0
 90
        0
176
     0
 90
        0
176
     0
290
     0
176
     0
 90
        1
176
     0
 40
0.0
176
     0
 90
        0
176
     0
290
     0
176
     1
290
     1
176
     1
290
     1
176
     1
290
     0
176
     1
290
     0
176
     1
290
     0
176
     1
290
     0
176
     1
290
     0
176
     1
290
     0
176
     1
 90
       50
176
     1
 40
0.0
176
     1
 40
1.0
176
     1
 90
        0
176
     1
 62
    18
420
        0
176
     1
 90
       50
176
     1
 90
        3
176
     1
 62
     5
420
      255
176
     1
290
     0
176
     1
 90
       50
176
     1
 90
       50
176
     1
 90
       50
176
     1
290
     0
176
     1
 90
       50
176
     1
 62
   256
176
     0
 40
1.0
176
     0
 90
        2
176
     1
  1
strokes_ogs.tif
176
     1
290
     0
176
     1
 40
1.0
176
     1
 40
1.0
176
     1
  0
VISUALSTYLE
  5
FD
102
{ACAD_REACTORS
330
EF
102
}
330
EF
100
AcDbVisualStyle
  2
Linepattern
 70
    14
177
     3
291
     1
 70
    58
 90
        2
176
     1
 90
        2
176
     1
 90
        1
176
     1
 90
        0
176
     1
 40
0.6
176
     1
 40
30.0
176
     1
 62
     7
176
     1
 90
        1
176
     1
 90
        4
176
     1
 62
     7
176
     1
 62
   257
176
     1
 90
        7
176
     1
 90
        7
176
     1
 40
1.0
176
     1
 90
        8
176
     1
 62
     7
176
     1
 40
1.0
176
     1
 90
        1
176
     1
 90
        6
176
     1
 90
        2
176
     1
 62
     7
176
     1
 90
        5
176
     1
 90
        0
176
     1
 90
        0
176
     1
290
     0
176
     1
 90
        1
176
     1
 40
0.0
176
     1
 90
        0
176
     1
290
     0
176
     1
290
     1
176
     1
290
     1
176
     1
290
     0
176
     1
290
     0
176
     1
290
     0
176
     1
290
     0
176
     1
290
     0
176
     1
290
     0
176
     1
 90
       50
176
     1
 40
0.0
176
     1
 40
1.0
176
     1
 90
        0
176
     1
 62
    18
420
        0
176
     1
 90
       50
176
     1
 90
        3
176
     1
 62
     5
420
      255
176
     1
290
     0
176
     1
 90
       50
176
     1
 90
       50
176
     1
 90
       50
176
     1
290
     0
176
     1
 90
       50
176
     1
 62
   256
176
     0
 40
1.0
176
     0
 90
        2
176
     1
  1
strokes_ogs.tif
176
     1
290
     0
176
     1
 40
1.0
176
     1
 40
1.0
176
     1
  0
VISUALSTYLE
  5
1E5
102
{ACAD_REACTORS
330
EF
102
}
330
EF
100
AcDbVisualStyle
  2
OverhangOff
 70
    21
177
     3
291
     1
 70
    58
 90
        2
176
     0
 90
        2
176
     0
 90
        0
176
     0
 90
        0
176
     0
 40
0.6
176
     0
 40
30.0
176
     0
 62
     7
176
     0
 90
        1
176
     0
 90
        4
176
     0
 62
     7
176
     0
 62
   257
176
     0
 90
        1
176
     0
 90
        1
176
     0
 40
1.0
176
     0
 90
        9
176
     2
 62
     7
176
     0
 40
1.0
176
     0
 90
        1
176
     0
 90
        6
176
     0
 90
        2
176
     0
 62
     7
176
     0
 90
        5
176
     0
 90
        0
176
     0
 90
        0
176
     0
290
     0
176
     0
 90
        1
176
     0
 40
0.0
176
     0
 90
        0
176
     0
290
     0
176
     1
290
     1
176
     1
290
     1
176
     1
290
     0
176
     1
290
     0
176
     1
290
     0
176
     1
290
     0
176
     1
290
     0
176
     1
290
     0
176
     1
 90
       50
176
     1
 40
0.0
176
     1
 40
1.0
176
     1
 90
        0
176
     1
 62
    18
420
        0
176
     1
 90
       50
176
     1
 90
        3
176
     1
 62
     5
420
      255
176
     1
290
     0
176
     1
 90
       50
176
     1
 90
       50
176
     1
 90
       50
176
     1
290
     0
176
     1
 90
       50
176
     1
 62
   256
176
     0
 40
1.0
176
     0
 90
        2
176
     1
  1
strokes_ogs.tif
176
     1
290
     0
176
     1
 40
1.0
176
     1
 40
1.0
176
     1
  0
VISUALSTYLE
  5
F9
102
{ACAD_REACTORS
330
EF
102
}
330
EF
100
AcDbVisualStyle
  2
Realistic
 70
     8
177
     3
291
     0
 70
    58
 90
        2
176
     1
 90
        2
176
     1
 90
        0
176
     1
 90
        2
176
     1
 40
0.6
176
     1
 40
30.0
176
     1
 62
     7
176
     1
 90
        0
176
     1
 90
        0
176
     1
 62
     7
176
     1
 62
   257
176
     1
 90
        1
176
     1
 90
        1
176
     1
 40
1.0
176
     1
 90
        8
176
     1
 62
   257
176
     1
 40
1.0
176
     1
 90
        1
176
     1
 90
        6
176
     1
 90
        2
176
     1
 62
     7
176
     1
 90
        3
176
     1
 90
        0
176
     1
 90
        0
176
     1
290
     0
176
     1
 90
       13
176
     1
 40
0.0
176
     1
 90
        0
176
     1
290
     0
176
     1
290
     1
176
     1
290
     1
176
     1
290
     0
176
     1
290
     0
176
     1
290
     0
176
     1
290
     0
176
     1
290
     0
176
     1
290
     0
176
     1
 90
       50
176
     1
 40
0.0
176
     1
 40
1.0
176
     1
 90
        0
176
     1
 62
    18
420
        0
176
     1
 90
       50
176
     1
 90
        3
176
     1
 62
     5
420
      255
176
     1
290
     0
176
     1
 90
       50
176
     1
 90
       50
176
     1
 90
       50
176
     1
290
     0
176
     1
 90
       50
176
     1
 62
   256
176
     0
 40
1.0
176
     0
 90
        2
176
     1
  1
strokes_ogs.tif
176
     1
290
     0
176
     1
 40
1.0
176
     1
 40
1.0
176
     1
  0
VISUALSTYLE
  5
1F3
102
{ACAD_REACTORS
330
EF
102
}
330
EF
100
AcDbVisualStyle
  2
Shaded
 70
    27
177
     3
291
     0
 70
    58
 90
        2
176
     1
 90
        2
176
     1
 90
        1
176
     1
 90
        2
176
     1
 40
0.6
176
     1
 40
30.0
176
     1
 62
     7
176
     1
 90
        0
176
     1
 90
        4
176
     1
 62
     7
176
     1
 62
   257
176
     1
 90
        1
176
     1
 90
        1
176
     1
 40
1.0
176
     1
 90
        8
176
     1
 62
   257
176
     1
 40
1.0
176
     1
 90
        1
176
     1
 90
        6
176
     1
 90
        2
176
     1
 62
     8
176
     1
 90
        3
176
     1
 90
        0
176
     1
 90
        0
176
     1
290
     0
176
     1
 90
        5
176
     1
 40
0.0
176
     1
 90
        0
176
     1
290
     0
176
     1
290
     1
176
     1
290
     1
176
     1
290
     0
176
     1
290
     0
176
     1
290
     0
176
     1
290
     0
176
     1
290
     0
176
     1
290
     0
176
     1
 90
       50
176
     1
 40
0.0
176
     1
 40
1.0
176
     1
 90
        0
176
     1
 62
    18
420
        0
176
     1
 90
       50
176
     1
 90
        3
176
     1
 62
     5
420
      255
176
     1
290
     0
176
     1
 90
       50
176
     1
 90
       50
176
     1
 90
       50
176
     1
290
     0
176
     1
 90
       50
176
     1
 62
   256
176
     0
 40
1.0
176
     0
 90
        2
176
     1
  1
strokes_ogs.tif
176
     1
290
     0
176
     1
 40
1.0
176
     1
 40
1.0
176
     1
  0
VISUALSTYLE
  5
1F2
102
{ACAD_REACTORS
330
EF
102
}
330
EF
100
AcDbVisualStyle
  2
Shaded with edges
 70
    26
177
     3
291
     0
 70
    58
 90
        2
176
     1
 90
        2
176
     1
 90
        1
176
     1
 90
        2
176
     1
 40
0.6
176
     1
 40
30.0
176
     1
 62
     7
176
     1
 90
        1
176
     1
 90
        2
176
     1
 62
     7
176
     1
 62
   257
176
     1
 90
        2
176
     1
 90
        1
176
     1
 40
1.0
176
     1
 90
        8
176
     1
 62
   257
176
     1
 40
1.0
176
     1
 90
        1
176
     1
 90
        6
176
     1
 90
        2
176
     1
 62
     7
176
     1
 90
        3
176
     1
 90
        0
176
     1
 90
        0
176
     1
290
     0
176
     1
 90
        5
176
     1
 40
0.0
176
     1
 90
        0
176
     1
290
     0
176
     1
290
     1
176
     1
290
     1
176
     1
290
     0
176
     1
290
     0
176
     1
290
     0
176
     1
290
     0
176
     1
290
     0
176
     1
290
     0
176
     1
 90
       50
176
     1
 40
0.0
176
     1
 40
1.0
176
     1
 90
        0
176
     1
 62
    18
420
        0
176
     1
 90
       50
176
     1
 90
        3
176
     1
 62
     5
420
      255
176
     1
290
     0
176
     1
 90
       50
176
     1
 90
       50
176
     1
 90
       50
176
     1
290
     0
176
     1
 90
       50
176
     1
 62
   256
176
     0
 40
1.0
176
     0
 90
        2
176
     1
  1
strokes_ogs.tif
176
     1
290
     0
176
     1
 40
1.0
176
     1
 40
1.0
176
     1
  0
VISUALSTYLE
  5
1EF
102
{ACAD_REACTORS
330
EF
102
}
330
EF
100
AcDbVisualStyle
  2
Shades of Gray
 70
    23
177
     3
291
     0
 70
    58
 90
        2
176
     1
 90
        2
176
     1
 90
        3
176
     1
 90
        0
176
     1
 40
0.6
176
     1
 40
30.0
176
     1
 62
     7
176
     1
 90
        2
176
     1
 90
        2
176
     1
 62
     7
176
     1
 62
     7
176
     1
 90
        1
176
     1
 90
        1
176
     1
 40
40.0
176
     1
 90
        8
176
     1
 62
     7
176
     1
 40
1.0
176
     1
 90
        1
176
     1
 90
        6
176
     1
 90
        2
176
     1
 62
     7
176
     1
 90
        3
176
     1
 90
        0
176
     1
 90
        0
176
     1
290
     0
176
     1
 90
        1
176
     1
 40
0.0
176
     1
 90
        0
176
     1
290
     0
176
     1
290
     1
176
     1
290
     1
176
     1
290
     0
176
     1
290
     0
176
     1
290
     0
176
     1
290
     0
176
     1
290
     0
176
     1
290
     0
176
     1
 90
       50
176
     1
 40
0.0
176
     1
 40
1.0
176
     1
 90
        0
176
     1
 62
    18
420
        0
176
     1
 90
       50
176
     1
 90
        3
176
     1
 62
     5
420
      255
176
     1
290
     0
176
     1
 90
       50
176
     1
 90
       50
176
     1
 90
       50
176
     1
290
     0
176
     1
 90
       50
176
     1
 62
   256
176
     0
 40
1.0
176
     0
 90
        2
176
     1
  1
strokes_ogs.tif
176
     1
290
     0
176
     1
 40
1.0
176
     1
 40
1.0
176
     1
  0
VISUALSTYLE
  5
1F0
102
{ACAD_REACTORS
330
EF
102
}
330
EF
100
AcDbVisualStyle
  2
Sketchy
 70
    24
177
     3
291
     0
 70
    58
 90
        1
176
     1
 90
        2
176
     1
 90
        2
176
     1
 90
        0
176
     1
 40
0.6
176
     1
 40
30.0
176
     1
 62
     7
176
     1
 90
        2
176
     1
 90
        2
176
     1
 62
     7
176
     1
 62
     7
176
     1
 90
        1
176
     1
 90
        1
176
     1
 40
40.0
176
     1
 90
       11
176
     1
 62
     7
176
     1
 40
1.0
176
     1
 90
        1
176
     1
 90
        6
176
     1
 90
        2
176
     1
 62
     7
176
     1
 90
        6
176
     1
 90
        0
176
     1
 90
        0
176
     1
290
     0
176
     1
 90
        1
176
     1
 40
0.0
176
     1
 90
        0
176
     1
290
     0
176
     1
290
     1
176
     1
290
     1
176
     1
290
     0
176
     1
290
     0
176
     1
290
     0
176
     1
290
     0
176
     1
290
     0
176
     1
290
     0
176
     1
 90
       50
176
     1
 40
0.0
176
     1
 40
1.0
176
     1
 90
        0
176
     1
 62
    18
420
        0
176
     1
 90
       50
176
     1
 90
        3
176
     1
 62
     5
420
      255
176
     1
290
     0
176
     1
 90
       50
176
     1
 90
       50
176
     1
 90
       50
176
     1
290
     0
176
     1
 90
       50
176
     1
 62
   256
176
     0
 40
1.0
176
     0
 90
        2
176
     1
  1
strokes_ogs.tif
176
     1
290
     0
176
     1
 40
1.0
176
     1
 40
1.0
176
     1
  0
VISUALSTYLE
  5
FC
102
{ACAD_REACTORS
330
EF
102
}
330
EF
100
AcDbVisualStyle
  2
Thicken
 70
    13
177
     3
291
     1
 70
    58
 90
        2
176
     1
 90
        2
176
     1
 90
        1
176
     1
 90
        0
176
     1
 40
0.6
176
     1
 40
30.0
176
     1
 62
     7
176
     1
 90
        1
176
     1
 90
        4
176
     1
 62
     7
176
     1
 62
   257
176
     1
 90
        1
176
     1
 90
        1
176
     1
 40
1.0
176
     1
 90
       12
176
     1
 62
     7
176
     1
 40
1.0
176
     1
 90
        1
176
     1
 90
        6
176
     1
 90
        2
176
     1
 62
     7
176
     1
 90
        5
176
     1
 90
        0
176
     1
 90
        0
176
     1
290
     0
176
     1
 90
        1
176
     1
 40
0.0
176
     1
 90
        0
176
     1
290
     0
176
     1
290
     1
176
     1
290
     1
176
     1
290
     0
176
     1
290
     0
176
     1
290
     0
176
     1
290
     0
176
     1
290
     0
176
     1
290
     0
176
     1
 90
       50
176
     1
 40
0.0
176
     1
 40
1.0
176
     1
 90
        0
176
     1
 62
    18
420
        0
176
     1
 90
       50
176
     1
 90
        3
176
     1
 62
     5
420
      255
176
     1
290
     0
176
     1
 90
       50
176
     1
 90
       50
176
     1
 90
       50
176
     1
290
     0
176
     1
 90
       50
176
     1
 62
   256
176
     0
 40
1.0
176
     0
 90
        2
176
     1
  1
strokes_ogs.tif
176
     1
290
     0
176
     1
 40
1.0
176
     1
 40
1.0
176
     1
  0
VISUALSTYLE
  5
F6
102
{ACAD_REACTORS
330
EF
102
}
330
EF
100
AcDbVisualStyle
  2
Wireframe
 70
     5
177
     3
291
     0
 70
    58
 90
        0
176
     1
 90
        2
176
     1
 90
        0
176
     1
 90
        0
176
     1
 40
0.6
176
     1
 40
30.0
176
     1
 62
     7
176
     1
 90
        1
176
     1
 90
        4
176
     1
 62
     7
176
     1
 62
   257
176
     1
 90
        1
176
     1
 90
        1
176
     1
 40
1.0
176
     1
 90
        0
176
     1
 62
   257
176
     1
 40
1.0
176
     1
 90
        1
176
     1
 90
        6
176
     1
 90
        2
176
     1
 62
     7
176
     1
 90
        3
176
     1
 90
        0
176
     1
 90
        0
176
     1
290
     0
176
     1
 90
        1
176
     1
 40
0.0
176
     1
 90
        0
176
     1
290
     0
176
     1
290
     1
176
     1
290
     1
176
     1
290
     0
176
     1
290
     0
176
     1
290
     0
176
     1
290
     0
176
     1
290
     0
176
     1
290
     0
176
     1
 90
       50
176
     1
 40
0.0
176
     1
 40
1.0
176
     1
 90
        0
176
     1
 62
    18
420
        0
176
     1
 90
       50
176
     1
 90
        3
176
     1
 62
     5
420
      255
176
     1
290
     0
176
     1
 90
       50
176
     1
 90
       50
176
     1
 90
       50
176
     1
290
     0
176
     1
 90
       50
176
     1
 62
   256
176
     0
 40
1.0
176
     0
 90
        2
176
     1
  1
strokes_ogs.tif
176
     1
290
     0
176
     1
 40
1.0
176
     1
 40
1.0
176
     1
  0
VISUALSTYLE
  5
1F1
102
{ACAD_REACTORS
330
EF
102
}
330
EF
100
AcDbVisualStyle
  2
X-Ray
 70
    25
177
     3
291
     0
 70
    58
 90
        2
176
     1
 90
        2
176
     1
 90
        1
176
     1
 90
        1
176
     1
 40
0.5
176
     1
 40
30.0
176
     1
 62
     7
176
     1
 90
        1
176
     1
 90
        0
176
     1
 62
     7
176
     1
 62
   257
176
     1
 90
        1
176
     1
 90
        1
176
     1
 40
1.0
176
     1
 90
        8
176
     1
 62
     7
176
     1
 40
1.0
176
     1
 90
        1
176
     1
 90
        6
176
     1
 90
        2
176
     1
 62
     7
176
     1
 90
        3
176
     1
 90
        0
176
     1
 90
        0
176
     1
290
     0
176
     1
 90
       13
176
     1
 40
0.0
176
     1
 90
        0
176
     1
290
     0
176
     1
290
     1
176
     1
290
     1
176
     1
290
     0
176
     1
290
     0
176
     1
290
     0
176
     1
290
     0
176
     1
290
     0
176
     1
290
     0
176
     1
 90
       50
176
     1
 40
0.0
176
     1
 40
1.0
176
     1
 90
        0
176
     1
 62
    18
420
        0
176
     1
 90
       50
176
     1
 90
        3
176
     1
 62
     5
420
      255
176
     1
290
     0
176
     1
 90
       50
176
     1
 90
       50
176
     1
 90
       50
176
     1
290
     0
176
     1
 90
       50
176
     1
 62
   256
176
     0
 40
1.0
176
     0
 90
        2
176
     1
  1
strokes_ogs.tif
176
     1
290
     0
176
     1
 40
1.0
176
     1
 40
1.0
176
     1
  0
DICTIONARYVAR
  5
146
102
{ACAD_REACTORS
330
5E
102
}
330
5E
100
DictionaryVariables
280
     0
  1
1:1
  0
DICTIONARYVAR
  5
145
102
{ACAD_REACTORS
330
5E
102
}
330
5E
100
DictionaryVariables
280
     0
  1
STANDARD
  0
DICTIONARYVAR
  5
84
102
{ACAD_REACTORS
330
5E
102
}
330
5E
100
DictionaryVariables
280
     0
  1
STANDARD
  0
DICTIONARYVAR
  5
227
102
{ACAD_REACTORS
330
5E
102
}
330
5E
100
DictionaryVariables
280
     0
  1
Metric50
  0
DICTIONARYVAR
  5
228
102
{ACAD_REACTORS
330
5E
102
}
330
5E
100
DictionaryVariables
280
     0
  1
Metric50
  0
DICTIONARYVAR
  5
5F
102
{ACAD_REACTORS
330
5E
102
}
330
5E
100
DictionaryVariables
280
     0
  1
2
  0
DICTIONARYVAR
  5
63
102
{ACAD_REACTORS
330
5E
102
}
330
5E
100
DictionaryVariables
280
     0
  1
1
  0
DICTIONARYVAR
  5
5BC
102
{ACAD_REACTORS
330
5E
102
}
330
5E
100
DictionaryVariables
280
     0
  1
0
  0
DICTIONARYVAR
  5
1AE
102
{ACAD_REACTORS
330
5E
102
}
330
5E
100
DictionaryVariables
280
     0
  1
0
  0
DICTIONARYVAR
  5
1AF
102
{ACAD_REACTORS
330
5E
102
}
330
5E
100
DictionaryVariables
280
     0
  1
0
  0
DICTIONARYVAR
  5
5BA
102
{ACAD_REACTORS
330
5E
102
}
330
5E
100
DictionaryVariables
280
     0
  1
2
  0
DICTIONARYVAR
  5
5B9
102
{ACAD_REACTORS
330
5E
102
}
330
5E
100
DictionaryVariables
280
     0
  1
1
  0
DICTIONARYVAR
  5
5BB
102
{ACAD_REACTORS
330
5E
102
}
330
5E
100
DictionaryVariables
280
     0
  1
127
  0
DICTIONARY
  5
205
330
22
100
AcDbDictionary
280
     1
281
     1
  0
DICTIONARY
  5
1F9
330
ED
100
AcDbDictionary
280
     1
281
     1
  3
FBXASSET
360
1FA
  0
DICTIONARY
  5
1F7
330
EC
100
AcDbDictionary
280
     1
281
     1
  3
FBXASSET
360
1F8
  0
DICTIONARY
  5
173
330
EE
100
AcDbDictionary
280
     1
281
     1
  3
BUMPTILE
360
175
  3
DIFFUSETILE
360
174
  3
FBXASSET
360
1FB
  3
OPACITYTILE
360
176
  3
REFLECTIONTILE
360
177
  0
DICTIONARY
  5
162
330
7F
100
AcDbDictionary
280
     1
281
     1
  3
ACAD_ROUNDTRIP_2008_TABLESTYLE_CELLSTYLEMAP
360
5CD
  0
XRECORD
  5
1FA
102
{ACAD_REACTORS
330
1F9
102
}
330
1F9
100
AcDbXrecord
280
     1
 70
     1
 90
429727718
  1
D62C5603-E3A1-4AEA-B7FB-FE5D8D0755AF
310
504B03040A0000080000CC70623B3DEE336E79000000790000001B0000006175746F6465736B2D64657369676E2D7061636B6167652E786D6C3C3F786D6C2076657273696F6E3D22312E302220656E636F64696E673D227574662D3822203F3E3C666F726D6174733E3C666F726D61743E687474703A2F2F736368656D612E
310
6175746F6465736B2E636F6D2F64657369676E2D7061636B6167652F323030393C2F666F726D61743E3C2F666F726D6174733E504B0304140006080800CC70623BD486FD9CA0000000F4000000130000005B436F6E74656E745F54797065735D2E786D6C7D8EC10E82300C865F65E91D8A1E8C310C0EEA1BF002731658846E
310
D98AC1B77784ABF1D8FE5FBFBF75BBCE937A534CCEB38643598122B6FEE978D0B0485F9C41B54DDD7D022595594E1A469170414C76A4D9A4D207E29CF43ECE46F218070CC6BECC4078ACAA135ACF422C856C0E68EA1BF5669944DDD7BCDE7B1F8E415D77AECB980613C2E4AC91FC167A2B244592486606FC29C8FD7F045B9A
310
EF7053A7E60B504B0304140006080800CC70623B853B8169EB0000007C01000008000000636F72652E786D6C8D90416EC3201045AF62CDB6C206821CC7C244919D9CA01740401C94182C03558F5F9C3852BBEB6A467FFE9B197D7EFC9E1EC5975982F5AE035262288C535E5B377690E21535501C055FBC8FBF6C503839990E
310
5619041F179FE64D52DE45E362569DD7661365082642A11EB9E920A89B99642953CC8E702F67A9EE7234257977194EC9EAE275C4EABCCF5EAD5940D4AC6F0E35A568B8F43562CD7046CD199FD07E60174276A7BE677B5EADB0E0D14EEFFB6A31321A0D82627C4084204C3F096B71DD52F6819B16635EADF63F509AF53FA164
310
5DDCD1EDDD17164090FCC8732078B56691CB33A85CD7DCC40F504B0304140006080800CC70623B55019EA25F0000007C00000007000000636E782E786D6C4DCB3B0E80201045D1AD90E915ED2CF8AC45050C11660C8261F98AB1B07AC9C97D42D718D865D3E909258CFD00CCE24AC6E326A164D74DC0B4128928FF32603847
310
2BA13128B1252AC747C6BAB984FC68F0B87FE8960A5C09FE86CFB69FBA01504B0304140006080800CC70623BDBABAAF470010000D40300000C0000006662782F636F72652E786D6CC553D16E823014FD95A6AF4B694182CC941A83FA05FB810A9511A125A5257EFE2E82712ECEB8A7F100CD39F7F69E734AF9FADC366850B6
310
AF8DCE7018308C942E4C59EB2AC3DE1D498AD15A706B8CFB56869196ADCAF00863C12B6B7C374385D14E6907A836A59A41D9F7CA615434B0C8705F7CAA5606D23BA8E84F41278B93AC54100640439DE0BDB320004D43C63716C7C399D30917DCFBBA9CD9BA8469F5B156168B24CED3F7248AC8769F27244EB73B92EED8862C
310
B7F13E0C179B3C8F979C8ECD82BBBABDAA2BAC924E9558448CBD9330242CFA08E3154B5651FCC6D215639C8EE5774DBE2B5F6CF2B5768B68963BB5F5588420E442FC700B1139D4CB01F450C1E918227C2E09DF070D8140C84E1E9AAB8F1340832A9CB13130A5F1376A908D57309505ECF2A0DF179C4E9D30F5B239B87E3823
310
7A79C6F31DE1A8A5AEC08474B03C7837EAE4938639B44E5932B833D2C6B6B279CDC613877FA26EE21F4A2A4C63EC7F29A2F301D1F9F7A0E37D145F504B0304140006080800CC70623B9C113CC27E0000009D0000000B0000006662782F636E782E786D6C4DCCDF0A83201C86E15B91DFB94BFB330DD428C8FB886521330DA7
310
6397BF1A1DECE883878F57749FCDA1B7892F1BBC047A23808C7F84D9FA55424E0BE6803A256208E9EF06C84F9B91703228B1C690F78B66B34CD9A5439DF5CF0BFBF65E35BCA1B8D6A5C6F540381E886698B5741C695F9503EBA150A2F8958E3DC3EA0B504B0304140006080800CC70623B7DF2F77C2A010000120200003100
310
00006662782F41393633353835312D344632462D344230382D423046372D3739314545314133324237412F636F72652E786D6C8D51DB8EC22014FC15C2939B0D2DB4B45643319AE817EC0F6041255A68B86CFCFC856D4D76DF7CE190393373060EDB3DC707F856CE6B6B7A480A0C81328395DA5C7B18C3057510EC3873D686
310
3F34088C18550F330C39BB3A1BA7051AAC09CA84841A2BD5020AEF55806078A44B0FFD7053A328440C89E1EFC52486BBB8AA8214A99D789CF9E05200300FC927E4FB4D5B375D43103D5527440FB843077C5AA3F5861C8F645F5787F59E95B390B318B55CE45AA638FAA2957BD7248B390B7A7CC51F9C124149C82B8C378810
310
84AB2F42B7B8DD56F413775B8C5999E9FF4471926F8AA236A1AE96B8B3CC434E5839373893369E1FAF30EA395917409EB7F26AF8801C171837A4A6AC9C89E9F9C9B1A58BA30FD6A5EF5DDDCF894B9AD9B6A59C957943A9FCAE2FD5BC4DFE03504B0304140006080800CC70623BAD7543B64E01000033030000300000006662
310
782F41393633353835312D344632462D344230382D423046372D3739314545314133324237412F636E782E786D6CD593CD6EC32010845F0571AD6CE3D48AD20813A9873E410FBD12D82434182C7EAAE6EDBB2424CD25871E7B41D6EC30B3FA84F9E67BB2E40B4234DE8DB46F1925E094D7C6ED479AD3AE5951B2113C789FEE
310
6C943839C1488B4C05DF079FE72A69D8C96C13AAD6B8631503449F83828872B949AC57D26200B826A308D316B4064D6E46FCDA41C05550DC9E483A00797BFD207EFB092A45DE9514C1BBD22178396BD39D891265658C238DEA00936C654E5E433CB65A26D9F6EDB5EBC14EBF49A45CB856E66048291F6939A9A81BB5C89177
310
38143CA680F4AA299D66A042CEB3354A2684DC9D8D178FE0D9B8B41CAAD720F880EE7EF93C0C18769E099ECC04D5A102C8049A8A05632F4DDF376CF1DE0F6BB65C2F8627B65A33C6BB62177CEBBDAD973006829F89F22E814B54F4BC2BE347F8AA8F681390B50FA73F804400B5F542E796F19FF974E7F78DB802FE05E20750
310
4B0304140006080800CC70623BE75B7789680500003C100000340000006662782F41393633353835312D344632462D344230382D423046372D3739314545314133324237412F6F626A656374732E786D6CAD575B8F9B3818FD2B887D06C22499CB8AA1CA655245D5B455A356FB305264C061D8018C6C3393D95FBFC7600890
310
A4CD5EF210B0B1BFEBF98E3F7B1FF6596ABC522E1296DF9BAE3D320D9A872C4AF2F8DE2CE5CEBA358D0FBEC719939D65A691938CDE9B6ADAF4BD98B3B2D05311DD91329583D9D5FC0F438434A7A611A644887B5384CF34233629258BA878B12322891DEFF6B66BD70BFB62634E8AE781D082709A4B588AF91C528CDA28B73F
310
1C998EEF39EABBEFA97FBD6A7C7E9553F9D3D79FE442923C3C523610337627CB87ABE99D359D4CC6D6E4FACAB5E6ABF9D2726FC6A3C5F56271377BB88362213924694B38DD99FE47C48627A1E7D49F5A8BB5E1A74C0A599ED3B0F21F1E56366B89112D681E218F0915D0D6F17AD41FBA2A369DCF6335D62ABBD39779D5DDD1
310
11D4D8DE3CBB96B2E04FB8202E41051754A1AA8E8F76B4C6DFE810B580B1547F4B84911149794252234D024EF8BBE963A95AE27B3D310A9D5C215C7960FAEE415ED75694C6AFB17BCACA5D99A60A9AA65F217B0BFC53292ACB92BF283FAD0D3621576592CB5BED907C2FA8E9DF794E35E97BEA31BED21FEB401ABB94C44839
310
DCACBF0E1C5DA8DA5B2F4DFFD32AD86F543D9E565E7056502E157C00AD2671CD534549AB752FCA9CDA00677A313F04E51B22FF19E57B300579E3C97EB29F682D92935CEC18CF901B7B54FD8C51F362B56FC72FE0B3C1EAE335EDCCBF5AEC39ADB17DC238973F804BA5E6F6BFE7AF1FB32E523BE9F3BD571418E3631DCA4D48
310
5250CF639223210A9446CA30052EDF057BD35F8329C1ECD84552BF0DC8D18BE7BCE23BFE6BD960AB4A7DE79923A103BEBD80F911CBAA2C60DB19B01CF164A5583B772EE6D3FFA56666CBCDA74DC97724A48F9A58967497E489C4D979006FD7A05E227A1EBDD0F737C623387A9C844D3709995625106D157315F8B8392CD4E0
310
A0B9A720C4BE9829CEF37EA1E13111214D53925356365ADA634861B52519DD27A00AEB808EAF0628E6F435519D446F45CF2C9CF5214F0A15B2F6D06B79DA3EE3CBF7F56780D2F4E7EF73A0F5E5B02A38D07DC852C6B7C1FBB6664213E0C39E3EBA7FF4E1AD23EA2829407C85E586727488B751B2DB9502BC7B228A3FD68B6E
310
A65A22397E690AA8D158D7E404EC8CDA235CC3B7D1898680131CEC2CDF2638C65196279577750F15884AEE19F94199155B92B13297978469D4F8D358DF0AEF7631E28DC8F0D9F437D5D39A83B2231A1D52D543813A824EF8D44BCFF2FA6A31BD1E8DAD87F1CCB526B3879935BF59CDADD5C37479BB1CDD4CA7B3556B516589
310
EF352754B706114D9C885EC9131DE6EFEB43D99AFE2391C2F958179413D7CFEF6B1B6DB1E7600F00DE6E5C67454A339A4BA2E0FBA85ED26F045D454F463DBFCE484C2F90F2E5E3666003662ED8F755951A7D1BECD5B30B550B2785C8E7320B7292A4838DDA71BBC863ED7613CAF659337A3354231D4FF4A182A54904C2898C
310
98B28C4AD0CE056CCF332A80986E571EE9DBC305BB5FEB7E509220A58D25CF042D712A806AC0AD0C657FDEF80D2D9CEAA2EE4D1C76F60BFE74219A06527D6F82DF6412526107381E55E353090704D085B52408A8913C4ED159D79BDA71BB4BC506F4831350EB6F975CD22D69BF7AC49B91A2C0A9DDA3D5CA36AD20FC478E37
310
E61844E2352865EBCB61A275A65283CAAA9DD27703B4102F5AF51EF5F573B75CBB5AD38BC845F7A49F82A0966A49C2E3EA5EA0ECD326CD965F1DB402C6FA8B51A4658C5C5E2EC9E214602E55810345408596591009A82E7E7FFACA19EEA299B14A0081A705CB3296EBC14CDF658DCD336EA6D1136881AAEB87B81AB9EE53D5
310
F5EB8BC8362082DA24122F98680A4E7930C01A0079749CEA14382A0783E5EBA5A10F8C098456A03D6A4AEB6BB881E2513747552A5DB22C7EDAF83BD5528081A365F7FF06504B0304140006080000CC70623B000000000000000000000000350000006662782F41393633353835312D344632462D344230382D423046372D37
310
39314545314133324237412F76657274696365732E62696E504B0304140006080800CC70623BF270F1330600000004000000360000006662782F41393633353835312D344632462D344230382D423046372D3739314545314133324237412F747269616E676C65732E62696E636660600000504B0304140006080000CC7062
310
3B000000000000000000000000370000006662782F41393633353835312D344632462D344230382D423046372D3739314545314133324237412F617474726962757465732E62696E504B0304140006080800CC70623B08DA0BD19000000041010000360000006662782F41393633353835312D344632462D344230382D4230
310
46372D3739314545314133324237412F6469726563746F72792E786D6C858F410AC3201045AF22B36F53E9A60B35CBEEBAE80D244E44489C6234F4F835464A48035D0DF398FF9F8AF63D0E6CC63039F212F8F9020C7D47C6792B21C5FE7403D62A1188E2E60C98D7234A5830286103A55745067B9D86B8A3CF9C7F90C11DE6
310
07FB144396D7B6A82D282E9A152AD114D5EF2CB866EEE831B8EEA07A7BB5A8D7D61A2BAAEB7FD5F70921FF497D00504B0304140006080800CC70623BEDD1DC58FD000000A00100003B0000006662782F41393633353835312D344632462D344230382D423046372D3739314545314133324237412F7265736F75726365732F
310
636F72652E786D6C8D504B6E833010BD0A9A6D65B00922041947112427E8052C33A156828DFCA97AFC9A40A576D7CDCCE87D344F8F9FBFE667F689CE6B6B3A6039850C8DB2A336530731DC4903D95970676DF82583CCC8193B5861107C72362E3BA4AC096842428D1D7107A5F7182053CF7474E0D507CE32973124857FE48B
310
540F3961CEF244279DE03EB81420DB9EAC1384436FA353E879B1B182C7A8C75DA3C7F453DF353A1075D537A7BA6464B8F535A99AE14A9A2BBD90E350DD183B5CFABE3AF262350B1EF4FC9351399401471025A527C218A1E53BAB5A5AB765F5469B96525EACF23FA6B88CFF34456DC2A1DCE36E360F82A5202F42F062ED2BAD
310
579969AFDD8A6F504B010214000A0000080000CC70623B3DEE336E79000000790000001B00000000000000000000000000000000006175746F6465736B2D64657369676E2D7061636B6167652E786D6C504B01021400140006080800CC70623BD486FD9CA0000000F40000001300000000000000000000000000B20000005B
310
436F6E74656E745F54797065735D2E786D6C504B01021400140006080800CC70623B853B8169EB0000007C010000080000000000000000000000000083010000636F72652E786D6C504B01021400140006080800CC70623B55019EA25F0000007C000000070000000000000000000000000094020000636E782E786D6C504B
310
01021400140006080800CC70623BDBABAAF470010000D40300000C00000000000000000000000000180300006662782F636F72652E786D6C504B01021400140006080800CC70623B9C113CC27E0000009D0000000B00000000000000000000000000B20400006662782F636E782E786D6C504B01021400140006080800CC70
310
623B7DF2F77C2A010000120200003100000000000000000000000000590500006662782F41393633353835312D344632462D344230382D423046372D3739314545314133324237412F636F72652E786D6C504B01021400140006080800CC70623BAD7543B64E010000330300003000000000000000000000000000D2060000
310
6662782F41393633353835312D344632462D344230382D423046372D3739314545314133324237412F636E782E786D6C504B01021400140006080800CC70623BE75B7789680500003C10000034000000000000000000000000006E0800006662782F41393633353835312D344632462D344230382D423046372D3739314545
310
314133324237412F6F626A656374732E786D6C504B01021400140006080000CC70623B0000000000000000000000003500000000000000000000000000280E00006662782F41393633353835312D344632462D344230382D423046372D3739314545314133324237412F76657274696365732E62696E504B01021400140006
310
080800CC70623BF270F133060000000400000036000000000000000000000000007B0E00006662782F41393633353835312D344632462D344230382D423046372D3739314545314133324237412F747269616E676C65732E62696E504B01021400140006080000CC70623B0000000000000000000000003700000000000000
310
000000000000D50E00006662782F41393633353835312D344632462D344230382D423046372D3739314545314133324237412F617474726962757465732E62696E504B01021400140006080800CC70623B08DA0BD1900000004101000036000000000000000000000000002A0F00006662782F41393633353835312D344632
310
462D344230382D423046372D3739314545314133324237412F6469726563746F72792E786D6C504B01021400140006080800CC70623BEDD1DC58FD000000A00100003B000000000000000000000000000E1000006662782F41393633353835312D344632462D344230382D423046372D3739314545314133324237412F7265
310
736F75726365732F636F72652E786D6C504B0506000000000E000E0080040000641100000000
  0
XRECORD
  5
1F8
102
{ACAD_REACTORS
330
1F7
102
}
330
1F7
100
AcDbXrecord
280
     1
 70
     1
 90
429727718
  1
30362254-06B7-45E0-A893-8CFA70E3D6BC
310
504B03040A0000080000CC70623B3DEE336E79000000790000001B0000006175746F6465736B2D64657369676E2D7061636B6167652E786D6C3C3F786D6C2076657273696F6E3D22312E302220656E636F64696E673D227574662D3822203F3E3C666F726D6174733E3C666F726D61743E687474703A2F2F736368656D612E
310
6175746F6465736B2E636F6D2F64657369676E2D7061636B6167652F323030393C2F666F726D61743E3C2F666F726D6174733E504B0304140006080800CC70623BD486FD9CA0000000F4000000130000005B436F6E74656E745F54797065735D2E786D6C7D8EC10E82300C865F65E91D8A1E8C310C0EEA1BF002731658846E
310
D98AC1B77784ABF1D8FE5FBFBF75BBCE937A534CCEB38643598122B6FEE978D0B0485F9C41B54DDD7D022595594E1A469170414C76A4D9A4D207E29CF43ECE46F218070CC6BECC4078ACAA135ACF422C856C0E68EA1BF5669944DDD7BCDE7B1F8E415D77AECB980613C2E4AC91FC167A2B244592486606FC29C8FD7F045B9A
310
EF7053A7E60B504B0304140006080800CC70623B1EC5D7A3EB0000007C01000008000000636F72652E786D6C8D90416EC3201045AF82665B6103C6756C6122AB4D4ED00B204C5C94182C03558F5F9C3852BBEB6A467FFE9B197D71FC9E6FE8CBACC17AD7032D0820E3B41FAD9B7A48F1820F808E52ACDEC75F36404ECDA687
310
4D0629A6D5A76597B477D1B89855E747B38B2A041301E95B6E7A08FAD3CCAA50296647B8168BD2573599823EBB0CA76447F43862C7BCCF5EAC59410E4DDD9C7973C2755553CCCFA4C603E3040F1565ED3B1FDE4E432BCA0D9622DAF9795FAF464533826484B498524CD807E51D79ED187F21878E10516EF63F505AC67F42C9
310
BA58B1FDDD071640D2FCC87D2045B96591CB3DA85CB7DCE40F504B0304140006080800CC70623B55019EA25F0000007C00000007000000636E782E786D6C4DCB3B0E80201045D1AD90E915ED2CF8AC45050C11660C8261F98AB1B07AC9C97D42D718D865D3E909258CFD00CCE24AC6E326A164D74DC0B4128928FF32603847
310
2BA13128B1252AC747C6BAB984FC68F0B87FE8960A5C09FE86CFB69FBA01504B0304140006080800CC70623B8C9102E971010000D40300000C0000006662782F636F72652E786D6CC5535B6E833010BC8AE5DF0A6C08340F1947A84D4ED00B38C6A128602363A31CBFCB234A53A551FA553EC09AD9F5CE8C31DB9E9B1AF5CA
310
7695D1198E428A91D2D214952E33ECDD315861B4E5CC1AE3BE9561A445A3323CC098B3D21ADFCE9034DA29ED00D5A6503328BA4E398C640D8B0C77F253352214DE4145770A5B214FA2546114020D759C75CE8200340D19DE981F0F6746269C33EFAB6266AB02A655C74A59CCF365BADC27CB5D902ED22848F6340DF238A141
310
BE88E2F57B92BFEDF23523433367AE6A2EEAA455C2A902F398D2751045018D3FA264435F3771F242571B4A1919CA6F9A7C5B3CD9E42BED16F12C776AEB308F40C848FC700B1139D4891EF410CEC810227CC6846F8386402064270EF5C5C709A05E49676C024C61FC95EA45ED154CA5211D1FF4FB8291A913A68E9B83EBBB33
310
E2A7673CDE118E5AE8124C0807CB8377834E366998436B950D7A7746DAD846D4CFD978E0F04FD455FC5D49D2D4C6FE9722321F10997F0F32DC47FE05504B0304140006080800CC70623BFFEA85907E0000009D0000000B0000006662782F636E782E786D6C4DCCD10A83201886E15B91FFDC95D95A811AB6F23E625948A6C3
310
E9D8E5AF46073BFAE0E1E365ED67B3E8ADC3CB78C7815C7240DA3DFC64DCC221C519D7805AC182F7F1EF06C88D9BE6703008B6049F9E274D7A1E938DBB5AE3D6131B2589BA0D3D965551E0B2EA732C9B9A624AAEB41E3A557677029960D9AFB4EF11165F504B0304140006080800CC70623B4FEEA4082C0100001202000031
310
0000006662782F39464131463745442D413632322D343644302D413938332D3331353338454246344243312F636F72652E786D6C8D515B6EC32010BC0AE2AB55850DD871ED0813254D72825EC00192A2C460F1A872FC42ED48ED5F7E00CDCECCCEB26C731F6FE05B39AFADE921293004CA082BB5B9F43086336A21D870E6AC
310
0D7F68109861543DCC30E4ECE26C9C164858139409093556AA051CBC570102714B8F1E7AF1A5C6A11862480C7F2DA6415C878B2A4891CA89C7990F2E050073937C42DE1DB7E4F87ED8A36D4329AA9B3D46DBAEAD504556557BD81DEBDD0761E52CE42C462D17B996298E3E6BE59E35C962CE821E1FF18553435012728A7187
310
0841987E927A8D9B35ADDF70BBC6989599FE4F1427F9A4286A132ABAC49D651EF234CD5CE04CDA78BA3DC2A8FB645D00B9DF8B57E215725C60BCA2A463E54C4CE327C7A65E1C7DB02E7DEFCBF594B864C5CA6CDBD49C957943E9FA5D5FBAF336F90F504B0304140006080800CC70623BAD7543B64E01000033030000300000
310
006662782F39464131463745442D413632322D343644302D413938332D3331353338454246344243312F636E782E786D6CD593CD6EC32010845F0571AD6CE3D48AD20813A9873E410FBD12D82434182C7EAAE6EDBB2424CD25871E7B41D6EC30B3FA84F9E67BB2E40B4234DE8DB46F1925E094D7C6ED479AD3AE5951B2113C
310
789FEE6C943839C1488B4C05DF079FE72A69D8C96C13AAD6B8631503449F83828872B949AC57D26200B826A308D316B4064D6E46FCDA41C05550DC9E483A00797BFD207EFB092A45DE9514C1BBD22178396BD39D891265658C238DEA00936C654E5E433CB65A26D9F6EDB5EBC14EBF49A45CB856E66048291F6939A9A81BB5
310
C8917738143CA680F4AA299D66A042CEB3354A2684DC9D8D178FE0D9B8B41CAAD720F880EE7EF93C0C18769E099ECC04D5A102C8049A8A05632F4DDF376CF1DE0F6BB65C2F8627B65A33C6BB62177CEBBDAD973006829F89F22E814B54F4BC2BE347F8AA8F681390B50FA73F804400B5F542E796F19FF974E7F78DB802FE05
310
E207504B0304140006080800CC70623B16AB87BA640500003C100000340000006662782F39464131463745442D413632322D343644302D413938332D3331353338454246344243312F6F626A656374732E786D6CAD575B6FA33818FD2B887DE6924B3BED8A326A92B68A663B534DD4D13E548A0C38942D60649B369D5FBFC7
310
600890A493BDE42160637FD7F31D7FF63E6FB3D478A55C242CBF3247B66B1A340F5994E4F19559CA8D75611A9F7D8F33263BCB4C232719BD32D5B4E97B316765A1A722BA21652A07B3B7B33F0D11D29C9A46981221AE4C113ED38CD8A4942CA2E2C58E882476BCD9DA23BB5ED8171B73523C0F841684D35CC252CCE79062D4
310
468DFA43D7747CCF51DF7D4FFDEB5593E3AB9CCA9FBEFE241792E4E19EB28198C968BAB8199F5D5A67D3E9C49A9E8F47D6EC76B6B0469F26EEFC7C3EBFBCBEB98462213924694B38DD98FE1D62C393D073EA4FADC5DAF04326852CCF6958F90F0F2B9BB5C48816348F90C7840A68EB78EDF68723159BCEE7891A6B95DDE9D3
310
BCEAEEE8086A6C6F9E5D4B59F0175C10A7A0820BAA5055C7473B5AE3CFDD452D602CD5DF12616444529E90D448938013FE6EFA58AA96F85E4F8C42275708571E98FE6827AF6B2B4AE3D7D83D64E5A64C53054DD3AF90BD06FEA9149565C94FCA0F6B834DC85599E4F2423B24DF0B6AFA979E534DFA9E7A4CC6FA631D486393
310
921829879BF5D781A373557BCB85E97FB90DB62B558F8795179C15944B051F40AB495CF35451D26A4727654E6D8033BD98EF82F21D91FF8AF2DD9982BCF1643BDD4EB516C9492E368C67C88DED563FC36D5EACF66DFF057C3658BDBFA69DF9578B3DA735B64F18C7F20770A9D45CFCF7FCF563D6456A277DBEF78A02637CA2
310
43B90A490AEAB94F72244481D24819A6C0E59B606BFA4B3025981DBB48EAB701D97BF19C577CC77F2D1B6C55A9EF3C732474C0B727303F625995056C3B02963D9EAC146BE78EC5FCEC7FA999EBC5EACBAAE41B12D27B4D2C0BBA49F244E2ECDC81B76B502F113D8F5EE8FB1BE3111CDD4FC2AA9B844CAB1288B68AB90A7CDC
310
1C166AB0D3DC5310625FCC14E779BFD0709F8890A629C9292B1B2DED31A4B0DA928CEE135085754027E3018A397D4D5427D15BD1330B677DC8934285AC3DF45A9EB68FF8F2B8FC0A509AFEECFD0FF2DE25CC6047F7214B195F07EFEB9A094D800F7BFAE8FED187B78EA8A3A400F115961BCAD1215E47C966530AF0EE8128FE
310
58CEBB996A8964FFA529A046635D9353B0336A8F700DDF46271A024E70B0B37C9DE01847591E54DED53D54202AB947E4076556AC49C6CA5C9E1226B7F1A7B1BE15DEED62C41B91E1B3E9AFAAA735036547343A925075041DF0A9979E893B391F8FCFA6967B3EFB644DCF6E5CEBFAE272625DCC6FAF3FB93793C5F90CE1EF57
310
407342756B10D1C489E8953CD1617E5CEECAD6F4EF8914CE5D5D504E5C3F1F9736DA62CFC11E00BCDDB8CC8A9466349744C1F75EBDA4DF09BA8A9E8C7A7E9991989E20E5DBDD6A6003664ED8F7A04A8DBE0DF6EAD9B9AA858342E47399053949D2C146EDB85DE4B176BB0965FBAC19BD19AA918E27FA50C1D22402E144464C
310
59462568E704B6E71915404CB72B8FF4EDE184DDAF753F284990D2C6926782963815403548A70C657FDEF80D2D9CEAA2AE4C1C76F60BFE74219A06527D6582DF6412526107381E55E353090704D085B52408D0933C4ED159D79BDA71BB4BC506F4831350EB6F979CD22D69BF7AC49B91A2C0A9DDA3D5CA36AD20FC478E37E6
310
1844E2352865EBCB6EA275A652E3836BE04EFB400BF1A2556F515F1FBB35B2AB35BD889C744FFA1004B5544B121E57F70215746DD2F5E2C1412B602CBF19455AC6C8E5E9922C4E01E65215385004546899059180EAFCF7A707CE7017CD8CDB0410789AB32C63B91E5CEBBBACB17AC6CD347A022D5075FD106377347AAABA7E
310
7D11590744509B44E205134DC1290F06580320F78E537D3D73540E06CB970B431F185308AD40BBD794D6D77003C5A36E8EAA54BA64597CD8F83BD552A080A365F7FF06504B0304140006080000CC70623B000000000000000000000000350000006662782F39464131463745442D413632322D343644302D413938332D3331
310
353338454246344243312F76657274696365732E62696E504B0304140006080800CC70623BF270F1330600000004000000360000006662782F39464131463745442D413632322D343644302D413938332D3331353338454246344243312F747269616E676C65732E62696E636660600000504B0304140006080000CC70623B
310
000000000000000000000000370000006662782F39464131463745442D413632322D343644302D413938332D3331353338454246344243312F617474726962757465732E62696E504B0304140006080800CC70623B08DA0BD19000000041010000360000006662782F39464131463745442D413632322D343644302D413938
310
332D3331353338454246344243312F6469726563746F72792E786D6C858F410AC3201045AF22B36F53E9A60B35CBEEBAE80D244E44489C6234F4F835464A48035D0DF398FF9F8AF63D0E6CC63039F212F8F9020C7D47C6792B21C5FE7403D62A1188E2E60C98D7234A5830286103A55745067B9D86B8A3CF9C7F90C11DE607
310
FB144396D7B6A82D282E9A152AD114D5EF2CB866EEE831B8EEA07A7BB5A8D7D61A2BAAEB7FD5F70921FF497D00504B0304140006080800CC70623B0D6EF93BFE000000A00100003B0000006662782F39464131463745442D413632322D343644302D413938332D3331353338454246344243312F7265736F75726365732F63
310
6F72652E786D6C8D50596E833010BD0A9ADFCA60B334011947A8694ED00B586642AC041B79A97AFC9A40A5F6AF3F33A3B7689E1E3F7DCD8FEC139DD7D6F4C0720A191A65476DA61E62B892236427C19DB5E1970C322367EC618541F0C9D9B8EC90B226A009093576C41D94DE63804C3DD2D18357379C652E63480A7FCF17A9
310
EE72C29CE5894E3AC17D702940B63D59270887DE46A7D0F36263058F518FBB468FE9A7BE6A7420864373B8D4873369AA8691FA421B3294352543C5CAF65C0F6FEF43CB8BD52C78D0F34F46E550061C419494B6843142CB0F5677F4B52BEB177AEC28E5C52AFF638ACBF84F53D42654E51E77B379102C05791282176B5F693D
310
CB4C7BED567C03504B010214000A0000080000CC70623B3DEE336E79000000790000001B00000000000000000000000000000000006175746F6465736B2D64657369676E2D7061636B6167652E786D6C504B01021400140006080800CC70623BD486FD9CA0000000F40000001300000000000000000000000000B20000005B
310
436F6E74656E745F54797065735D2E786D6C504B01021400140006080800CC70623B1EC5D7A3EB0000007C010000080000000000000000000000000083010000636F72652E786D6C504B01021400140006080800CC70623B55019EA25F0000007C000000070000000000000000000000000094020000636E782E786D6C504B
310
01021400140006080800CC70623B8C9102E971010000D40300000C00000000000000000000000000180300006662782F636F72652E786D6C504B01021400140006080800CC70623BFFEA85907E0000009D0000000B00000000000000000000000000B30400006662782F636E782E786D6C504B01021400140006080800CC70
310
623B4FEEA4082C0100001202000031000000000000000000000000005A0500006662782F39464131463745442D413632322D343644302D413938332D3331353338454246344243312F636F72652E786D6C504B01021400140006080800CC70623BAD7543B64E010000330300003000000000000000000000000000D5060000
310
6662782F39464131463745442D413632322D343644302D413938332D3331353338454246344243312F636E782E786D6C504B01021400140006080800CC70623B16AB87BA640500003C1000003400000000000000000000000000710800006662782F39464131463745442D413632322D343644302D413938332D3331353338
310
454246344243312F6F626A656374732E786D6C504B01021400140006080000CC70623B0000000000000000000000003500000000000000000000000000270E00006662782F39464131463745442D413632322D343644302D413938332D3331353338454246344243312F76657274696365732E62696E504B01021400140006
310
080800CC70623BF270F133060000000400000036000000000000000000000000007A0E00006662782F39464131463745442D413632322D343644302D413938332D3331353338454246344243312F747269616E676C65732E62696E504B01021400140006080000CC70623B0000000000000000000000003700000000000000
310
000000000000D40E00006662782F39464131463745442D413632322D343644302D413938332D3331353338454246344243312F617474726962757465732E62696E504B01021400140006080800CC70623B08DA0BD190000000410100003600000000000000000000000000290F00006662782F39464131463745442D413632
310
322D343644302D413938332D3331353338454246344243312F6469726563746F72792E786D6C504B01021400140006080800CC70623B0D6EF93BFE000000A00100003B000000000000000000000000000D1000006662782F39464131463745442D413632322D343644302D413938332D3331353338454246344243312F7265
310
736F75726365732F636F72652E786D6C504B0506000000000E000E0080040000641100000000
  0
XRECORD
  5
175
102
{ACAD_REACTORS
330
173
102
}
330
173
100
AcDbXrecord
280
     1
270
     1
271
     1
  0
XRECORD
  5
174
102
{ACAD_REACTORS
330
173
102
}
330
173
100
AcDbXrecord
280
     1
270
     1
271
     1
  0
XRECORD
  5
1FB
102
{ACAD_REACTORS
330
173
102
}
330
173
100
AcDbXrecord
280
     1
 70
     0
 90
1673772943
  1
ECE7A1D2-D628-4531-984C-D00F80459256
310
504B03040A0000080000CC70623B3DEE336E79000000790000001B0000006175746F6465736B2D64657369676E2D7061636B6167652E786D6C3C3F786D6C2076657273696F6E3D22312E302220656E636F64696E673D227574662D3822203F3E3C666F726D6174733E3C666F726D61743E687474703A2F2F736368656D612E
310
6175746F6465736B2E636F6D2F64657369676E2D7061636B6167652F323030393C2F666F726D61743E3C2F666F726D6174733E504B0304140006080800CC70623BD486FD9CA0000000F4000000130000005B436F6E74656E745F54797065735D2E786D6C7D8EC10E82300C865F65E91D8A1E8C310C0EEA1BF002731658846E
310
D98AC1B77784ABF1D8FE5FBFBF75BBCE937A534CCEB38643598122B6FEE978D0B0485F9C41B54DDD7D022595594E1A469170414C76A4D9A4D207E29CF43ECE46F218070CC6BECC4078ACAA135ACF422C856C0E68EA1BF5669944DDD7BCDE7B1F8E415D77AECB980613C2E4AC91FC167A2B244592486606FC29C8FD7F045B9A
310
EF7053A7E60B504B0304140006080800CC70623BD9DDAED0EC0000007C01000008000000636F72652E786D6C8D90416EC3201045AF82665B61836D9CD8C2444DD39CA01740405C94182C03558F5F9C3852BBEB6A467FFE9B197D7EF89E6EE8CB2CC17A37002D0820E394D7D68D03A478C17B4007C117EFE32F1B20272733C0
310
2A83E0E3E2D3BC49CABB685CCCAAF3DA6CA20CC14440EA969B0182FA34932C648AD911AEC52CD5558EA6A0CF2EC329598D1E47ACCEFBECC59A050463A7EA5833865FEBDD0E37353BE3EE8DBDE3F6786A48D375FBF6CC78B9C282473B3DEFABC5C86834888A900E538A49F5419B9EB47DD5BC907D4F082F57FB1F28CDFA9F50
310
B22ED6D5F6EE030B20687EE43E10BC5CB3C8E51E54AE6B6EE207504B0304140006080800CC70623B55019EA25F0000007C00000007000000636E782E786D6C4DCB3B0E80201045D1AD90E915ED2CF8AC45050C11660C8261F98AB1B07AC9C97D42D718D865D3E909258CFD00CCE24AC6E326A164D74DC0B4128928FF326038
310
472BA13128B1252AC747C6BAB984FC68F0B87FE8960A5C09FE86CFB69FBA01504B0304140006080800CC70623BA24EB22D72010000D40300000C0000006662782F636F72652E786D6CC5535B6E833010BC8AE5DF0A6C5E49888CA3A6694ED00B38E05014B091B1518EDFE511A5A9D228FD2A1F60CDEC7A67C6986DCE4D8D7A
310
69BA4AAB0C073EC548AA5C17952A33ECECD15B61B4E1CC686DBF9561A44423333CC098B3D268D7CE50AE9595CA02AA74216750749DB418E5352C32DCE59FB211BE70162ABA93DF8AFC244AE9073ED050C759670D0840D390E18DF9F1706664C23973AE2A66B62A605A75ACA4C13C4976E1364A12EF355A2EBD384AF65EFA96
310
BC7B8BED2EA6719AAE16FB8491A199335B351775B991C2CA02F390D2D40B028F861F41BCA68B7518BFD0D59A524686F29B26D7164F36B94AD9289CE54E6D1DE6010819891F6E21228B3AD1831EC219194284CF98F06DD01008846CC5A1BEF83801D4CBDC6A1303536877A57A513B0953A94FC707FDBE6064EA84A9E3E6E0FA
310
EE8CF0E9198F7784A316AA0413C2C2F2E0ECA0934D1AE6D05A69BCDE9E91D2A611F573361E38FC1375157F5752AE6B6DFE4B11990F88CCBF0719EE23FF02504B0304140006080800CC70623B408A7D3B7C0000009D0000000B0000006662782F636E782E786D6C4DCCD10A83201886E15B91FFDC552A92A0064DBC8F581632
310
D3703A76F9ABD1C18E3E78F878E5F0D9027ABBFCF2292AE86E2D20171F69F6715550CB827B40839639A5F2770314A7CD293819B45C73AAFB45B35BA61ACAA1C1C7E7855C58C15BC331339661262CC762340413D68D77DA5B42298546CBE6573AF60CEB2F504B0304140006080800CC70623B449FB9BD290100001202000031
310
0000006662782F36394639363044362D344446342D343946362D394244322D3234314243333846323333332F636F72652E786D6C8D515B6EC32010BC0AE22B55850D98B871848994463E412FE002495162B07854397EA176A4F62F3F2C9A9D991D587EB84F37F0AD7D30CEF6905418026DA553C65E7A98E219ED203808EE9D
310
8B7F6810D871D23D2C3014FCE25D9A57483A1BB58D19B54EE9151C43D0110279CB971E06F9A5A7B11A53CC8C70ADE6515EC78BAE4895DB992778883E0700CB907242D17643D7E2538BD869608875438BBAE38922CAC8F1BDD90DB4691A5E2F42C153326A951B95E398B3D1FE599322163C9AE9115F7A3D46ADA0A018778810
310
84E907617BDCEE297BC5BB3DC6BC2EF47FA234AB2745C9D8D8D035EE220B50105E2F0DC1954B9FB747187D9F9D8FA0CCDB042D5FA0C015C65B42DF78BD10F3F3B363CB56C7109DCFDFBBB97E662ED92EB62D13BC2E1BCAE5777DB9966D8A1F504B0304140006080800CC70623BAD7543B64E01000033030000300000006662
310
782F36394639363044362D344446342D343946362D394244322D3234314243333846323333332F636E782E786D6CD593CD6EC32010845F0571AD6CE3D48AD20813A9873E410FBD12D82434182C7EAAE6EDBB2424CD25871E7B41D6EC30B3FA84F9E67BB2E40B4234DE8DB46F1925E094D7C6ED479AD3AE5951B2113C789FEE
310
6C943839C1488B4C05DF079FE72A69D8C96C13AAD6B8631503449F83828872B949AC57D26200B826A308D316B4064D6E46FCDA41C05550DC9E483A00797BFD207EFB092A45DE9514C1BBD22178396BD39D891265658C238DEA00936C654E5E433CB65A26D9F6EDB5EBC14EBF49A45CB856E66048291F6939A9A81BB5C89177
310
38143CA680F4AA299D66A042CEB3354A2684DC9D8D178FE0D9B8B41CAAD720F880EE7EF93C0C18769E099ECC04D5A102C8049A8A05632F4DDF376CF1DE0F6BB65C2F8627B65A33C6BB62177CEBBDAD973006829F89F22E814B54F4BC2BE347F8AA8F681390B50FA73F804400B5F542E796F19FF974E7F78DB802FE05E20750
310
4B0304140006080800CC70623B8D05915C650500003B100000340000006662782F36394639363044362D344446342D343946362D394244322D3234314243333846323333332F6F626A656374732E786D6CAD575B6FA33814FE2B887D06429276DA1565D4266D158D3A339A6846FB502932E050B66023DB74D2FDF5FB190C01
310
9276B2973C046C8ECFF53B17071F77456EBD502133CEAE6CDF9DD81665314F32965ED995DA3A17B6F5310C04E7AA47665B8C14F4CAD6DB7618A48257A5D94AE89654B91AEDDEDDFC61C998326A5B714EA4BCB265FC440BE2924AF184CA6737218AB8E976E7FA6E4338649B0A523E8D98964450A6A029F619B8588D52FE7039
310
B1BD30F0F4F730D0FF866AF6369557DB33949F31A9088B0F848DD8CCFCF9F2767A76E99CCDE733677E3EF59D9BBB9BA5E37F984D16E78BC5E5F5ED25044B25C0C96822E8D60EEFE11B91C581D77CEA34368A1F5329E68CD1B8B61F16D63A1B8E092D294B10C78C4A48EB593D192E7DED9BDEE7995E1B91FDEDD3ACEA9FE831
310
6A756F9F7D4D79F4274C90A7A04248AA51D5F8C718DAE06FB2F75AC4796EBE65D22A88A22223B995679120E2D50E41AA49C260C046A35368846B0BECD0DFF3EBEB8AD4F835768F69B9ADF25C43D30E6B646F807FAA64AD59F61715C7A54127C4AACA98BA3006A9D792DAE165E0D59B61A01FB3A9F9D838D2DAE62445C86166
310
F37564E842E7DE6A69879FEEA2DD5AE7E371E1A5E025154AC307D06A03D73EB5978C58FFA4C8E9033066E0F3BD53BEC1F39F91BE7B55103791EDE6BBB991A2046172CB4581D8B893FA674DDA17A77B3B7C413D1B511FD2743BFF8A38F03A658705E3ADF8015C3A3417FF3D7E439FF591DA0B5F18BC20C1B8981957AE6392A3
310
F43C640C01D1A0B4728E2DD4F26DB4B3C3152A252A3B4E913CEC1C72F012782FF88EFF8637AA552DBEF76408E8A8DE9E50F9E1CB3A2DA0DB1B6039A893B56063DC5B3E3FFB5F72E67AB9FEB4AEC496C4F4C1149625DD662C53E89D7BF0F6151A046260D1337DFDC94502430F83B0EE07A130A224BCAD7DAE1D9FB6CD422FF6
310
920702629C4BB9AE79C12F243C6432A6794E18E5552BA56B431AAB5D91317302B2B071E86C3A42B1A02F999E24061403B5D0EB639195DA655DD3EBEAB4FB862DDF579F014AD0E73C22F99E28DA57FB98E75C6CA2D74D53086D600F4786E0FE3144B771A8A7B900F03594DB8A633CBC49B2EDB69228BB479CF863B5E807AAAB
310
23872F6DFEB4129B949CA33823F58830E86D65621E10047D9DB34D862E8EAC3C2ABC2F7B2C40D67CDFE01F5545B92105AF983AC54D93D69E56FB8E797F88913F898A9FEC705D3F9D1B54EC8426FB500D40A03BD0119B06E1B95DDC7EB8F6975367793EBD70E66733DFB9BC982F9CE564727731999F5D4ECFCE3B8D6A4DC2A0
310
6D50FD148437D110834A64C6CDDF57FBACB5C307A2A477DFE4939736CFEF2B175371E0E10CF0DD1D5C15654E0BCA14D1E87DD02FF93782A162C0A3D95F1524A52770F972BF1EE9809D13CE7DD599467F8ECE9ADD85CE85A34CD45355448C64F9E8A031DC2D596ACC6E5DD93D9B82DE2EF5CAF81363A8E47996A0DE24564A79
310
4115AACE09C55E14540231FDA13C319787134EBF34E3A022514E5B4D9E0826E25C02D5805B15ABE1BEF51B26383D445DD9E875EE33FE4C22DA16427D65A3BCA92CA6D28DD01DF5DC53330704308475351050232CCD31583787BA75774AFB06E5070DD0C8EF484E19968C5D83BA5B90B244D31E54D55A372320FE4786B7EA58
310
44E135AA5467CB7EA333A61683CC6A8C3257034C10CF46F40EF9F5BE59BE5BD30C3C72D235E95D10345C1D45445A5F0BB47E46A5EBE5570F9380B5FA629579952296A773720405982B9DE04011506178964401AA8BDF1FBF0A8EAB6861DD6580C0E38217056766716DAEB2D6FA0917D3E4116581EADB879C4E7CFFB11EFACD
310
3D641311495D92C8676CB409A72D18610D803CE8A626049E8EC1887CB5B44CC39883690DDA8399B4B9855B481E7D71D4A9D22F96E5BB73BF5793020C02137BF837504B0304140006080000CC70623B000000000000000000000000350000006662782F36394639363044362D344446342D343946362D394244322D32343142
310
43333846323333332F76657274696365732E62696E504B0304140006080800CC70623BF270F1330600000004000000360000006662782F36394639363044362D344446342D343946362D394244322D3234314243333846323333332F747269616E676C65732E62696E636660600000504B0304140006080000CC70623B0000
310
00000000000000000000370000006662782F36394639363044362D344446342D343946362D394244322D3234314243333846323333332F617474726962757465732E62696E504B0304140006080800CC70623B08DA0BD19000000041010000360000006662782F36394639363044362D344446342D343946362D394244322D
310
3234314243333846323333332F6469726563746F72792E786D6C858F410AC3201045AF22B36F53E9A60B35CBEEBAE80D244E44489C6234F4F835464A48035D0DF398FF9F8AF63D0E6CC63039F212F8F9020C7D47C6792B21C5FE7403D62A1188E2E60C98D7234A5830286103A55745067B9D86B8A3CF9C7F90C11DE607FB14
310
4396D7B6A82D282E9A152AD114D5EF2CB866EEE831B8EEA07A7BB5A8D7D61A2BAAEB7FD5F70921FF497D00504B0304140006080800CC70623BCA768048FE000000A00100003B0000006662782F36394639363044362D344446342D343946362D394244322D3234314243333846323333332F7265736F75726365732F636F72
310
652E786D6C8D50596E833010BD0A9ADFCA60D600328E9AA639412F609909B1126CE4A5EAF16B0295DABFFECC8CDEA2797AECF8353F924FB44E193D409E5248504B332A3D0D10FC95B4901C39B3C6F85F3248B49871801506CE266BC2B243D2688FDA47549B11775038871E12F988C7004EDE7016A9083E2ADC3D5D84BC8B09
310
D33C8D74D471E6BC8D0192EDC93A815B742658898E651BCB59086ADC356A8C3FD555A1055ED7E7E254D615792D0F075295F585746FF53B694EE78A565DD736979A65AB9933AFE69F8CD2A2F038022F28ED489E135A7CE4554F9BBEA85E68DB53CAB255FEC71496F19FA6A0B42F8B3DEE6673C0F318E4497096AD7DC5F52C33
310
EEB55BFE0D504B010214000A0000080000CC70623B3DEE336E79000000790000001B00000000000000000000000000000000006175746F6465736B2D64657369676E2D7061636B6167652E786D6C504B01021400140006080800CC70623BD486FD9CA0000000F40000001300000000000000000000000000B20000005B436F
310
6E74656E745F54797065735D2E786D6C504B01021400140006080800CC70623BD9DDAED0EC0000007C010000080000000000000000000000000083010000636F72652E786D6C504B01021400140006080800CC70623B55019EA25F0000007C000000070000000000000000000000000095020000636E782E786D6C504B0102
310
1400140006080800CC70623BA24EB22D72010000D40300000C00000000000000000000000000190300006662782F636F72652E786D6C504B01021400140006080800CC70623B408A7D3B7C0000009D0000000B00000000000000000000000000B50400006662782F636E782E786D6C504B01021400140006080800CC70623B
310
449FB9BD290100001202000031000000000000000000000000005A0500006662782F36394639363044362D344446342D343946362D394244322D3234314243333846323333332F636F72652E786D6C504B01021400140006080800CC70623BAD7543B64E010000330300003000000000000000000000000000D20600006662
310
782F36394639363044362D344446342D343946362D394244322D3234314243333846323333332F636E782E786D6C504B01021400140006080800CC70623B8D05915C650500003B10000034000000000000000000000000006E0800006662782F36394639363044362D344446342D343946362D394244322D32343142433338
310
46323333332F6F626A656374732E786D6C504B01021400140006080000CC70623B0000000000000000000000003500000000000000000000000000250E00006662782F36394639363044362D344446342D343946362D394244322D3234314243333846323333332F76657274696365732E62696E504B010214001400060808
310
00CC70623BF270F13306000000040000003600000000000000000000000000780E00006662782F36394639363044362D344446342D343946362D394244322D3234314243333846323333332F747269616E676C65732E62696E504B01021400140006080000CC70623B00000000000000000000000037000000000000000000
310
00000000D20E00006662782F36394639363044362D344446342D343946362D394244322D3234314243333846323333332F617474726962757465732E62696E504B01021400140006080800CC70623B08DA0BD190000000410100003600000000000000000000000000270F00006662782F36394639363044362D344446342D
310
343946362D394244322D3234314243333846323333332F6469726563746F72792E786D6C504B01021400140006080800CC70623BCA768048FE000000A00100003B000000000000000000000000000B1000006662782F36394639363044362D344446342D343946362D394244322D3234314243333846323333332F7265736F
310
75726365732F636F72652E786D6C504B0506000000000E000E0080040000621100000000
  0
XRECORD
  5
176
102
{ACAD_REACTORS
330
173
102
}
330
173
100
AcDbXrecord
280
     1
270
     1
271
     1
  0
XRECORD
  5
177
102
{ACAD_REACTORS
330
173
102
}
330
173
100
AcDbXrecord
280
     1
270
     1
271
     1
  0
CELLSTYLEMAP
  5
5CD
102
{ACAD_REACTORS
330
162
102
}
330
162
100
AcDbCellStyleMap
 90
        3
300
CELLSTYLE
  1
TABLEFORMAT_BEGIN
 90
        5
170
     1
 91
        0
 92
    32768
 62
   257
 93
        1
300
CONTENTFORMAT
  1
CONTENTFORMAT_BEGIN
 90
        0
 91
        0
 92
      512
 93
        0
300

 40
0.0
140
1.0
 94
        5
 62
     0
340
11
144
6.0
309
CONTENTFORMAT_END
171
     1
301
MARGIN
  1
CELLMARGIN_BEGIN
 40
1.5
 40
1.5
 40
1.5
 40
1.5
 40
4.5
 40
4.5
309
CELLMARGIN_END
 94
        6
 95
        1
302
GRIDFORMAT
  1
GRIDFORMAT_BEGIN
 90
        0
 91
        1
 62
     0
 92
       -2
340
14
 93
        0
 40
1.125
309
GRIDFORMAT_END
 95
        2
302
GRIDFORMAT
  1
GRIDFORMAT_BEGIN
 90
        0
 91
        1
 62
     0
 92
       -2
340
14
 93
        0
 40
1.125
309
GRIDFORMAT_END
 95
        4
302
GRIDFORMAT
  1
GRIDFORMAT_BEGIN
 90
        0
 91
        1
 62
     0
 92
       -2
340
14
 93
        0
 40
1.125
309
GRIDFORMAT_END
 95
        8
302
GRIDFORMAT
  1
GRIDFORMAT_BEGIN
 90
        0
 91
        1
 62
     0
 92
       -2
340
14
 93
        0
 40
1.125
309
GRIDFORMAT_END
 95
       16
302
GRIDFORMAT
  1
GRIDFORMAT_BEGIN
 90
        0
 91
        1
 62
     0
 92
       -2
340
14
 93
        0
 40
1.125
309
GRIDFORMAT_END
 95
       32
302
GRIDFORMAT
  1
GRIDFORMAT_BEGIN
 90
        0
 91
        1
 62
     0
 92
       -2
340
14
 93
        0
 40
1.125
309
GRIDFORMAT_END
309
TABLEFORMAT_END
  1
CELLSTYLE_BEGIN
 90
        1
 91
        1
300
_TITLE
309
CELLSTYLE_END
300
CELLSTYLE
  1
TABLEFORMAT_BEGIN
 90
        5
170
     1
 91
        0
 92
        0
 62
   257
 93
        1
300
CONTENTFORMAT
  1
CONTENTFORMAT_BEGIN
 90
        0
 91
        0
 92
      512
 93
        0
300

 40
0.0
140
1.0
 94
        5
 62
     0
340
11
144
4.5
309
CONTENTFORMAT_END
171
     1
301
MARGIN
  1
CELLMARGIN_BEGIN
 40
1.5
 40
1.5
 40
1.5
 40
1.5
 40
4.5
 40
4.5
309
CELLMARGIN_END
 94
        6
 95
        1
302
GRIDFORMAT
  1
GRIDFORMAT_BEGIN
 90
        0
 91
        1
 62
     0
 92
       -2
340
14
 93
        0
 40
1.125
309
GRIDFORMAT_END
 95
        2
302
GRIDFORMAT
  1
GRIDFORMAT_BEGIN
 90
        0
 91
        1
 62
     0
 92
       -2
340
14
 93
        0
 40
1.125
309
GRIDFORMAT_END
 95
        4
302
GRIDFORMAT
  1
GRIDFORMAT_BEGIN
 90
        0
 91
        1
 62
     0
 92
       -2
340
14
 93
        0
 40
1.125
309
GRIDFORMAT_END
 95
        8
302
GRIDFORMAT
  1
GRIDFORMAT_BEGIN
 90
        0
 91
        1
 62
     0
 92
       -2
340
14
 93
        0
 40
1.125
309
GRIDFORMAT_END
 95
       16
302
GRIDFORMAT
  1
GRIDFORMAT_BEGIN
 90
        0
 91
        1
 62
     0
 92
       -2
340
14
 93
        0
 40
1.125
309
GRIDFORMAT_END
 95
       32
302
GRIDFORMAT
  1
GRIDFORMAT_BEGIN
 90
        0
 91
        1
 62
     0
 92
       -2
340
14
 93
        0
 40
1.125
309
GRIDFORMAT_END
309
TABLEFORMAT_END
  1
CELLSTYLE_BEGIN
 90
        2
 91
        1
300
_HEADER
309
CELLSTYLE_END
300
CELLSTYLE
  1
TABLEFORMAT_BEGIN
 90
        5
170
     1
 91
        0
 92
        0
 62
   257
 93
        1
300
CONTENTFORMAT
  1
CONTENTFORMAT_BEGIN
 90
        0
 91
        0
 92
      512
 93
        0
300

 40
0.0
140
1.0
 94
        2
 62
     0
340
11
144
4.5
309
CONTENTFORMAT_END
171
     1
301
MARGIN
  1
CELLMARGIN_BEGIN
 40
1.5
 40
1.5
 40
1.5
 40
1.5
 40
4.5
 40
4.5
309
CELLMARGIN_END
 94
        6
 95
        1
302
GRIDFORMAT
  1
GRIDFORMAT_BEGIN
 90
        0
 91
        1
 62
     0
 92
       -2
340
14
 93
        0
 40
1.125
309
GRIDFORMAT_END
 95
        2
302
GRIDFORMAT
  1
GRIDFORMAT_BEGIN
 90
        0
 91
        1
 62
     0
 92
       -2
340
14
 93
        0
 40
1.125
309
GRIDFORMAT_END
 95
        4
302
GRIDFORMAT
  1
GRIDFORMAT_BEGIN
 90
        0
 91
        1
 62
     0
 92
       -2
340
14
 93
        0
 40
1.125
309
GRIDFORMAT_END
 95
        8
302
GRIDFORMAT
  1
GRIDFORMAT_BEGIN
 90
        0
 91
        1
 62
     0
 92
       -2
340
14
 93
        0
 40
1.125
309
GRIDFORMAT_END
 95
       16
302
GRIDFORMAT
  1
GRIDFORMAT_BEGIN
 90
        0
 91
        1
 62
     0
 92
       -2
340
14
 93
        0
 40
1.125
309
GRIDFORMAT_END
 95
       32
302
GRIDFORMAT
  1
GRIDFORMAT_BEGIN
 90
        0
 91
        1
 62
     0
 92
       -2
340
14
 93
        0
 40
1.125
309
GRIDFORMAT_END
309
TABLEFORMAT_END
  1
CELLSTYLE_BEGIN
 90
        3
 91
        2
300
_DATA
309
CELLSTYLE_END
  0
ENDSEC
  0
SECTION
  2
ACDSDATA
 70
     2
 71
     8
  0
ACDSSCHEMA
 90
        0
  1
AcDb_Thumbnail_Schema
  2
AcDbDs::ID
280
    10
 91
        8
  2
Thumbnail_Data
280
    15
 91
        0
101
ACDSRECORD
 95
        0
 90
        1
  2
AcDbDs::TreatedAsObjectData
280
     1
291
     1
101
ACDSRECORD
 95
        0
 90
        2
  2
AcDbDs::Legacy
280
     1
291
     1
101
ACDSRECORD
  1
AcDbDs::ID
 90
        3
  2
AcDs:Indexable
280
     1
291
     1
101
ACDSRECORD
  1
AcDbDs::ID
 90
        4
  2
AcDbDs::HandleAttribute
280
     7
282
     1
  0
ACDSSCHEMA
 90
        1
  1
AcDbDs::TreatedAsObjectDataSchema
  2
AcDbDs::TreatedAsObjectData
280
     1
 91
        0
  0
ACDSSCHEMA
 90
        2
  1
AcDbDs::LegacySchema
  2
AcDbDs::Legacy
280
     1
 91
        0
  0
ACDSSCHEMA
 90
        3
  1
AcDbDs::IndexedPropertySchema
  2
AcDs:Indexable
280
     1
 91
        0
  0
ACDSSCHEMA
 90
        4
  1
AcDbDs::HandleAttributeSchema
  2
AcDbDs::HandleAttribute
280
     7
 91
        1
284
     1
  0
ACDSRECORD
 90
        0
  2
AcDbDs::ID
280
    10
320
22
  2
Thumbnail_Data
280
    15
 94
     1364
310
89504E470D0A1A0A0000000D49484452000000CC000001000803000000C8A169BB00000300504C5445212830FFFFFF2128300000000000000000000000000000000000000000000000000000330000660000990000CC0000FF0033000033330033660033990033CC0033FF0066000066330066660066990066CC0066FF0099
310
000099330099660099990099CC0099FF00CC0000CC3300CC6600CC9900CCCC00CCFF00FF0000FF3300FF6600FF9900FFCC00FFFF3300003300333300663300993300CC3300FF3333003333333333663333993333CC3333FF3366003366333366663366993366CC3366FF3399003399333399663399993399CC3399FF33CC00
310
33CC3333CC6633CC9933CCCC33CCFF33FF0033FF3333FF6633FF9933FFCC33FFFF6600006600336600666600996600CC6600FF6633006633336633666633996633CC6633FF6666006666336666666666996666CC6666FF6699006699336699666699996699CC6699FF66CC0066CC3366CC6666CC9966CCCC66CCFF66FF0066
310
FF3366FF6666FF9966FFCC66FFFF9900009900339900669900999900CC9900FF9933009933339933669933999933CC9933FF9966009966339966669966999966CC9966FF9999009999339999669999999999CC9999FF99CC0099CC3399CC6699CC9999CCCC99CCFF99FF0099FF3399FF6699FF9999FFCC99FFFFCC0000CC00
310
33CC0066CC0099CC00CCCC00FFCC3300CC3333CC3366CC3399CC33CCCC33FFCC6600CC6633CC6666CC6699CC66CCCC66FFCC9900CC9933CC9966CC9999CC99CCCC99FFCCCC00CCCC33CCCC66CCCC99CCCCCCCCCCFFCCFF00CCFF33CCFF66CCFF99CCFFCCCCFFFFFF0000FF0033FF0066FF0099FF00CCFF00FFFF3300FF3333
310
FF3366FF3399FF33CCFF33FFFF6600FF6633FF6666FF6699FF66CCFF66FFFF9900FF9933FF9966FF9999FF99CCFF99FFFFCC00FFCC33FFCC66FFCC99FFCCCCFFCCFFFFFF00FFFF33FFFF66FFFF99FFFFCCFFFFFF0000000D0D0D1A1A1A2828283535354343435050505D5D5D6B6B6B787878868686939393A1A1A1AEAEAEBB
310
BBBBC9C9C9D6D6D6E4E4E4F1F1F1FFFFFF0000000000000000000000000000000000000000000000000000000000002E4550F10000020F4944415478DAEDDB6B969A30008051B6E02EB2FF05E44F3656041F11A32D761213E6DED39E99CE71D48F848068A70900000000000000000000000000000000000000000000000000
310
00000000000000000000682DCEFA7D720D6262BB2D5D3D26C696D3A6BA5EA759AF8FF1F681766ED1B7376F1A13773DBBB82B26368FA9BCBF7C7D647E6A0FE82EE671028D1CF3B4B87617934FEA94E63FAFDD6F76FD41DAE37CEBDA2373DBD6E7AFA9A616D3ECFA00E9F2B720DD46F13F168037F75F2366DD7AEB3FB2875D27
310
49E1C46A67CC7C9FAD6396CD9FF28D98E69FA5CD3AB6DC6A80986913B3ECB6E9E977068AB9CDB8F3EA15A63072CCF659A4E92831E5DF11D322667B68FFC029F3FAB0D926E63232B17C08097F3F6B3E15BF7DB89356D3EC1A1376C5043162C4ECBABC27E6DB312194E759C89CB26FFB8D594B8A39AF6242D9B763E27D2E8541
310
63B2D56CA9BA0CCEF04B73987396CD7A8C98292C39A5A11924E676296D2D89E5A1196564B2E77B9E64EBAE73809875D19A47681A3DE65A3395DE78E92C267FDFA41C931F67B657CE078CC9CF001E73C68BD99E9B8D1EF3EAA57F8F3197A07F8EE97A35132346CC0F9E01881123468C183162C43CBD681BE2F2ECAF8989F140
310
D3EC761560FC98EC73F007189943C5DCF79AA32CCDEB5B045DC67CF0B2B9DF988F8E3371EF349B37D9513EA2B5AC1A0D3F3C57F543DA97A95CFB4A5316535BAADD92FF5F80EA26A09A3F1446C458265CCD5C0000000049454E44AE426082
  0
ENDSEC
  0
EOF
