  0
SECTION
  2
HEADER
  9
$ACADVER
  1
AC1032
  9
$ACADMAINTVER
 90
      142
  9
$DWGCODEPAGE
  3
ANSI_1252
  9
$LASTSAVEDBY
  1
markpriestnal
  9
$REQUIREDVERSIONS
160
                 0
  9
$INSBASE
 10
0.0
 20
0.0
 30
0.0
  9
$EXTMIN
 10
2623.018292251177
 20
971.2958176655702
 30
0.0
  9
$EXTMAX
 10
3598.469151773861
 20
1930.114493006077
 30
0.0
  9
$LIMMIN
 10
0.0
 20
0.0
  9
$LIMMAX
 10
420.0
 20
297.0
  9
$ORTHOMODE
 70
     0
  9
$REGENMODE
 70
     1
  9
$FILLMODE
 70
     1
  9
$QTEXTMODE
 70
     0
  9
$MIRRTEXT
 70
     0
  9
$LTSCALE
 40
1.0
  9
$ATTMODE
 70
     1
  9
$TEXTSIZE
 40
2.5
  9
$TRACEWID
 40
1.0
  9
$TEXTSTYLE
  7
Standard
  9
$CLAYER
  8
0
  9
$CELTYPE
  6
ByLayer
  9
$CECOLOR
 62
   256
  9
$CELTSCALE
 40
1.0
  9
$DISPSILH
 70
     0
  9
$DIMSCALE
 40
1.0
  9
$DIMASZ
 40
2.5
  9
$DIMEXO
 40
0.625
  9
$DIMDLI
 40
3.75
  9
$DIMRND
 40
0.0
  9
$DIMDLE
 40
0.0
  9
$DIMEXE
 40
1.25
  9
$DIMTP
 40
0.0
  9
$DIMTM
 40
0.0
  9
$DIMTXT
 40
2.5
  9
$DIMCEN
 40
2.5
  9
$DIMTSZ
 40
0.0
  9
$DIMTOL
 70
     0
  9
$DIMLIM
 70
     0
  9
$DIMTIH
 70
     0
  9
$DIMTOH
 70
     0
  9
$DIMSE1
 70
     0
  9
$DIMSE2
 70
     0
  9
$DIMTAD
 70
     1
  9
$DIMZIN
 70
     8
  9
$DIMBLK
  1

  9
$DIMASO
 70
     1
  9
$DIMSHO
 70
     1
  9
$DIMPOST
  1

  9
$DIMAPOST
  1

  9
$DIMALT
 70
     0
  9
$DIMALTD
 70
     3
  9
$DIMALTF
 40
0.03937007874016
  9
$DIMLFAC
 40
1.0
  9
$DIMTOFL
 70
     1
  9
$DIMTVP
 40
0.0
  9
$DIMTIX
 70
     0
  9
$DIMSOXD
 70
     0
  9
$DIMSAH
 70
     0
  9
$DIMBLK1
  1

  9
$DIMBLK2
  1

  9
$DIMSTYLE
  2
ISO-25
  9
$DIMCLRD
 70
     0
  9
$DIMCLRE
 70
     0
  9
$DIMCLRT
 70
     0
  9
$DIMTFAC
 40
1.0
  9
$DIMGAP
 40
0.625
  9
$DIMJUST
 70
     0
  9
$DIMSD1
 70
     0
  9
$DIMSD2
 70
     0
  9
$DIMTOLJ
 70
     0
  9
$DIMTZIN
 70
     8
  9
$DIMALTZ
 70
     0
  9
$DIMALTTZ
 70
     0
  9
$DIMUPT
 70
     0
  9
$DIMDEC
 70
     2
  9
$DIMTDEC
 70
     2
  9
$DIMALTU
 70
     2
  9
$DIMALTTD
 70
     3
  9
$DIMTXSTY
  7
Standard
  9
$DIMAUNIT
 70
     0
  9
$DIMADEC
 70
     0
  9
$DIMALTRND
 40
0.0
  9
$DIMAZIN
 70
     0
  9
$DIMDSEP
 70
    44
  9
$DIMATFIT
 70
     3
  9
$DIMFRAC
 70
     0
  9
$DIMLDRBLK
  1

  9
$DIMLUNIT
 70
     2
  9
$DIMLWD
 70
    -2
  9
$DIMLWE
 70
    -2
  9
$DIMTMOVE
 70
     0
  9
$DIMFXL
 40
1.0
  9
$DIMFXLON
 70
     0
  9
$DIMJOGANG
 40
0.7853981633974483
  9
$DIMTFILL
 70
     0
  9
$DIMTFILLCLR
 70
     0
  9
$DIMARCSYM
 70
     0
  9
$DIMLTYPE
  6

  9
$DIMLTEX1
  6

  9
$DIMLTEX2
  6

  9
$DIMTXTDIRECTION
 70
     0
  9
$LUNITS
 70
     2
  9
$LUPREC
 70
     4
  9
$SKETCHINC
 40
1.0
  9
$FILLETRAD
 40
0.0
  9
$AUNITS
 70
     0
  9
$AUPREC
 70
     0
  9
$MENU
  1
.
  9
$ELEVATION
 40
0.0
  9
$PELEVATION
 40
0.0
  9
$THICKNESS
 40
0.0
  9
$LIMCHECK
 70
     0
  9
$CHAMFERA
 40
0.0
  9
$CHAMFERB
 40
0.0
  9
$CHAMFERC
 40
0.0
  9
$CHAMFERD
 40
0.0
  9
$SKPOLY
 70
     0
  9
$TDCREATE
 40
2458645.420960648
  9
$TDUCREATE
 40
2458645.337628877
  9
$TDUPDATE
 40
2459653.601712963
  9
$TDUUPDATE
 40
2459653.560046296
  9
$TDINDWG
 40
0.0005141319
  9
$TDUSRTIMER
 40
0.0005141088
  9
$USRTIMER
 70
     1
  9
$ANGBASE
 50
0.0
  9
$ANGDIR
 70
     0
  9
$PDMODE
 70
     0
  9
$PDSIZE
 40
0.0
  9
$PLINEWID
 40
0.0
  9
$SPLFRAME
 70
     0
  9
$SPLINETYPE
 70
     6
  9
$SPLINESEGS
 70
     8
  9
$HANDSEED
  5
800
  9
$SURFTAB1
 70
     6
  9
$SURFTAB2
 70
     6
  9
$SURFTYPE
 70
     6
  9
$SURFU
 70
     6
  9
$SURFV
 70
     6
  9
$UCSBASE
  2

  9
$UCSNAME
  2

  9
$UCSORG
 10
0.0
 20
0.0
 30
0.0
  9
$UCSXDIR
 10
1.0
 20
0.0
 30
0.0
  9
$UCSYDIR
 10
0.0
 20
1.0
 30
0.0
  9
$UCSORTHOREF
  2

  9
$UCSORTHOVIEW
 70
     0
  9
$UCSORGTOP
 10
0.0
 20
0.0
 30
0.0
  9
$UCSORGBOTTOM
 10
0.0
 20
0.0
 30
0.0
  9
$UCSORGLEFT
 10
0.0
 20
0.0
 30
0.0
  9
$UCSORGRIGHT
 10
0.0
 20
0.0
 30
0.0
  9
$UCSORGFRONT
 10
0.0
 20
0.0
 30
0.0
  9
$UCSORGBACK
 10
0.0
 20
0.0
 30
0.0
  9
$PUCSBASE
  2

  9
$PUCSNAME
  2

  9
$PUCSORG
 10
0.0
 20
0.0
 30
0.0
  9
$PUCSXDIR
 10
1.0
 20
0.0
 30
0.0
  9
$PUCSYDIR
 10
0.0
 20
1.0
 30
0.0
  9
$PUCSORTHOREF
  2

  9
$PUCSORTHOVIEW
 70
     0
  9
$PUCSORGTOP
 10
0.0
 20
0.0
 30
0.0
  9
$PUCSORGBOTTOM
 10
0.0
 20
0.0
 30
0.0
  9
$PUCSORGLEFT
 10
0.0
 20
0.0
 30
0.0
  9
$PUCSORGRIGHT
 10
0.0
 20
0.0
 30
0.0
  9
$PUCSORGFRONT
 10
0.0
 20
0.0
 30
0.0
  9
$PUCSORGBACK
 10
0.0
 20
0.0
 30
0.0
  9
$USERI1
 70
     0
  9
$USERI2
 70
     0
  9
$USERI3
 70
     0
  9
$USERI4
 70
     0
  9
$USERI5
 70
     0
  9
$USERR1
 40
0.0
  9
$USERR2
 40
0.0
  9
$USERR3
 40
0.0
  9
$USERR4
 40
0.0
  9
$USERR5
 40
0.0
  9
$WORLDVIEW
 70
     1
  9
$SHADEDGE
 70
     3
  9
$SHADEDIF
 70
    70
  9
$TILEMODE
 70
     1
  9
$MAXACTVP
 70
    64
  9
$PINSBASE
 10
0.0
 20
0.0
 30
0.0
  9
$PLIMCHECK
 70
     0
  9
$PEXTMIN
 10
0.0
 20
0.0
 30
0.0
  9
$PEXTMAX
 10
0.0
 20
0.0
 30
0.0
  9
$PLIMMIN
 10
0.0
 20
0.0
  9
$PLIMMAX
 10
12.0
 20
9.0
  9
$UNITMODE
 70
     0
  9
$VISRETAIN
 70
     1
  9
$PLINEGEN
 70
     0
  9
$PSLTSCALE
 70
     1
  9
$TREEDEPTH
 70
  3020
  9
$CMLSTYLE
  2
Standard
  9
$CMLJUST
 70
     0
  9
$CMLSCALE
 40
20.0
  9
$PROXYGRAPHICS
 70
     1
  9
$MEASUREMENT
 70
     1
  9
$CELWEIGHT
370
    -1
  9
$ENDCAPS
280
     0
  9
$JOINSTYLE
280
     0
  9
$LWDISPLAY
290
     0
  9
$INSUNITS
 70
     4
  9
$HYPERLINKBASE
  1

  9
$STYLESHEET
  1

  9
$XEDIT
290
     1
  9
$CEPSNTYPE
380
     0
  9
$PSTYLEMODE
290
     1
  9
$FINGERPRINTGUID
  2
{492120B9-C0F8-4913-A1C1-AA11621B6C05}
  9
$VERSIONGUID
  2
{F508E0E6-ED9F-FF46-89CA-6A6B987F7386}
  9
$EXTNAMES
290
     1
  9
$PSVPSCALE
 40
0.0
  9
$OLESTARTUP
290
     0
  9
$SORTENTS
280
   127
  9
$INDEXCTL
280
     0
  9
$HIDETEXT
280
     1
  9
$XCLIPFRAME
280
     2
  9
$HALOGAP
280
     0
  9
$OBSCOLOR
 70
   257
  9
$OBSLTYPE
280
     0
  9
$INTERSECTIONDISPLAY
280
     0
  9
$INTERSECTIONCOLOR
 70
   257
  9
$DIMASSOC
280
     2
  9
$PROJECTNAME
  1

  9
$CAMERADISPLAY
290
     0
  9
$LENSLENGTH
 40
50.0
  9
$CAMERAHEIGHT
 40
0.0
  9
$STEPSPERSEC
 40
2.0
  9
$STEPSIZE
 40
6.0
  9
$3DDWFPREC
 40
2.0
  9
$PSOLWIDTH
 40
5.0
  9
$PSOLHEIGHT
 40
80.0
  9
$LOFTANG1
 40
1.570796326794896
  9
$LOFTANG2
 40
1.570796326794896
  9
$LOFTMAG1
 40
0.0
  9
$LOFTMAG2
 40
0.0
  9
$LOFTPARAM
 70
     7
  9
$LOFTNORMALS
280
     1
  9
$LATITUDE
 40
37.795
  9
$LONGITUDE
 40
-122.394
  9
$NORTHDIRECTION
 40
0.0
  9
$TIMEZONE
 70
 -8000
  9
$LIGHTGLYPHDISPLAY
280
     1
  9
$TILEMODELIGHTSYNCH
280
     1
  9
$CMATERIAL
347
EC
  9
$SOLIDHIST
280
     0
  9
$SHOWHIST
280
     1
  9
$DWFFRAME
280
     2
  9
$DGNFRAME
280
     0
  9
$REALWORLDSCALE
290
     1
  9
$INTERFERECOLOR
 62
     1
  9
$INTERFEREOBJVS
345
F9
  9
$INTERFEREVPVS
346
F6
  9
$CSHADOW
280
     0
  9
$SHADOWPLANELOCATION
 40
0.0
  0
ENDSEC
  0
SECTION
  2
CLASSES
  0
CLASS
  1
ACDBDICTIONARYWDFLT
  2
AcDbDictionaryWithDefault
  3
ObjectDBX Classes
 90
        0
 91
        1
280
     0
281
     0
  0
CLASS
  1
DICTIONARYVAR
  2
AcDbDictionaryVar
  3
ObjectDBX Classes
 90
        0
 91
       16
280
     0
281
     0
  0
CLASS
  1
TABLESTYLE
  2
AcDbTableStyle
  3
ObjectDBX Classes
 90
     4095
 91
        1
280
     0
281
     0
  0
CLASS
  1
MATERIAL
  2
AcDbMaterial
  3
ObjectDBX Classes
 90
     1153
 91
        3
280
     0
281
     0
  0
CLASS
  1
VISUALSTYLE
  2
AcDbVisualStyle
  3
ObjectDBX Classes
 90
     4095
 91
       25
280
     0
281
     0
  0
CLASS
  1
SCALE
  2
AcDbScale
  3
ObjectDBX Classes
 90
     1153
 91
       17
280
     0
281
     0
  0
CLASS
  1
MLEADERSTYLE
  2
AcDbMLeaderStyle
  3
ACDB_MLEADERSTYLE_CLASS
 90
     4095
 91
        2
280
     0
281
     0
  0
CLASS
  1
CELLSTYLEMAP
  2
AcDbCellStyleMap
  3
ObjectDBX Classes
 90
     1152
 91
        2
280
     0
281
     0
  0
CLASS
  1
EXACXREFPANELOBJECT
  2
ExAcXREFPanelObject
  3
EXAC_ESW
 90
     1025
 91
        0
280
     0
281
     0
  0
CLASS
  1
NPOCOLLECTION
  2
AcDbImpNonPersistentObjectsCollection
  3
ObjectDBX Classes
 90
     1153
 91
        0
280
     0
281
     0
  0
CLASS
  1
LAYER_INDEX
  2
AcDbLayerIndex
  3
ObjectDBX Classes
 90
        0
 91
        0
280
     0
281
     0
  0
CLASS
  1
SPATIAL_INDEX
  2
AcDbSpatialIndex
  3
ObjectDBX Classes
 90
        0
 91
        0
280
     0
281
     0
  0
CLASS
  1
IDBUFFER
  2
AcDbIdBuffer
  3
ObjectDBX Classes
 90
        0
 91
        0
280
     0
281
     0
  0
CLASS
  1
ACDBSECTIONVIEWSTYLE
  2
AcDbSectionViewStyle
  3
ObjectDBX Classes
 90
     1025
 91
        1
280
     0
281
     0
  0
CLASS
  1
ACDBDETAILVIEWSTYLE
  2
AcDbDetailViewStyle
  3
ObjectDBX Classes
 90
     1025
 91
        1
280
     0
281
     0
  0
CLASS
  1
SORTENTSTABLE
  2
AcDbSortentsTable
  3
ObjectDBX Classes
 90
        0
 91
        7
280
     0
281
     0
  0
CLASS
  1
DIMASSOC
  2
AcDbDimAssoc
  3
"AcDbDimAssoc|Product Desc:     AcDim ARX App For Dimension|Company:          Autodesk, Inc.|WEB Address:      www.autodesk.com"
 90
        0
 91
       11
280
     0
281
     0
  0
ENDSEC
  0
SECTION
  2
TABLES
  0
TABLE
  2
VPORT
  5
8
102
{ACAD_XDICTIONARY
360
79C
102
}
330
0
100
AcDbSymbolTable
 70
     1
  0
VPORT
  5
EA
330
8
100
AcDbSymbolTableRecord
100
AcDbViewportTableRecord
  2
*Active
 70
     0
 10
0.0
 20
0.0
 11
1.0
 21
1.0
 12
3245.348652256375
 22
1736.574854791619
 13
0.0
 23
0.0
 14
10.0
 24
10.0
 15
10.0
 25
10.0
 16
0.0
 26
0.0
 36
1.0
 17
0.0
 27
0.0
 37
0.0
 40
2170.114211655746
 41
0.7984496124031008
 42
50.0
 43
0.0
 44
0.0
 50
0.0
 51
0.0
 71
     0
 72
  1000
 73
     1
 74
     3
 75
     0
 76
     0
 77
     0
 78
     0
281
     0
 65
     1
110
0.0
120
0.0
130
0.0
111
1.0
121
0.0
131
0.0
112
0.0
122
1.0
132
0.0
 79
     0
146
0.0
348
F5
 60
     3
 61
     5
292
     1
282
     1
141
0.0
142
0.0
 63
   250
421
  3355443
1001
ACAD_NAV_VCDISPLAY
1070
     3
  0
ENDTAB
  0
TABLE
  2
LTYPE
  5
5
330
0
100
AcDbSymbolTable
 70
     4
  0
LTYPE
  5
14
330
5
100
AcDbSymbolTableRecord
100
AcDbLinetypeTableRecord
  2
ByBlock
 70
     0
  3

 72
    65
 73
     0
 40
0.0
  0
LTYPE
  5
15
330
5
100
AcDbSymbolTableRecord
100
AcDbLinetypeTableRecord
  2
ByLayer
 70
     0
  3

 72
    65
 73
     0
 40
0.0
  0
LTYPE
  5
16
330
5
100
AcDbSymbolTableRecord
100
AcDbLinetypeTableRecord
  2
Continuous
 70
     0
  3
Solid line
 72
    65
 73
     0
 40
0.0
  0
LTYPE
  5
3C2
330
5
100
AcDbSymbolTableRecord
100
AcDbLinetypeTableRecord
  2
HIDDENX2
 70
     0
  3
Hidden (2x) ____ ____ ____ ____ ____ ____ ____
 72
    65
 73
     2
 40
19.05
 49
12.7
 74
     0
 49
-6.349999999999999
 74
     0
  0
LTYPE
  5
3C3
330
5
100
AcDbSymbolTableRecord
100
AcDbLinetypeTableRecord
  2
HIDDEN
 70
     0
  3
- - - - - - - - - - - - - - - - - - - -
 72
    65
 73
     2
 40
0.2
 49
0.1
 74
     0
 49
-0.1
 74
     0
  0
LTYPE
  5
3C4
330
5
100
AcDbSymbolTableRecord
100
AcDbLinetypeTableRecord
  2
HIDDEN2
 70
     0
  3
Hidden (.5x) _ _ _ _ _ _ _ _ _ _ _ _ _ _ _ _ _
 72
    65
 73
     2
 40
4.762499999999999
 49
3.174999999999999
 74
     0
 49
-1.587499999999999
 74
     0
  0
ENDTAB
  0
TABLE
  2
LAYER
  5
2
102
{ACAD_XDICTIONARY
360
1FF
102
}
330
0
100
AcDbSymbolTable
 70
     7
  0
LAYER
  5
10
102
{ACAD_XDICTIONARY
360
13C
102
}
330
2
100
AcDbSymbolTableRecord
100
AcDbLayerTableRecord
  2
0
 70
     0
 62
     7
  6
Continuous
370
    -3
390
F
347
EE
348
0
  0
LAYER
  5
3C5
330
2
100
AcDbSymbolTableRecord
100
AcDbLayerTableRecord
  2
外框线1
 70
     0
 62
     3
  6
Continuous
370
    -3
390
F
347
EE
348
0
1001
AcAecLayerStandard
1000

1000

1001
AcadStringInfo
1000
MIFCodePage
1070
     5
  0
LAYER
  5
3C6
330
2
100
AcDbSymbolTableRecord
100
AcDbLayerTableRecord
  2
Defpoints
 70
     0
 62
     7
  6
Continuous
290
     0
370
    -3
390
F
347
EE
348
0
  0
LAYER
  5
3C7
330
2
100
AcDbSymbolTableRecord
100
AcDbLayerTableRecord
  2
外框线2
 70
     0
 62
     6
  6
Continuous
370
    -3
390
F
347
EE
348
0
1001
AcAecLayerStandard
1000

1000

1001
AcadStringInfo
1000
MIFCodePage
1070
     5
  0
LAYER
  5
3C8
330
2
100
AcDbSymbolTableRecord
100
AcDbLayerTableRecord
  2
标注
 70
     0
 62
     1
  6
Continuous
370
     9
390
F
347
EE
348
0
1001
AcAecLayerStandard
1000

1000

1001
AcadStringInfo
1000
MIFCodePage
1070
     5
  0
LAYER
  5
3C9
330
2
100
AcDbSymbolTableRecord
100
AcDbLayerTableRecord
  2
外框线4
 70
     0
 62
     4
  6
Continuous
370
    18
390
F
347
EE
348
0
1001
AcAecLayerStandard
1000

1000

1001
AcadStringInfo
1000
MIFCodePage
1070
     5
  0
LAYER
  5
3CA
330
2
100
AcDbSymbolTableRecord
100
AcDbLayerTableRecord
  2
外框线5
 70
     0
 62
     2
  6
Continuous
370
     9
390
F
347
EE
348
0
1001
AcAecLayerStandard
1000

1000

1001
AcadStringInfo
1000
MIFCodePage
1070
     5
  0
ENDTAB
  0
TABLE
  2
STYLE
  5
3
330
0
100
AcDbSymbolTable
 70
     2
  0
STYLE
  5
11
330
3
100
AcDbSymbolTableRecord
100
AcDbTextStyleTableRecord
  2
Standard
 70
     0
 40
0.0
 41
1.0
 50
0.0
 71
     0
 42
2.5
  3
arial.ttf
  4

1001
ACAD
1000
Arial
1071
       34
  0
STYLE
  5
132
330
3
100
AcDbSymbolTableRecord
100
AcDbTextStyleTableRecord
  2
Annotative
 70
     0
 40
0.0
 41
1.0
 50
0.0
 71
     0
 42
2.5
  3
arial.ttf
  4

1001
AcadAnnotative
1000
AnnotativeData
1002
{
1070
     1
1070
     1
1002
}
1001
ACAD
1000
Arial
1071
       34
  0
ENDTAB
  0
TABLE
  2
VIEW
  5
6
330
0
100
AcDbSymbolTable
 70
     1
  0
ENDTAB
  0
TABLE
  2
UCS
  5
7
330
0
100
AcDbSymbolTable
 70
     0
  0
ENDTAB
  0
TABLE
  2
APPID
  5
9
330
0
100
AcDbSymbolTable
 70
    14
  0
APPID
  5
12
330
9
100
AcDbSymbolTableRecord
100
AcDbRegAppTableRecord
  2
ACAD
 70
     0
  0
APPID
  5
9E
330
9
100
AcDbSymbolTableRecord
100
AcDbRegAppTableRecord
  2
ACAD_PSEXT
 70
     0
  0
APPID
  5
133
330
9
100
AcDbSymbolTableRecord
100
AcDbRegAppTableRecord
  2
AcadAnnoPO
 70
     0
  0
APPID
  5
134
330
9
100
AcDbSymbolTableRecord
100
AcDbRegAppTableRecord
  2
AcadAnnotative
 70
     0
  0
APPID
  5
135
330
9
100
AcDbSymbolTableRecord
100
AcDbRegAppTableRecord
  2
ACAD_DSTYLE_DIMJAG
 70
     0
  0
APPID
  5
136
330
9
100
AcDbSymbolTableRecord
100
AcDbRegAppTableRecord
  2
ACAD_DSTYLE_DIMTALN
 70
     0
  0
APPID
  5
165
330
9
100
AcDbSymbolTableRecord
100
AcDbRegAppTableRecord
  2
ACAD_MLEADERVER
 70
     0
  0
APPID
  5
217
330
9
100
AcDbSymbolTableRecord
100
AcDbRegAppTableRecord
  2
ACAD_NAV_VCDISPLAY
 70
     0
  0
APPID
  5
3D1
330
9
100
AcDbSymbolTableRecord
100
AcDbRegAppTableRecord
  2
ACAD_DSTYLE_DIMBREAK
 70
     0
  0
APPID
  5
3D2
330
9
100
AcDbSymbolTableRecord
100
AcDbRegAppTableRecord
  2
AcAecLayerStandard
 70
     0
  0
APPID
  5
3D3
330
9
100
AcDbSymbolTableRecord
100
AcDbRegAppTableRecord
  2
AcDbDynamicBlockGUID
 70
     0
  0
APPID
  5
3D4
330
9
100
AcDbSymbolTableRecord
100
AcDbRegAppTableRecord
  2
ACAD_DSTYLE_DIMRADIAL_EXTENSION
 70
     0
  0
APPID
  5
7F2
330
9
100
AcDbSymbolTableRecord
100
AcDbRegAppTableRecord
  2
AcadStringInfo
 70
     0
  0
APPID
  5
7F5
330
9
100
AcDbSymbolTableRecord
100
AcDbRegAppTableRecord
  2
Acad_TC
 70
     0
  0
ENDTAB
  0
TABLE
  2
DIMSTYLE
  5
A
330
0
100
AcDbSymbolTable
 70
     9
100
AcDbDimStyleTable
 71
     2
340
27
340
137
  0
DIMSTYLE
105
1B0
330
A
100
AcDbSymbolTableRecord
100
AcDbDimStyleTableRecord
  2
Standard
 70
     0
340
11
  0
DIMSTYLE
105
137
330
A
100
AcDbSymbolTableRecord
100
AcDbDimStyleTableRecord
  2
Annotative
 70
     0
 40
0.0
 41
2.5
 42
0.625
 43
3.75
 44
1.25
 73
     0
 74
     0
 77
     1
 78
     8
140
2.5
141
2.5
143
0.03937007874016
147
0.625
171
     3
172
     1
271
     2
272
     2
274
     3
278
    44
283
     0
284
     8
340
11
1001
AcadAnnotative
1000
AnnotativeData
1002
{
1070
     1
1070
     1
1002
}
1001
ACAD_DSTYLE_DIMJAG
1070
   388
1040
1.5
1001
ACAD_DSTYLE_DIMTALN
1070
   392
1070
     0
  0
DIMSTYLE
105
27
330
A
100
AcDbSymbolTableRecord
100
AcDbDimStyleTableRecord
  2
ISO-25
 70
     0
 41
2.5
 42
0.625
 43
3.75
 44
1.25
 73
     0
 74
     0
 77
     1
 78
     8
140
2.5
141
2.5
143
0.03937007874016
147
0.625
171
     3
172
     1
271
     2
272
     2
274
     3
278
    44
283
     0
284
     8
340
11
  0
DIMSTYLE
105
3CB
102
{ACAD_REACTORS
330
5B2
330
50D
330
50F
330
538
330
53B
330
53E
330
541
330
545
330
548
330
54B
330
54C
330
54D
330
55E
330
569
330
56E
330
571
330
579
330
57F
330
580
102
}
330
A
100
AcDbSymbolTableRecord
100
AcDbDimStyleTableRecord
  2
1-8-L
 70
     0
 40
8.0
 41
1.5
 42
0.625
 43
3.75
 44
1.25
 73
     0
 74
     0
 77
     1
 78
     8
140
2.299999999999998
141
2.5
143
0.03937007874016
147
0.625
171
     8
172
     1
271
     2
272
     2
273
     7
274
     8
283
     0
284
     8
340
11
1001
ACAD_DSTYLE_DIMBREAK
1070
   391
1040
3.75
1001
ACAD_DSTYLE_DIMJAG
1070
   388
1040
1.5
1001
ACAD_DSTYLE_DIMTALN
1070
   392
1070
     0
  0
DIMSTYLE
105
3CC
330
A
100
AcDbSymbolTableRecord
100
AcDbDimStyleTableRecord
  2
1-2-L
 70
     0
 40
2.0
 41
1.5
 42
0.625
 43
3.75
 44
1.25
 73
     0
 74
     0
 77
     1
 78
     8
140
2.299999999999999
141
2.5
143
0.03937007874016
147
0.625
171
     8
172
     1
271
     2
272
     2
273
     7
274
     8
283
     0
284
     8
340
11
1001
ACAD_DSTYLE_DIMBREAK
1070
   391
1040
3.75
1001
ACAD_DSTYLE_DIMJAG
1070
   388
1040
1.5
1001
ACAD_DSTYLE_DIMTALN
1070
   392
1070
     0
  0
DIMSTYLE
105
3CD
330
A
100
AcDbSymbolTableRecord
100
AcDbDimStyleTableRecord
  2
1-6-L
 70
     0
 40
6.0
 41
1.5
 42
0.625
 43
3.75
 44
1.25
 73
     0
 74
     0
 77
     1
 78
     8
140
2.299999999999999
141
2.5
143
0.03937007874016
147
0.625
171
     8
172
     1
271
     2
272
     2
273
     7
274
     8
283
     0
284
     8
340
11
1001
ACAD_DSTYLE_DIMBREAK
1070
   391
1040
3.75
1001
ACAD_DSTYLE_DIMJAG
1070
   388
1040
1.5
1001
ACAD_DSTYLE_DIMTALN
1070
   392
1070
     0
  0
DIMSTYLE
105
3CE
330
A
100
AcDbSymbolTableRecord
100
AcDbDimStyleTableRecord
  2
1-4-L
 70
     0
 40
4.0
 41
1.5
 42
0.625
 43
3.75
 44
1.25
 73
     0
 74
     0
 77
     1
 78
     8
140
2.299999999999999
141
2.5
143
0.03937007874016
147
0.625
171
     8
172
     1
271
     2
272
     2
273
     7
274
     8
283
     0
284
     8
340
11
1001
ACAD_DSTYLE_DIMBREAK
1070
   391
1040
3.75
1001
ACAD_DSTYLE_DIMJAG
1070
   388
1040
1.5
1001
ACAD_DSTYLE_DIMTALN
1070
   392
1070
     0
  0
DIMSTYLE
105
3CF
330
A
100
AcDbSymbolTableRecord
100
AcDbDimStyleTableRecord
  2
1-5-L
 70
     0
 40
5.0
 41
1.5
 42
0.625
 43
3.75
 44
1.25
 73
     0
 74
     0
 77
     1
 78
     8
140
2.299999999999999
141
2.5
143
0.03937007874016
147
0.625
171
     8
172
     1
271
     2
272
     2
273
     7
274
     8
283
     0
284
     8
340
11
1001
ACAD_DSTYLE_DIMBREAK
1070
   391
1040
3.75
1001
ACAD_DSTYLE_DIMJAG
1070
   388
1040
1.5
1001
ACAD_DSTYLE_DIMTALN
1070
   392
1070
     0
  0
DIMSTYLE
105
3D0
102
{ACAD_REACTORS
330
50E
330
535
102
}
330
A
100
AcDbSymbolTableRecord
100
AcDbDimStyleTableRecord
  2
1-8-a
 70
     0
 40
8.0
 41
1.5
 42
0.625
 43
3.75
 44
1.25
 47
0.2
 48
0.2
 71
     1
 73
     0
 74
     0
 77
     1
 78
     8
140
2.299999999999999
141
2.5
143
0.03937007874016
147
0.625
171
     8
172
     1
271
     2
272
     2
273
     7
274
     8
284
     8
340
11
1001
ACAD_DSTYLE_DIMBREAK
1070
   391
1040
3.75
1001
ACAD_DSTYLE_DIMJAG
1070
   388
1040
1.5
1001
ACAD_DSTYLE_DIMTALN
1070
   392
1070
     0
  0
ENDTAB
  0
TABLE
  2
BLOCK_RECORD
  5
1
330
0
100
AcDbSymbolTable
 70
    50
  0
BLOCK_RECORD
  5
1F
102
{ACAD_XDICTIONARY
360
1CE
102
}
330
1
100
AcDbSymbolTableRecord
100
AcDbBlockTableRecord
  2
*Model_Space
340
22
 70
     0
280
     1
281
     0
  0
BLOCK_RECORD
  5
D2
330
1
100
AcDbSymbolTableRecord
100
AcDbBlockTableRecord
  2
*Paper_Space
340
D3
 70
     0
280
     1
281
     0
  0
BLOCK_RECORD
  5
D6
330
1
100
AcDbSymbolTableRecord
100
AcDbBlockTableRecord
  2
*Paper_Space0
340
D7
 70
     0
280
     1
281
     0
  0
BLOCK_RECORD
  5
250
102
{ACAD_XDICTIONARY
360
251
102
}
330
1
100
AcDbSymbolTableRecord
100
AcDbBlockTableRecord
  2
A$C36197F93
340
0
102
{BLKREFS
331
561
102
}
 70
     4
280
     1
281
     0
1001
AcDbDynamicBlockGUID
1000
{B30E257B-E2F2-45A9-A344-FD0737534829}
  0
BLOCK_RECORD
  5
25E
102
{ACAD_XDICTIONARY
360
25F
102
}
330
1
100
AcDbSymbolTableRecord
100
AcDbBlockTableRecord
  2
A$C52C164B5
340
0
102
{BLKREFS
331
564
331
565
102
}
 70
     4
280
     1
281
     0
  0
BLOCK_RECORD
  5
269
102
{ACAD_XDICTIONARY
360
26A
102
}
330
1
100
AcDbSymbolTableRecord
100
AcDbBlockTableRecord
  2
A$C146E3994
340
0
102
{BLKREFS
331
563
102
}
 70
     4
280
     1
281
     0
  0
BLOCK_RECORD
  5
271
102
{ACAD_XDICTIONARY
360
272
102
}
330
1
100
AcDbSymbolTableRecord
100
AcDbBlockTableRecord
  2
A$C73DC396D
340
0
102
{BLKREFS
331
568
331
56C
331
56D
102
}
 70
     4
280
     1
281
     0
  0
BLOCK_RECORD
  5
280
102
{ACAD_XDICTIONARY
360
281
102
}
330
1
100
AcDbSymbolTableRecord
100
AcDbBlockTableRecord
  2
A$C4F516713
340
0
102
{BLKREFS
331
562
102
}
 70
     4
280
     1
281
     0
  0
BLOCK_RECORD
  5
28C
102
{ACAD_XDICTIONARY
360
28D
102
}
330
1
100
AcDbSymbolTableRecord
100
AcDbBlockTableRecord
  2
A$C6E3C7DD4
340
0
102
{BLKREFS
331
581
102
}
 70
     4
280
     1
281
     0
  0
BLOCK_RECORD
  5
2BA
102
{ACAD_XDICTIONARY
360
2BB
102
}
330
1
100
AcDbSymbolTableRecord
100
AcDbBlockTableRecord
  2
A$C6A1E44B3
340
0
102
{BLKREFS
331
582
331
583
331
584
102
}
 70
     4
280
     1
281
     0
  0
BLOCK_RECORD
  5
63C
330
1
100
AcDbSymbolTableRecord
100
AcDbBlockTableRecord
  2
*D29
340
0
 70
     0
280
     1
281
     0
  0
BLOCK_RECORD
  5
647
330
1
100
AcDbSymbolTableRecord
100
AcDbBlockTableRecord
  2
*D30
340
0
 70
     0
280
     1
281
     0
  0
BLOCK_RECORD
  5
653
330
1
100
AcDbSymbolTableRecord
100
AcDbBlockTableRecord
  2
*D31
340
0
 70
     0
280
     1
281
     0
  0
BLOCK_RECORD
  5
65F
330
1
100
AcDbSymbolTableRecord
100
AcDbBlockTableRecord
  2
*D32
340
0
 70
     0
280
     1
281
     0
  0
BLOCK_RECORD
  5
668
330
1
100
AcDbSymbolTableRecord
100
AcDbBlockTableRecord
  2
*D33
340
0
 70
     0
280
     1
281
     0
  0
BLOCK_RECORD
  5
672
330
1
100
AcDbSymbolTableRecord
100
AcDbBlockTableRecord
  2
*D34
340
0
 70
     0
280
     1
281
     0
  0
BLOCK_RECORD
  5
67C
330
1
100
AcDbSymbolTableRecord
100
AcDbBlockTableRecord
  2
*D35
340
0
 70
     0
280
     1
281
     0
  0
BLOCK_RECORD
  5
688
330
1
100
AcDbSymbolTableRecord
100
AcDbBlockTableRecord
  2
*D36
340
0
 70
     0
280
     1
281
     0
  0
BLOCK_RECORD
  5
695
330
1
100
AcDbSymbolTableRecord
100
AcDbBlockTableRecord
  2
*D37
340
0
 70
     0
280
     1
281
     0
  0
BLOCK_RECORD
  5
6A2
330
1
100
AcDbSymbolTableRecord
100
AcDbBlockTableRecord
  2
*D38
340
0
 70
     0
280
     1
281
     0
  0
BLOCK_RECORD
  5
6CF
330
1
100
AcDbSymbolTableRecord
100
AcDbBlockTableRecord
  2
*D39
340
0
 70
     0
280
     1
281
     0
  0
BLOCK_RECORD
  5
6DB
330
1
100
AcDbSymbolTableRecord
100
AcDbBlockTableRecord
  2
*D40
340
0
 70
     0
280
     1
281
     0
  0
BLOCK_RECORD
  5
6E7
330
1
100
AcDbSymbolTableRecord
100
AcDbBlockTableRecord
  2
*D41
340
0
 70
     0
280
     1
281
     0
  0
BLOCK_RECORD
  5
6F3
330
1
100
AcDbSymbolTableRecord
100
AcDbBlockTableRecord
  2
*D42
340
0
 70
     0
280
     1
281
     0
  0
BLOCK_RECORD
  5
6FF
330
1
100
AcDbSymbolTableRecord
100
AcDbBlockTableRecord
  2
*D43
340
0
 70
     0
280
     1
281
     0
  0
BLOCK_RECORD
  5
70B
330
1
100
AcDbSymbolTableRecord
100
AcDbBlockTableRecord
  2
*D44
340
0
 70
     0
280
     1
281
     0
  0
BLOCK_RECORD
  5
716
330
1
100
AcDbSymbolTableRecord
100
AcDbBlockTableRecord
  2
*D45
340
0
 70
     0
280
     1
281
     0
  0
BLOCK_RECORD
  5
730
330
1
100
AcDbSymbolTableRecord
100
AcDbBlockTableRecord
  2
*D46
340
0
 70
     0
280
     1
281
     0
  0
BLOCK_RECORD
  5
73E
330
1
100
AcDbSymbolTableRecord
100
AcDbBlockTableRecord
  2
*D47
340
0
 70
     0
280
     1
281
     0
  0
BLOCK_RECORD
  5
753
330
1
100
AcDbSymbolTableRecord
100
AcDbBlockTableRecord
  2
*D48
340
0
 70
     0
280
     1
281
     0
  0
BLOCK_RECORD
  5
75F
330
1
100
AcDbSymbolTableRecord
100
AcDbBlockTableRecord
  2
*D49
340
0
 70
     0
280
     1
281
     0
  0
ENDTAB
  0
ENDSEC
  0
SECTION
  2
BLOCKS
  0
BLOCK
  5
20
330
1F
100
AcDbEntity
  8
0
100
AcDbBlockBegin
  2
*Model_Space
 70
     0
 10
0.0
 20
0.0
 30
0.0
  3
*Model_Space
  1

  0
ENDBLK
  5
21
330
1F
100
AcDbEntity
  8
0
100
AcDbBlockEnd
  0
BLOCK
  5
D4
330
D2
100
AcDbEntity
 67
     1
  8
0
100
AcDbBlockBegin
  2
*Paper_Space
 70
     0
 10
0.0
 20
0.0
 30
0.0
  3
*Paper_Space
  1

  0
ENDBLK
  5
D5
330
D2
100
AcDbEntity
 67
     1
  8
0
100
AcDbBlockEnd
  0
BLOCK
  5
D8
330
D6
100
AcDbEntity
 67
     1
  8
0
100
AcDbBlockBegin
  2
*Paper_Space0
 70
     0
 10
0.0
 20
0.0
 30
0.0
  3
*Paper_Space0
  1

  0
ENDBLK
  5
D9
330
D6
100
AcDbEntity
 67
     1
  8
0
100
AcDbBlockEnd
  0
BLOCK
  5
253
330
250
100
AcDbEntity
  8
0
100
AcDbBlockBegin
  2
A$C36197F93
 70
     0
 10
0.0
 20
0.0
 30
0.0
  3
A$C36197F93
  1

  0
LINE
  5
254
330
250
100
AcDbEntity
  8
外框线5
 48
0.2
100
AcDbLine
 10
83.00004940960207
 20
4.999948006792692
 30
0.0
 11
83.00004940960207
 21
47.99994800679996
 31
0.0
  0
LINE
  5
255
330
250
100
AcDbEntity
  8
外框线5
 48
0.2
100
AcDbLine
 10
70.00004940960207
 20
-0.0000519932000316
 30
0.0
 11
0.0000494096020702
 21
-0.0000519932000316
 31
0.0
  0
LINE
  5
256
330
250
100
AcDbEntity
  8
外框线2
  6
HIDDENX2
 48
0.2
100
AcDbLine
 10
70.00004940960207
 20
1.499948006799968
 30
0.0
 11
0.0000494096020702
 21
1.499948006799968
 31
0.0
  0
LINE
  5
257
330
250
100
AcDbEntity
  8
外框线5
 48
0.2
100
AcDbLine
 10
0.0000494096020702
 20
-0.0000519932000316
 30
0.0
 11
0.0000494096020702
 21
1.499948006799968
 31
0.0
  0
LINE
  5
258
330
250
100
AcDbEntity
  8
外框线5
 48
0.2
100
AcDbLine
 10
70.00004940960207
 20
-0.0000519932073075
 30
0.0
 11
70.00004940960207
 21
4.999948006792692
 31
0.0
  0
LINE
  5
259
330
250
100
AcDbEntity
  8
外框线2
  6
HIDDENX2
 48
0.2
100
AcDbLine
 10
81.50004940960206
 20
4.999948006792692
 30
0.0
 11
81.50004940960206
 21
47.99994800679996
 31
0.0
  0
LINE
  5
25A
330
250
100
AcDbEntity
  8
外框线5
 48
0.2
100
AcDbLine
 10
83.00004940960207
 20
47.99994800679996
 30
0.0
 11
81.50004940960206
 21
47.99994800679996
 31
0.0
  0
LINE
  5
25B
330
250
100
AcDbEntity
  8
外框线5
 48
0.2
100
AcDbLine
 10
81.50004940960206
 20
47.99994800679996
 30
0.0
 11
0.0000494096020702
 21
1.499948006799968
 31
0.0
  0
LINE
  5
25C
330
250
100
AcDbEntity
  8
外框线5
 48
0.2
100
AcDbLine
 10
70.00004940960207
 20
4.999948006792692
 30
0.0
 11
83.00004940960207
 21
4.999948006792692
 31
0.0
  0
ENDBLK
  5
25D
330
250
100
AcDbEntity
  8
0
100
AcDbBlockEnd
  0
BLOCK
  5
261
330
25E
100
AcDbEntity
  8
0
100
AcDbBlockBegin
  2
A$C52C164B5
 70
     0
 10
0.0
 20
0.0
 30
0.0
  3
A$C52C164B5
  1

  0
LINE
  5
262
330
25E
100
AcDbEntity
  8
标注
100
AcDbLine
 10
0.7070691492408514
 20
0.0
 30
0.0
 11
12.02077764822388
 21
11.31370849898303
 31
0.0
  0
LINE
  5
263
330
25E
100
AcDbEntity
  8
标注
100
AcDbLine
 10
12.02077764822388
 20
11.31370849898303
 30
0.0
 11
23.33448614720692
 21
0.0
 31
0.0
  0
LINE
  5
264
330
25E
100
AcDbEntity
  8
标注
100
AcDbLine
 10
23.33448614720692
 20
0.0
 30
0.0
 11
24.04159292839177
 21
0.707106781184848
 31
0.0
  0
LINE
  5
265
330
25E
100
AcDbEntity
  8
标注
100
AcDbLine
 10
24.04159292839177
 20
0.707106781184848
 30
0.0
 11
12.02077764822388
 21
12.72792206135273
 31
0.0
  0
LINE
  5
266
330
25E
100
AcDbEntity
  8
标注
100
AcDbLine
 10
0.7070691492408514
 20
0.0
 30
0.0
 11
-0.0000376319439965
 21
0.707106781184848
 31
0.0
  0
LINE
  5
267
330
25E
100
AcDbEntity
  8
标注
100
AcDbLine
 10
-0.0000376319439965
 20
0.707106781184848
 30
0.0
 11
12.02077764822388
 21
12.72792206135273
 31
0.0
  0
ENDBLK
  5
268
330
25E
100
AcDbEntity
  8
0
100
AcDbBlockEnd
  0
BLOCK
  5
26C
330
269
100
AcDbEntity
  8
0
100
AcDbBlockBegin
  2
A$C146E3994
 70
     0
 10
0.0
 20
0.0
 30
0.0
  3
A$C146E3994
  1

  0
LINE
  5
26D
330
269
100
AcDbEntity
  8
外框线1
100
AcDbLine
 10
13.99996785087569
 20
85.00002227884397
 30
0.0
 11
-0.0000321491243085
 21
85.00002227884397
 31
0.0
  0
LINE
  5
26E
330
269
100
AcDbEntity
  8
外框线1
100
AcDbLine
 10
-0.0000321491243085
 20
85.00002227884397
 30
0.0
 11
-0.0000321491279465
 21
0.0000222788439714
 31
0.0
  0
LINE
  5
26F
330
269
100
AcDbEntity
  8
外框线1
100
AcDbLine
 10
-0.0000321491279465
 20
0.0000222788439714
 30
0.0
 11
11.99996785087205
 21
0.0000222788439714
 31
0.0
  0
ENDBLK
  5
270
330
269
100
AcDbEntity
  8
0
100
AcDbBlockEnd
  0
BLOCK
  5
274
330
271
100
AcDbEntity
  8
0
100
AcDbBlockBegin
  2
A$C73DC396D
 70
     0
 10
0.0
 20
0.0
 30
0.0
  3
A$C73DC396D
  1

  0
LINE
  5
275
330
271
100
AcDbEntity
  8
外框线5
 48
0.2
100
AcDbLine
 10
20.00004033916048
 20
0.0000078342527559
 30
0.0
 11
0.0000403391604777
 21
0.0000078342527559
 31
0.0
  0
LINE
  5
276
330
271
100
AcDbEntity
  8
外框线5
 48
0.2
100
AcDbLine
 10
20.00004033916048
 20
1.500007834252755
 30
0.0
 11
1.500040339160477
 21
1.500007834252755
 31
0.0
  0
LINE
  5
277
330
271
100
AcDbEntity
  8
外框线5
 48
0.2
100
AcDbLine
 10
0.0000403391604777
 20
0.0000078342527559
 30
0.0
 11
0.0000403391604777
 21
48.00000783426367
 31
0.0
  0
LINE
  5
278
330
271
100
AcDbEntity
  8
外框线5
 48
0.2
100
AcDbLine
 10
1.500040339160477
 20
1.500007834252755
 30
0.0
 11
1.500040339160477
 21
2.500007834252755
 31
0.0
  0
LINE
  5
279
330
271
100
AcDbEntity
  8
外框线5
 48
0.2
100
AcDbLine
 10
1.500040339160477
 20
48.00000783426367
 30
0.0
 11
0.0000403391604777
 21
48.00000783426367
 31
0.0
  0
LINE
  5
27A
330
271
100
AcDbEntity
  8
外框线5
 48
0.2
100
AcDbLine
 10
20.00004033916048
 20
0.0000078342527559
 30
0.0
 11
20.00004033916048
 21
1.500007834252755
 31
0.0
  0
LINE
  5
27B
330
271
100
AcDbEntity
  8
外框线5
100
AcDbLine
 10
20.00004033916048
 20
2.500007834252755
 30
0.0
 11
1.500040339160477
 21
2.500007834252755
 31
0.0
  0
LINE
  5
27C
330
271
100
AcDbEntity
  8
外框线5
100
AcDbLine
 10
20.00004033916048
 20
2.500007834252755
 30
0.0
 11
20.00004033917503
 21
48.00000783426367
 31
0.0
  0
LINE
  5
27D
330
271
100
AcDbEntity
  8
外框线5
100
AcDbLine
 10
20.00004033917503
 20
48.00000783426367
 30
0.0
 11
1.500040339160477
 21
48.00000783426367
 31
0.0
  0
LINE
  5
27E
330
271
100
AcDbEntity
  8
外框线2
  6
HIDDEN2
100
AcDbLine
 10
1.500040339160477
 20
2.500007834252755
 30
0.0
 11
1.500040339160477
 21
48.00000783426367
 31
0.0
  0
ENDBLK
  5
27F
330
271
100
AcDbEntity
  8
0
100
AcDbBlockEnd
  0
BLOCK
  5
283
330
280
100
AcDbEntity
  8
0
100
AcDbBlockBegin
  2
A$C4F516713
 70
     0
 10
0.0
 20
0.0
 30
0.0
  3
A$C4F516713
  1

  0
LWPOLYLINE
  5
284
330
280
100
AcDbEntity
  8
外框线1
100
AcDbPolyline
 90
        2
 70
     0
 43
0.0
 10
0.000002537650289
 20
85.00001425619121
 10
510.0000025376503
 20
85.00001425619121
  0
LWPOLYLINE
  5
285
330
280
100
AcDbEntity
  8
外框线2
  6
HIDDEN
 48
0.2
100
AcDbPolyline
 90
        2
 70
     0
 43
0.0
 10
0.000002537650289
 20
84.00001425619121
 10
510.0000025376503
 20
84.00001425619121
  0
LINE
  5
286
330
280
100
AcDbEntity
  8
外框线1
100
AcDbLine
 10
0.000002537650289
 20
0.0000142561912071
 30
0.0
 11
510.0000025376503
 21
0.0000142561912071
 31
0.0
  0
LINE
  5
287
330
280
100
AcDbEntity
  8
外框线2
  6
HIDDEN
 48
0.2
100
AcDbLine
 10
0.000002537650289
 20
1.000014256191207
 30
0.0
 11
510.0000025376503
 21
1.000014256191207
 31
0.0
  0
LINE
  5
288
330
280
100
AcDbEntity
  8
外框线1
100
AcDbLine
 10
0.000002537650289
 20
0.0000142561912071
 30
0.0
 11
0.000002537650289
 21
85.00001425619121
 31
0.0
  0
LINE
  5
289
330
280
100
AcDbEntity
  8
外框线1
100
AcDbLine
 10
510.0000025376503
 20
0.0000142561912071
 30
0.0
 11
510.0000025376503
 21
85.00001425619121
 31
0.0
  0
CIRCLE
  5
28A
330
280
100
AcDbEntity
  8
外框线2
  6
HIDDEN
 48
0.2
100
AcDbCircle
 10
160.0000025376503
 20
53.00001425619121
 30
0.0
 40
19.0
  0
ENDBLK
  5
28B
330
280
100
AcDbEntity
  8
0
100
AcDbBlockEnd
  0
BLOCK
  5
28F
330
28C
100
AcDbEntity
  8
0
100
AcDbBlockBegin
  2
A$C6E3C7DD4
 70
     0
 10
0.0
 20
0.0
 30
0.0
  3
A$C6E3C7DD4
  1

  0
LINE
  5
290
330
28C
100
AcDbEntity
  8
外框线1
100
AcDbLine
 10
-0.0001005178201012
 20
13.9999705801456
 30
0.0
 11
509.9998994821799
 21
13.99997058014924
 31
0.0
  0
LINE
  5
291
330
28C
100
AcDbEntity
  8
外框线2
  6
HIDDEN
 48
0.2
100
AcDbLine
 10
4.999899482150794
 20
1.9999705801456
 30
0.0
 11
504.9998994821798
 21
1.999970580149238
 31
0.0
  0
LINE
  5
292
330
28C
100
AcDbEntity
  8
外框线1
100
AcDbLine
 10
509.9998994821799
 20
13.99997058014924
 30
0.0
 11
509.9998994821799
 21
4.999970580149238
 31
0.0
  0
LINE
  5
293
330
28C
100
AcDbEntity
  8
外框线1
100
AcDbLine
 10
504.9998994821798
 20
-0.0000294198507618
 30
0.0
 11
4.999899482179898
 21
-0.0000294198507618
 31
0.0
  0
ARC
  5
294
330
28C
100
AcDbEntity
  8
外框线1
100
AcDbCircle
 10
504.9998994821798
 20
4.999970580149238
 30
0.0
 40
5.0
100
AcDbArc
 50
270.0
 51
0.0
  0
ARC
  5
295
330
28C
100
AcDbEntity
  8
外框线1
100
AcDbCircle
 10
4.999899482179898
 20
4.999970580149238
 30
0.0
 40
5.0
100
AcDbArc
 50
180.0
 51
270.0
  0
LINE
  5
296
330
28C
100
AcDbEntity
  8
外框线1
100
AcDbLine
 10
-0.0001005178201012
 20
4.999970580149238
 30
0.0
 11
-0.0001005178201012
 21
13.9999705801456
 31
0.0
  0
ARC
  5
297
330
28C
100
AcDbEntity
  8
外框线2
  6
HIDDEN
 48
0.2
100
AcDbCircle
 10
504.9998994821798
 20
6.999970580149238
 30
0.0
 40
5.0
100
AcDbArc
 50
270.0
 51
0.0
  0
ARC
  5
298
330
28C
100
AcDbEntity
  8
外框线2
  6
HIDDEN
 48
0.2
100
AcDbCircle
 10
4.999899482150794
 20
6.999970580149238
 30
0.0
 40
5.0
100
AcDbArc
 50
180.0
 51
270.0
  0
LINE
  5
299
330
28C
100
AcDbEntity
  8
外框线2
 48
0.2
100
AcDbLine
 10
60.29989948216826
 20
3.999970580149238
 30
0.0
 11
74.69989948216244
 21
3.999970580149238
 31
0.0
  0
ARC
  5
29A
330
28C
100
AcDbEntity
  8
外框线2
 48
0.2
100
AcDbCircle
 10
74.69989948216244
 20
4.29997058014851
 30
0.0
 40
0.3
100
AcDbArc
 50
270.0
 51
0.0
  0
LINE
  5
29B
330
28C
100
AcDbEntity
  8
外框线2
 48
0.2
100
AcDbLine
 10
60.29989948216826
 20
7.999970580149238
 30
0.0
 11
74.69989948216244
 21
7.999970580149238
 31
0.0
  0
ARC
  5
29C
330
28C
100
AcDbEntity
  8
外框线2
 48
0.2
100
AcDbCircle
 10
60.29989948216826
 20
7.699970580149965
 30
0.0
 40
0.3
100
AcDbArc
 50
90.0
 51
180.0
  0
LINE
  5
29D
330
28C
100
AcDbEntity
  8
外框线2
 48
0.2
100
AcDbLine
 10
59.9998994821799
 20
7.699970580149965
 30
0.0
 11
59.9998994821799
 21
4.29997058014851
 31
0.0
  0
ARC
  5
29E
330
28C
100
AcDbEntity
  8
外框线2
 48
0.2
100
AcDbCircle
 10
60.29989948216826
 20
4.29997058014851
 30
0.0
 40
0.3
100
AcDbArc
 50
180.0
 51
270.0
  0
LINE
  5
29F
330
28C
100
AcDbEntity
  8
外框线2
 48
0.2
100
AcDbLine
 10
74.9998994821799
 20
7.699970580149965
 30
0.0
 11
74.9998994821799
 21
4.29997058014851
 31
0.0
  0
ARC
  5
2A0
330
28C
100
AcDbEntity
  8
外框线2
 48
0.2
100
AcDbCircle
 10
74.69989948216244
 20
7.699970580149965
 30
0.0
 40
0.3
100
AcDbArc
 50
0.0
 51
90.0
  0
LINE
  5
2A1
330
28C
100
AcDbEntity
  8
外框线2
 48
0.2
100
AcDbLine
 10
280.2998994821392
 20
3.999970580149238
 30
0.0
 11
294.6998994821333
 21
3.999970580149238
 31
0.0
  0
ARC
  5
2A2
330
28C
100
AcDbEntity
  8
外框线2
 48
0.2
100
AcDbCircle
 10
294.6998994821333
 20
4.29997058014851
 30
0.0
 40
0.3
100
AcDbArc
 50
270.0
 51
0.0
  0
LINE
  5
2A3
330
28C
100
AcDbEntity
  8
外框线2
 48
0.2
100
AcDbLine
 10
280.2998994821392
 20
7.999970580149238
 30
0.0
 11
294.6998994821333
 21
7.999970580149238
 31
0.0
  0
ARC
  5
2A4
330
28C
100
AcDbEntity
  8
外框线2
 48
0.2
100
AcDbCircle
 10
280.2998994821392
 20
7.699970580149965
 30
0.0
 40
0.3
100
AcDbArc
 50
90.0
 51
180.0
  0
LINE
  5
2A5
330
28C
100
AcDbEntity
  8
外框线2
 48
0.2
100
AcDbLine
 10
279.9998994821508
 20
7.699970580149965
 30
0.0
 11
279.9998994821508
 21
4.29997058014851
 31
0.0
  0
ARC
  5
2A6
330
28C
100
AcDbEntity
  8
外框线2
 48
0.2
100
AcDbCircle
 10
280.2998994821392
 20
4.29997058014851
 30
0.0
 40
0.3
100
AcDbArc
 50
180.0
 51
270.0
  0
LINE
  5
2A7
330
28C
100
AcDbEntity
  8
外框线2
 48
0.2
100
AcDbLine
 10
294.9998994821508
 20
7.699970580149965
 30
0.0
 11
294.9998994821508
 21
4.29997058014851
 31
0.0
  0
ARC
  5
2A8
330
28C
100
AcDbEntity
  8
外框线2
 48
0.2
100
AcDbCircle
 10
294.6998994821333
 20
7.699970580149965
 30
0.0
 40
0.3
100
AcDbArc
 50
0.0
 51
90.0
  0
LINE
  5
2A9
330
28C
100
AcDbEntity
  8
外框线2
 48
0.2
100
AcDbLine
 10
405.2998994821973
 20
3.999970580149238
 30
0.0
 11
419.6998994821915
 21
3.999970580149238
 31
0.0
  0
ARC
  5
2AA
330
28C
100
AcDbEntity
  8
外框线2
 48
0.2
100
AcDbCircle
 10
419.6998994821915
 20
4.29997058014851
 30
0.0
 40
0.3
100
AcDbArc
 50
270.0
 51
0.0
  0
LINE
  5
2AB
330
28C
100
AcDbEntity
  8
外框线2
 48
0.2
100
AcDbLine
 10
405.2998994821973
 20
7.999970580149238
 30
0.0
 11
419.6998994821915
 21
7.999970580149238
 31
0.0
  0
ARC
  5
2AC
330
28C
100
AcDbEntity
  8
外框线2
 48
0.2
100
AcDbCircle
 10
405.2998994821973
 20
7.699970580149965
 30
0.0
 40
0.3
100
AcDbArc
 50
90.0
 51
180.0
  0
LINE
  5
2AD
330
28C
100
AcDbEntity
  8
外框线2
 48
0.2
100
AcDbLine
 10
404.999899482209
 20
7.699970580149965
 30
0.0
 11
404.999899482209
 21
4.29997058014851
 31
0.0
  0
ARC
  5
2AE
330
28C
100
AcDbEntity
  8
外框线2
 48
0.2
100
AcDbCircle
 10
405.2998994821973
 20
4.29997058014851
 30
0.0
 40
0.3
100
AcDbArc
 50
180.0
 51
270.0
  0
LINE
  5
2AF
330
28C
100
AcDbEntity
  8
外框线2
 48
0.2
100
AcDbLine
 10
419.999899482209
 20
7.699970580149965
 30
0.0
 11
419.999899482209
 21
4.29997058014851
 31
0.0
  0
ARC
  5
2B0
330
28C
100
AcDbEntity
  8
外框线2
 48
0.2
100
AcDbCircle
 10
419.6998994821915
 20
7.699970580149965
 30
0.0
 40
0.3
100
AcDbArc
 50
0.0
 51
90.0
  0
LINE
  5
2B1
330
28C
100
AcDbEntity
  8
外框线2
 48
0.2
100
AcDbLine
 10
170.2998994822264
 20
3.999970580149238
 30
0.0
 11
184.6998994822206
 21
3.999970580149238
 31
0.0
  0
ARC
  5
2B2
330
28C
100
AcDbEntity
  8
外框线2
 48
0.2
100
AcDbCircle
 10
184.6998994822206
 20
4.29997058014851
 30
0.0
 40
0.3
100
AcDbArc
 50
270.0
 51
0.0
  0
LINE
  5
2B3
330
28C
100
AcDbEntity
  8
外框线2
 48
0.2
100
AcDbLine
 10
170.2998994822264
 20
7.999970580149238
 30
0.0
 11
184.6998994822206
 21
7.999970580149238
 31
0.0
  0
ARC
  5
2B4
330
28C
100
AcDbEntity
  8
外框线2
 48
0.2
100
AcDbCircle
 10
170.2998994822264
 20
7.699970580149965
 30
0.0
 40
0.3
100
AcDbArc
 50
90.0
 51
180.0
  0
LINE
  5
2B5
330
28C
100
AcDbEntity
  8
外框线2
 48
0.2
100
AcDbLine
 10
169.9998994822381
 20
7.699970580149965
 30
0.0
 11
169.9998994822381
 21
4.29997058014851
 31
0.0
  0
ARC
  5
2B6
330
28C
100
AcDbEntity
  8
外框线2
 48
0.2
100
AcDbCircle
 10
170.2998994822264
 20
4.29997058014851
 30
0.0
 40
0.3
100
AcDbArc
 50
180.0
 51
270.0
  0
LINE
  5
2B7
330
28C
100
AcDbEntity
  8
外框线2
 48
0.2
100
AcDbLine
 10
184.9998994822381
 20
7.699970580149965
 30
0.0
 11
184.9998994822381
 21
4.29997058014851
 31
0.0
  0
ARC
  5
2B8
330
28C
100
AcDbEntity
  8
外框线2
 48
0.2
100
AcDbCircle
 10
184.6998994822206
 20
7.699970580149965
 30
0.0
 40
0.3
100
AcDbArc
 50
0.0
 51
90.0
  0
ENDBLK
  5
2B9
330
28C
100
AcDbEntity
  8
0
100
AcDbBlockEnd
  0
BLOCK
  5
2BD
330
2BA
100
AcDbEntity
  8
0
100
AcDbBlockBegin
  2
A$C6A1E44B3
 70
     0
 10
0.0
 20
0.0
 30
0.0
  3
A$C6A1E44B3
  1

  0
LINE
  5
2BE
330
2BA
100
AcDbEntity
  8
外框线5
100
AcDbLine
 10
0.0000000001164153
 20
83.00011253135744
 30
0.0
 11
20.00000000011642
 21
83.00011253135744
 31
0.0
  0
LINE
  5
2BF
330
2BA
100
AcDbEntity
  8
外框线5
100
AcDbLine
 10
1.500000000116415
 20
81.50011253135744
 30
0.0
 11
20.00000000011642
 21
81.50011253135744
 31
0.0
  0
LINE
  5
2C0
330
2BA
100
AcDbEntity
  8
外框线5
100
AcDbLine
 10
1.500000000116415
 20
70.00011253135745
 30
0.0
 11
20.00000000011642
 21
70.00011253135745
 31
0.0
  0
LINE
  5
2C1
330
2BA
100
AcDbEntity
  8
外框线5
100
AcDbLine
 10
0.0000000001164153
 20
83.00011253135744
 30
0.0
 11
0.0000000001164153
 21
0.0001125313574448
 31
0.0
  0
LINE
  5
2C2
330
2BA
100
AcDbEntity
  8
外框线2
100
AcDbLine
 10
1.500000000116415
 20
70.00011253135745
 30
0.0
 11
1.500000000116415
 21
0.0001125313574448
 31
0.0
  0
LINE
  5
2C3
330
2BA
100
AcDbEntity
  8
外框线5
100
AcDbLine
 10
0.0000000001164153
 20
0.0001125313574448
 30
0.0
 11
20.00000000011642
 21
0.0001125313574448
 31
0.0
  0
LINE
  5
2C4
330
2BA
100
AcDbEntity
  8
外框线5
100
AcDbLine
 10
20.00000000011642
 20
0.0001125313574448
 30
0.0
 11
20.00000000011642
 21
70.00011253135745
 31
0.0
  0
LINE
  5
2C5
330
2BA
100
AcDbEntity
  8
外框线5
100
AcDbLine
 10
20.00000000011642
 20
81.50011253135744
 30
0.0
 11
20.00000000011642
 21
83.00011253135744
 31
0.0
  0
LINE
  5
2C6
330
2BA
100
AcDbEntity
  8
外框线5
100
AcDbLine
 10
1.500000000116415
 20
81.50011253135744
 30
0.0
 11
1.500000000116415
 21
70.00011253135745
 31
0.0
  0
ENDBLK
  5
2C7
330
2BA
100
AcDbEntity
  8
0
100
AcDbBlockEnd
  0
BLOCK
  5
63D
330
63C
100
AcDbEntity
  8
0
100
AcDbBlockBegin
  2
*D29
 70
     1
 10
0.0
 20
0.0
 30
0.0
  3
*D29
  1

  0
LINE
  5
6AF
330
63C
100
AcDbEntity
  8
标注
 62
     0
440
 16777216
370
    -2
100
AcDbLine
 10
3208.254685070139
 20
1510.565270300767
 30
0.0
 11
3123.985604555179
 21
1571.935582634132
 31
0.0
  0
LINE
  5
6B0
330
63C
100
AcDbEntity
  8
标注
 62
     0
440
 16777216
370
    -2
100
AcDbLine
 10
3022.53718280582
 20
1645.81702634325
 30
0.0
 11
3012.836935307867
 21
1652.881387494725
 31
0.0
  0
MTEXT
  5
6B1
102
{ACAD_XDICTIONARY
360
7E2
102
}
330
63C
100
AcDbEntity
  8
标注
 62
     0
440
 16777216
100
AcDbMText
 10
3179.747231318317
 20
1549.77010864258
 30
0.0
 40
18.39999999999998
 41
0.0
 46
0.0
 71
     5
 72
     1
  1
∅101.5
 11
0.8083539581627539
 21
-0.5886967626228369
 31
0.0
 73
     1
 44
1.0
  0
LINE
  5
6B2
330
63C
100
AcDbEntity
  8
标注
 62
     0
440
 16777216
370
    -2
100
AcDbLine
 10
3032.237430303773
 20
1638.752665191776
 30
0.0
 11
3114.285357057226
 21
1578.999943785606
 31
0.0
  0
SOLID
  5
6B3
330
63C
100
AcDbEntity
  8
标注
 62
     0
440
 16777216
100
AcDbTrace
 10
3023.714576331065
 20
1647.433734259576
 30
0.0
 11
3021.359789280574
 21
1644.200318426924
 31
0.0
 12
3032.237430303773
 22
1638.752665191776
 32
0.0
 13
3032.237430303773
 23
1638.752665191776
 33
0.0
  0
SOLID
  5
6B4
330
63C
100
AcDbEntity
  8
标注
 62
     0
440
 16777216
100
AcDbTrace
 10
3125.162998080425
 20
1573.552290550457
 30
0.0
 11
3122.808211029934
 21
1570.318874717807
 31
0.0
 12
3114.285357057226
 22
1578.999943785606
 32
0.0
 13
3114.285357057226
 23
1578.999943785606
 33
0.0
  0
POINT
  5
6B5
330
63C
100
AcDbEntity
  8
Defpoints
 62
     0
440
 16777216
100
AcDbPoint
 10
3114.285357057226
 20
1578.999943785606
 30
0.0
  0
POINT
  5
6B6
330
63C
100
AcDbEntity
  8
Defpoints
 62
     0
440
 16777216
100
AcDbPoint
 10
3032.237430303773
 20
1638.752665191776
 30
0.0
  0
ENDBLK
  5
63E
330
63C
100
AcDbEntity
  8
0
100
AcDbBlockEnd
  0
BLOCK
  5
648
330
647
100
AcDbEntity
  8
0
100
AcDbBlockBegin
  2
*D30
 70
     1
 10
0.0
 20
0.0
 30
0.0
  3
*D30
  1

  0
LINE
  5
6B7
330
647
100
AcDbEntity
  8
标注
 62
     0
440
 16777216
370
    -2
100
AcDbLine
 10
2738.261393680521
 20
1728.87630448872
 30
0.0
 11
2674.75816189628
 21
1728.87630448872
 31
0.0
  0
LINE
  5
6B8
330
647
100
AcDbEntity
  8
标注
 62
     0
440
 16777216
370
    -2
100
AcDbLine
 10
2738.261393680521
 20
1328.87630448872
 30
0.0
 11
2674.75816189628
 21
1328.87630448872
 31
0.0
  0
LINE
  5
6B9
330
647
100
AcDbEntity
  8
标注
 62
     0
440
 16777216
370
    -2
100
AcDbLine
 10
2684.75816189628
 20
1716.87630448872
 30
0.0
 11
2684.75816189628
 21
1340.87630448872
 31
0.0
  0
SOLID
  5
6BA
330
647
100
AcDbEntity
  8
标注
 62
     0
440
 16777216
100
AcDbTrace
 10
2682.75816189628
 20
1716.87630448872
 30
0.0
 11
2686.75816189628
 21
1716.87630448872
 31
0.0
 12
2684.75816189628
 22
1728.87630448872
 32
0.0
 13
2684.75816189628
 23
1728.87630448872
 33
0.0
  0
SOLID
  5
6BB
330
647
100
AcDbEntity
  8
标注
 62
     0
440
 16777216
100
AcDbTrace
 10
2682.75816189628
 20
1340.87630448872
 30
0.0
 11
2686.75816189628
 21
1340.87630448872
 31
0.0
 12
2684.75816189628
 22
1328.87630448872
 32
0.0
 13
2684.75816189628
 23
1328.87630448872
 33
0.0
  0
MTEXT
  5
6BC
330
647
100
AcDbEntity
  8
标注
 62
     0
440
 16777216
100
AcDbMText
 10
2670.3636189222
 20
1528.87630448872
 30
0.0
 40
18.39999999999998
 41
0.0
 46
0.0
 71
     5
 72
     1
  1
400
 11
0.0000000000000001
 21
1.0
 31
0.0
 73
     1
 44
1.0
  0
POINT
  5
6BD
330
647
100
AcDbEntity
  8
Defpoints
 62
     0
440
 16777216
100
AcDbPoint
 10
2743.261393680521
 20
1728.87630448872
 30
0.0
  0
POINT
  5
6BE
330
647
100
AcDbEntity
  8
Defpoints
 62
     0
440
 16777216
100
AcDbPoint
 10
2743.261393680521
 20
1328.87630448872
 30
0.0
  0
POINT
  5
6BF
330
647
100
AcDbEntity
  8
Defpoints
 62
     0
440
 16777216
100
AcDbPoint
 10
2684.75816189628
 20
1328.87630448872
 30
0.0
  0
ENDBLK
  5
649
330
647
100
AcDbEntity
  8
0
100
AcDbBlockEnd
  0
BLOCK
  5
654
330
653
100
AcDbEntity
  8
0
100
AcDbBlockBegin
  2
*D31
 70
     1
 10
0.0
 20
0.0
 30
0.0
  3
*D31
  1

  0
LINE
  5
6C0
330
653
100
AcDbEntity
  8
标注
 62
     0
440
 16777216
370
    -2
100
AcDbLine
 10
2718.261393680521
 20
1828.87630448872
 30
0.0
 11
2641.639574652268
 21
1828.87630448872
 31
0.0
  0
LINE
  5
6C1
330
653
100
AcDbEntity
  8
标注
 62
     0
440
 16777216
370
    -2
100
AcDbLine
 10
2718.261393680521
 20
1308.87630448872
 30
0.0
 11
2641.639574652268
 21
1308.87630448872
 31
0.0
  0
LINE
  5
6C2
330
653
100
AcDbEntity
  8
标注
 62
     0
440
 16777216
370
    -2
100
AcDbLine
 10
2651.639574652269
 20
1816.87630448872
 30
0.0
 11
2651.639574652269
 21
1320.87630448872
 31
0.0
  0
SOLID
  5
6C3
330
653
100
AcDbEntity
  8
标注
 62
     0
440
 16777216
100
AcDbTrace
 10
2649.639574652269
 20
1816.87630448872
 30
0.0
 11
2653.639574652269
 21
1816.87630448872
 31
0.0
 12
2651.639574652269
 22
1828.87630448872
 32
0.0
 13
2651.639574652269
 23
1828.87630448872
 33
0.0
  0
SOLID
  5
6C4
330
653
100
AcDbEntity
  8
标注
 62
     0
440
 16777216
100
AcDbTrace
 10
2649.639574652269
 20
1320.87630448872
 30
0.0
 11
2653.639574652269
 21
1320.87630448872
 31
0.0
 12
2651.639574652269
 22
1308.87630448872
 32
0.0
 13
2651.639574652269
 23
1308.87630448872
 33
0.0
  0
MTEXT
  5
6C5
102
{ACAD_XDICTIONARY
360
7E4
102
}
330
653
100
AcDbEntity
  8
标注
 62
     0
440
 16777216
100
AcDbMText
 10
2637.245031678189
 20
1568.87630448872
 30
0.0
 40
18.4
 41
0.0
 46
0.0
 71
     5
 72
     1
  1
\A1;520±0.2
 11
0.0000000000000001
 21
1.0
 31
0.0
 73
     1
 44
1.0
  0
POINT
  5
6C6
330
653
100
AcDbEntity
  8
Defpoints
 62
     0
440
 16777216
100
AcDbPoint
 10
2723.261393680521
 20
1828.87630448872
 30
0.0
  0
POINT
  5
6C7
330
653
100
AcDbEntity
  8
Defpoints
 62
     0
440
 16777216
100
AcDbPoint
 10
2723.261393680521
 20
1308.87630448872
 30
0.0
  0
POINT
  5
6C8
330
653
100
AcDbEntity
  8
Defpoints
 62
     0
440
 16777216
100
AcDbPoint
 10
2651.639574652269
 20
1308.87630448872
 30
0.0
  0
ENDBLK
  5
655
330
653
100
AcDbEntity
  8
0
100
AcDbBlockEnd
  0
BLOCK
  5
660
330
65F
100
AcDbEntity
  8
0
100
AcDbBlockBegin
  2
*D32
 70
     1
 10
0.0
 20
0.0
 30
0.0
  3
*D32
  1

  0
LINE
  5
6C9
330
65F
100
AcDbEntity
  8
标注
 62
     0
440
 16777216
370
    -2
100
AcDbLine
 10
2654.049143316322
 20
1264.684331463066
 30
0.0
 11
2705.939425803928
 21
1305.313508726715
 31
0.0
  0
MTEXT
  5
6CA
330
65F
100
AcDbEntity
  8
标注
 62
     0
440
 16777216
100
AcDbMText
 10
2666.396009391732
 20
1292.633694477755
 30
0.0
 40
18.39999999999998
 41
0.0
 46
0.0
 71
     5
 72
     1
  1
R10
 11
0.7873621762086107
 21
0.6164907164556826
 31
0.0
 73
     1
 44
1.0
  0
LINE
  5
6CB
330
65F
100
AcDbEntity
  8
标注
 62
     0
440
 16777216
370
    -2
100
AcDbLine
 10
2723.261393680492
 20
1318.87630448872
 30
0.0
 11
2715.387771918431
 21
1312.711397324183
 31
0.0
  0
SOLID
  5
6CC
330
65F
100
AcDbEntity
  8
标注
 62
     0
440
 16777216
100
AcDbTrace
 10
2704.706444371016
 20
1306.888233079132
 30
0.0
 11
2707.172407236839
 21
1303.738784374298
 31
0.0
 12
2715.387771918431
 22
1312.711397324183
 32
0.0
 13
2715.387771918431
 23
1312.711397324183
 33
0.0
  0
POINT
  5
6CD
330
65F
100
AcDbEntity
  8
Defpoints
 62
     0
440
 16777216
100
AcDbPoint
 10
2715.387771918431
 20
1312.711397324183
 30
0.0
  0
POINT
  5
6CE
330
65F
100
AcDbEntity
  8
Defpoints
 62
     0
440
 16777216
100
AcDbPoint
 10
2723.261393680492
 20
1318.87630448872
 30
0.0
  0
ENDBLK
  5
661
330
65F
100
AcDbEntity
  8
0
100
AcDbBlockEnd
  0
BLOCK
  5
669
330
668
100
AcDbEntity
  8
0
100
AcDbBlockBegin
  2
*D33
 70
     1
 10
0.0
 20
0.0
 30
0.0
  3
*D33
  1

  0
LINE
  5
722
330
668
100
AcDbEntity
  8
标注
 62
     0
440
 16777216
370
    -2
100
AcDbLine
 10
2817.604251165663
 20
1385.783074595498
 30
0.0
 11
2761.867414759734
 21
1350.615809572137
 31
0.0
  0
MTEXT
  5
723
330
668
100
AcDbEntity
  8
标注
 62
     0
440
 16777216
100
AcDbMText
 10
2787.12907460167
 20
1383.574996652021
 30
0.0
 40
18.39999999999998
 41
0.0
 46
0.0
 71
     5
 72
     1
  1
R10
 11
0.8457282308693731
 21
0.5336138674271504
 31
0.0
 73
     1
 44
1.0
  0
LINE
  5
724
330
668
100
AcDbEntity
  8
标注
 62
     0
440
 16777216
370
    -2
100
AcDbLine
 10
2743.261393680624
 20
1338.876304488749
 30
0.0
 11
2751.718675989302
 21
1344.212443163011
 31
0.0
  0
SOLID
  5
725
330
668
100
AcDbEntity
  8
标注
 62
     0
440
 16777216
100
AcDbTrace
 10
2760.80018702488
 20
1352.307266033875
 30
0.0
 11
2762.934642494589
 21
1348.924353110398
 31
0.0
 12
2751.718675989302
 22
1344.212443163011
 32
0.0
 13
2751.718675989302
 23
1344.212443163011
 33
0.0
  0
ARC
  5
726
330
668
100
AcDbEntity
  8
标注
 62
     0
440
 16777216
370
    -2
100
AcDbCircle
 10
2743.261393680624
 20
1338.876304488749
 30
0.0
 40
9.99999999998181
100
AcDbArc
 50
298.6478897565933
 51
89.5457355798525
  0
POINT
  5
727
330
668
100
AcDbEntity
  8
Defpoints
 62
     0
440
 16777216
100
AcDbPoint
 10
2751.718675989302
 20
1344.212443163011
 30
0.0
  0
POINT
  5
728
330
668
100
AcDbEntity
  8
Defpoints
 62
     0
440
 16777216
100
AcDbPoint
 10
2743.261393680624
 20
1338.876304488749
 30
0.0
  0
ENDBLK
  5
66A
330
668
100
AcDbEntity
  8
0
100
AcDbBlockEnd
  0
BLOCK
  5
673
330
672
100
AcDbEntity
  8
0
100
AcDbBlockBegin
  2
*D34
 70
     1
 10
0.0
 20
0.0
 30
0.0
  3
*D34
  1

  0
LINE
  5
729
330
672
100
AcDbEntity
  8
标注
 62
     0
440
 16777216
370
    -2
100
AcDbLine
 10
2987.604251166418
 20
1385.78307459403
 30
0.0
 11
2931.867414759837
 21
1350.615809571701
 31
0.0
  0
MTEXT
  5
72A
330
672
100
AcDbEntity
  8
标注
 62
     0
440
 16777216
100
AcDbMText
 10
2957.129074602384
 20
1383.574996651118
 30
0.0
 40
18.39999999999998
 41
0.0
 46
0.0
 71
     5
 72
     1
  1
R10
 11
0.8457282308792553
 21
0.533613867411488
 31
0.0
 73
     1
 44
1.0
  0
LINE
  5
72B
330
672
100
AcDbEntity
  8
标注
 62
     0
440
 16777216
370
    -2
100
AcDbLine
 10
2913.261393680492
 20
1338.876304488647
 30
0.0
 11
2921.718675989287
 21
1344.212443162763
 31
0.0
  0
SOLID
  5
72C
330
672
100
AcDbEntity
  8
标注
 62
     0
440
 16777216
100
AcDbTrace
 10
2930.800187025015
 20
1352.30726603346
 30
0.0
 11
2932.934642494661
 21
1348.924353109943
 31
0.0
 12
2921.718675989287
 22
1344.212443162763
 32
0.0
 13
2921.718675989287
 23
1344.212443162763
 33
0.0
  0
ARC
  5
72D
330
672
100
AcDbEntity
  8
标注
 62
     0
440
 16777216
370
    -2
100
AcDbCircle
 10
2913.261393680492
 20
1338.876304488647
 30
0.0
 40
10.00000000000227
100
AcDbArc
 50
298.6478897565346
 51
89.54573557867448
  0
POINT
  5
72E
330
672
100
AcDbEntity
  8
Defpoints
 62
     0
440
 16777216
100
AcDbPoint
 10
2921.718675989287
 20
1344.212443162763
 30
0.0
  0
POINT
  5
72F
330
672
100
AcDbEntity
  8
Defpoints
 62
     0
440
 16777216
100
AcDbPoint
 10
2913.261393680492
 20
1338.876304488647
 30
0.0
  0
ENDBLK
  5
674
330
672
100
AcDbEntity
  8
0
100
AcDbBlockEnd
  0
BLOCK
  5
67D
330
67C
100
AcDbEntity
  8
0
100
AcDbBlockBegin
  2
*D35
 70
     1
 10
0.0
 20
0.0
 30
0.0
  3
*D35
  1

  0
LINE
  5
74A
330
67C
100
AcDbEntity
  8
标注
 62
     0
440
 16777216
370
    -2
100
AcDbLine
 10
2893.261393680521
 20
1788.876304488705
 30
0.0
 11
2893.261393680521
 21
1883.159658362612
 31
0.0
  0
LINE
  5
74B
330
67C
100
AcDbEntity
  8
标注
 62
     0
440
 16777216
370
    -2
100
AcDbLine
 10
3268.261393680521
 20
1838.87630448872
 30
0.0
 11
3268.261393680521
 21
1883.159658362612
 31
0.0
  0
LINE
  5
74C
330
67C
100
AcDbEntity
  8
标注
 62
     0
440
 16777216
370
    -2
100
AcDbLine
 10
2905.261393680521
 20
1873.159658362612
 30
0.0
 11
3256.261393680521
 21
1873.159658362612
 31
0.0
  0
SOLID
  5
74D
330
67C
100
AcDbEntity
  8
标注
 62
     0
440
 16777216
100
AcDbTrace
 10
2905.261393680521
 20
1875.159658362612
 30
0.0
 11
2905.261393680521
 21
1871.159658362612
 31
0.0
 12
2893.261393680521
 22
1873.159658362612
 32
0.0
 13
2893.261393680521
 23
1873.159658362612
 33
0.0
  0
SOLID
  5
74E
330
67C
100
AcDbEntity
  8
标注
 62
     0
440
 16777216
100
AcDbTrace
 10
3256.261393680521
 20
1875.159658362612
 30
0.0
 11
3256.261393680521
 21
1871.159658362612
 31
0.0
 12
3268.261393680521
 22
1873.159658362612
 32
0.0
 13
3268.261393680521
 23
1873.159658362612
 33
0.0
  0
MTEXT
  5
74F
330
67C
100
AcDbEntity
  8
标注
 62
     0
440
 16777216
100
AcDbMText
 10
3080.761393680521
 20
1887.5604769165
 30
0.0
 40
18.39999999999998
 41
0.0
 46
0.0
 71
     5
 72
     1
  1
375
 73
     1
 44
1.0
  0
POINT
  5
750
330
67C
100
AcDbEntity
  8
Defpoints
 62
     0
440
 16777216
100
AcDbPoint
 10
2893.261393680521
 20
1783.876304488705
 30
0.0
  0
POINT
  5
751
330
67C
100
AcDbEntity
  8
Defpoints
 62
     0
440
 16777216
100
AcDbPoint
 10
3268.261393680521
 20
1833.87630448872
 30
0.0
  0
POINT
  5
752
330
67C
100
AcDbEntity
  8
Defpoints
 62
     0
440
 16777216
100
AcDbPoint
 10
3268.261393680521
 20
1873.159658362612
 30
0.0
  0
ENDBLK
  5
67E
330
67C
100
AcDbEntity
  8
0
100
AcDbBlockEnd
  0
BLOCK
  5
689
330
688
100
AcDbEntity
  8
0
100
AcDbBlockBegin
  2
*D36
 70
     1
 10
0.0
 20
0.0
 30
0.0
  3
*D36
  1

  0
LINE
  5
76B
330
688
100
AcDbEntity
  8
标注
 62
     0
440
 16777216
370
    -2
100
AcDbLine
 10
2809.444381502828
 20
1140.292776678329
 30
0.0
 11
2851.626836796924
 21
1140.292776678329
 31
0.0
  0
LINE
  5
76C
330
688
100
AcDbEntity
  8
标注
 62
     0
440
 16777216
370
    -2
100
AcDbLine
 10
2809.444381502828
 20
1180.29581766557
 30
0.0
 11
2851.626836796924
 21
1180.29581766557
 31
0.0
  0
LINE
  5
76D
330
688
100
AcDbEntity
  8
标注
 62
     0
440
 16777216
370
    -2
100
AcDbLine
 10
2841.626836796925
 20
1168.29581766557
 30
0.0
 11
2841.626836796925
 21
1152.292776678328
 31
0.0
  0
LINE
  5
76E
330
688
100
AcDbEntity
  8
标注
 62
     0
440
 16777216
370
    -2
100
AcDbLine
 10
2841.626836796925
 20
1140.292776678329
 30
0.0
 11
2841.626836796925
 21
1089.879939674494
 31
0.0
  0
SOLID
  5
76F
330
688
100
AcDbEntity
  8
标注
 62
     0
440
 16777216
100
AcDbTrace
 10
2839.626836796925
 20
1168.29581766557
 30
0.0
 11
2843.626836796925
 21
1168.29581766557
 31
0.0
 12
2841.626836796925
 22
1180.29581766557
 32
0.0
 13
2841.626836796925
 23
1180.29581766557
 33
0.0
  0
SOLID
  5
770
330
688
100
AcDbEntity
  8
标注
 62
     0
440
 16777216
100
AcDbTrace
 10
2839.626836796925
 20
1152.292776678328
 30
0.0
 11
2843.626836796925
 21
1152.292776678328
 31
0.0
 12
2841.626836796925
 22
1140.292776678329
 32
0.0
 13
2841.626836796925
 23
1140.292776678329
 33
0.0
  0
MTEXT
  5
771
330
688
100
AcDbEntity
  8
标注
 62
     0
440
 16777216
100
AcDbMText
 10
2827.232293822845
 20
1108.397538583089
 30
0.0
 40
18.39999999999998
 41
0.0
 46
0.0
 71
     5
 72
     1
  1
40
 11
0.0000000000000001
 21
1.0
 31
0.0
 73
     1
 44
1.0
  0
POINT
  5
772
330
688
100
AcDbEntity
  8
Defpoints
 62
     0
440
 16777216
100
AcDbPoint
 10
2804.444381502828
 20
1140.292776678329
 30
0.0
  0
POINT
  5
773
330
688
100
AcDbEntity
  8
Defpoints
 62
     0
440
 16777216
100
AcDbPoint
 10
2804.444381502828
 20
1180.29581766557
 30
0.0
  0
POINT
  5
774
330
688
100
AcDbEntity
  8
Defpoints
 62
     0
440
 16777216
100
AcDbPoint
 10
2841.626836796925
 20
1180.29581766557
 30
0.0
  0
ENDBLK
  5
68A
330
688
100
AcDbEntity
  8
0
100
AcDbBlockEnd
  0
BLOCK
  5
696
330
695
100
AcDbEntity
  8
0
100
AcDbBlockBegin
  2
*D37
 70
     1
 10
0.0
 20
0.0
 30
0.0
  3
*D37
  1

  0
LINE
  5
775
330
695
100
AcDbEntity
  8
标注
 62
     0
440
 16777216
370
    -2
100
AcDbLine
 10
3074.444381502828
 20
1140.292776678329
 30
0.0
 11
3135.133473640927
 21
1140.292776678329
 31
0.0
  0
LINE
  5
776
330
695
100
AcDbEntity
  8
标注
 62
     0
440
 16777216
370
    -2
100
AcDbLine
 10
3074.444381502828
 20
1180.29581766557
 30
0.0
 11
3135.133473640927
 21
1180.29581766557
 31
0.0
  0
LINE
  5
777
330
695
100
AcDbEntity
  8
标注
 62
     0
440
 16777216
370
    -2
100
AcDbLine
 10
3125.133473640927
 20
1168.29581766557
 30
0.0
 11
3125.133473640927
 21
1152.292776678328
 31
0.0
  0
LINE
  5
778
330
695
100
AcDbEntity
  8
标注
 62
     0
440
 16777216
370
    -2
100
AcDbLine
 10
3125.133473640927
 20
1140.292776678329
 30
0.0
 11
3125.133473640927
 21
1089.879939674494
 31
0.0
  0
SOLID
  5
779
330
695
100
AcDbEntity
  8
标注
 62
     0
440
 16777216
100
AcDbTrace
 10
3123.133473640927
 20
1168.29581766557
 30
0.0
 11
3127.133473640927
 21
1168.29581766557
 31
0.0
 12
3125.133473640927
 22
1180.29581766557
 32
0.0
 13
3125.133473640927
 23
1180.29581766557
 33
0.0
  0
SOLID
  5
77A
330
695
100
AcDbEntity
  8
标注
 62
     0
440
 16777216
100
AcDbTrace
 10
3123.133473640927
 20
1152.292776678328
 30
0.0
 11
3127.133473640927
 21
1152.292776678328
 31
0.0
 12
3125.133473640927
 22
1140.292776678329
 32
0.0
 13
3125.133473640927
 23
1140.292776678329
 33
0.0
  0
MTEXT
  5
77B
330
695
100
AcDbEntity
  8
标注
 62
     0
440
 16777216
100
AcDbMText
 10
3110.738930666847
 20
1108.397538583089
 30
0.0
 40
18.39999999999998
 41
0.0
 46
0.0
 71
     5
 72
     1
  1
40
 11
0.0000000000000001
 21
1.0
 31
0.0
 73
     1
 44
1.0
  0
POINT
  5
77C
330
695
100
AcDbEntity
  8
Defpoints
 62
     0
440
 16777216
100
AcDbPoint
 10
3069.444381502828
 20
1140.292776678329
 30
0.0
  0
POINT
  5
77D
330
695
100
AcDbEntity
  8
Defpoints
 62
     0
440
 16777216
100
AcDbPoint
 10
3069.444381502828
 20
1180.29581766557
 30
0.0
  0
POINT
  5
77E
330
695
100
AcDbEntity
  8
Defpoints
 62
     0
440
 16777216
100
AcDbPoint
 10
3125.133473640927
 20
1180.29581766557
 30
0.0
  0
ENDBLK
  5
697
330
695
100
AcDbEntity
  8
0
100
AcDbBlockEnd
  0
BLOCK
  5
6A3
330
6A2
100
AcDbEntity
  8
0
100
AcDbBlockBegin
  2
*D38
 70
     1
 10
0.0
 20
0.0
 30
0.0
  3
*D38
  1

  0
LINE
  5
77F
330
6A2
100
AcDbEntity
  8
标注
 62
     0
440
 16777216
370
    -2
100
AcDbLine
 10
3047.311393680481
 20
1138.800195923588
 30
0.0
 11
3047.311393680481
 21
1037.226109407627
 31
0.0
  0
LINE
  5
780
330
6A2
100
AcDbEntity
  8
标注
 62
     0
440
 16777216
370
    -2
100
AcDbLine
 10
3099.211393680067
 20
1138.800195923588
 30
0.0
 11
3099.211393680067
 21
1037.226109407627
 31
0.0
  0
LINE
  5
781
330
6A2
100
AcDbEntity
  8
标注
 62
     0
440
 16777216
370
    -2
100
AcDbLine
 10
3059.31139368048
 20
1047.226109407627
 30
0.0
 11
3087.211393680067
 21
1047.226109407627
 31
0.0
  0
LINE
  5
782
330
6A2
100
AcDbEntity
  8
标注
 62
     0
440
 16777216
370
    -2
100
AcDbLine
 10
3099.211393680067
 20
1047.226109407627
 30
0.0
 11
3236.751058484537
 21
1047.226109407627
 31
0.0
  0
SOLID
  5
783
330
6A2
100
AcDbEntity
  8
标注
 62
     0
440
 16777216
100
AcDbTrace
 10
3059.31139368048
 20
1049.226109407627
 30
0.0
 11
3059.31139368048
 21
1045.226109407627
 31
0.0
 12
3047.311393680481
 22
1047.226109407627
 32
0.0
 13
3047.311393680481
 23
1047.226109407627
 33
0.0
  0
SOLID
  5
784
330
6A2
100
AcDbEntity
  8
标注
 62
     0
440
 16777216
100
AcDbTrace
 10
3087.211393680067
 20
1049.226109407627
 30
0.0
 11
3087.211393680067
 21
1045.226109407627
 31
0.0
 12
3099.211393680067
 22
1047.226109407627
 32
0.0
 13
3099.211393680067
 23
1047.226109407627
 33
0.0
  0
MTEXT
  5
785
330
6A2
100
AcDbEntity
  8
标注
 62
     0
440
 16777216
100
AcDbMText
 10
3173.981226082302
 20
1061.426109407627
 30
0.0
 40
18.39999999999998
 41
0.0
 46
0.0
 71
     5
 72
     1
  1
{\fSimSun|b0|i0|c134|p2;53.5-53.6}
 73
     1
 44
1.0
  0
POINT
  5
786
330
6A2
100
AcDbEntity
  8
Defpoints
 62
     0
440
 16777216
100
AcDbPoint
 10
3047.311393680481
 20
1143.800195923588
 30
0.0
  0
POINT
  5
787
330
6A2
100
AcDbEntity
  8
Defpoints
 62
     0
440
 16777216
100
AcDbPoint
 10
3099.211393680067
 20
1143.800195923588
 30
0.0
  0
POINT
  5
788
330
6A2
100
AcDbEntity
  8
Defpoints
 62
     0
440
 16777216
100
AcDbPoint
 10
3099.211393680067
 20
1047.226109407627
 30
0.0
  0
ENDBLK
  5
6A4
330
6A2
100
AcDbEntity
  8
0
100
AcDbBlockEnd
  0
BLOCK
  5
6D0
330
6CF
100
AcDbEntity
  8
0
100
AcDbBlockBegin
  2
*D39
 70
     1
 10
0.0
 20
0.0
 30
0.0
  3
*D39
  1

  0
LINE
  5
6D2
330
6CF
100
AcDbEntity
  8
标注
 62
     0
440
 16777216
370
    -2
100
AcDbLine
 10
3263.261393680521
 20
1823.87630448872
 30
0.0
 11
3263.261393680521
 21
1911.493210604986
 31
0.0
  0
LINE
  5
6D3
330
6CF
100
AcDbEntity
  8
标注
 62
     0
440
 16777216
370
    -2
100
AcDbLine
 10
2713.26139368055
 20
1823.87630448872
 30
0.0
 11
2713.26139368055
 21
1911.493210604986
 31
0.0
  0
LINE
  5
6D4
330
6CF
100
AcDbEntity
  8
标注
 62
     0
440
 16777216
370
    -2
100
AcDbLine
 10
3251.261393680521
 20
1901.493210604985
 30
0.0
 11
2725.26139368055
 21
1901.493210604985
 31
0.0
  0
SOLID
  5
6D5
330
6CF
100
AcDbEntity
  8
标注
 62
     0
440
 16777216
100
AcDbTrace
 10
3251.261393680521
 20
1903.493210604985
 30
0.0
 11
3251.261393680521
 21
1899.493210604985
 31
0.0
 12
3263.261393680521
 22
1901.493210604985
 32
0.0
 13
3263.261393680521
 23
1901.493210604985
 33
0.0
  0
SOLID
  5
6D6
330
6CF
100
AcDbEntity
  8
标注
 62
     0
440
 16777216
100
AcDbTrace
 10
2725.26139368055
 20
1903.493210604985
 30
0.0
 11
2725.26139368055
 21
1899.493210604985
 31
0.0
 12
2713.26139368055
 22
1901.493210604985
 32
0.0
 13
2713.26139368055
 23
1901.493210604985
 33
0.0
  0
MTEXT
  5
6D7
102
{ACAD_XDICTIONARY
360
7E6
102
}
330
6CF
100
AcDbEntity
  8
标注
 62
     0
440
 16777216
100
AcDbMText
 10
2988.261393680521
 20
1915.887753579065
 30
0.0
 40
18.4
 41
0.0
 46
0.0
 71
     5
 72
     1
  1
\A1;550±0.2
 73
     1
 44
1.0
  0
POINT
  5
6D8
330
6CF
100
AcDbEntity
  8
Defpoints
 62
     0
440
 16777216
100
AcDbPoint
 10
3263.261393680521
 20
1818.87630448872
 30
0.0
  0
POINT
  5
6D9
330
6CF
100
AcDbEntity
  8
Defpoints
 62
     0
440
 16777216
100
AcDbPoint
 10
2713.26139368055
 20
1818.87630448872
 30
0.0
  0
POINT
  5
6DA
330
6CF
100
AcDbEntity
  8
Defpoints
 62
     0
440
 16777216
100
AcDbPoint
 10
2713.26139368055
 20
1901.493210604985
 30
0.0
  0
ENDBLK
  5
6D1
330
6CF
100
AcDbEntity
  8
0
100
AcDbBlockEnd
  0
BLOCK
  5
6DC
330
6DB
100
AcDbEntity
  8
0
100
AcDbBlockBegin
  2
*D40
 70
     1
 10
0.0
 20
0.0
 30
0.0
  3
*D40
  1

  0
LINE
  5
6DE
330
6DB
100
AcDbEntity
  8
标注
 62
     0
440
 16777216
370
    -2
100
AcDbLine
 10
3268.261393680521
 20
1180.29581766557
 30
0.0
 11
3314.006714033946
 21
1180.29581766557
 31
0.0
  0
LINE
  5
6DF
330
6DB
100
AcDbEntity
  8
标注
 62
     0
440
 16777216
370
    -2
100
AcDbLine
 10
3238.261393680522
 20
995.2958176655702
 30
0.0
 11
3314.006714033946
 21
995.2958176655702
 31
0.0
  0
LINE
  5
6E0
330
6DB
100
AcDbEntity
  8
标注
 62
     0
440
 16777216
370
    -2
100
AcDbLine
 10
3304.006714033946
 20
1168.29581766557
 30
0.0
 11
3304.006714033945
 21
1007.29581766557
 31
0.0
  0
SOLID
  5
6E1
330
6DB
100
AcDbEntity
  8
标注
 62
     0
440
 16777216
100
AcDbTrace
 10
3302.006714033946
 20
1168.29581766557
 30
0.0
 11
3306.006714033946
 21
1168.29581766557
 31
0.0
 12
3304.006714033946
 22
1180.29581766557
 32
0.0
 13
3304.006714033946
 23
1180.29581766557
 33
0.0
  0
SOLID
  5
6E2
330
6DB
100
AcDbEntity
  8
标注
 62
     0
440
 16777216
100
AcDbTrace
 10
3302.006714033945
 20
1007.29581766557
 30
0.0
 11
3306.006714033946
 21
1007.29581766557
 31
0.0
 12
3304.006714033945
 22
995.2958176655702
 32
0.0
 13
3304.006714033945
 23
995.2958176655702
 33
0.0
  0
MTEXT
  5
6E3
330
6DB
100
AcDbEntity
  8
标注
 62
     0
440
 16777216
100
AcDbMText
 10
3289.612171059866
 20
1087.795817665599
 30
0.0
 40
18.39999999999998
 41
0.0
 46
0.0
 71
     5
 72
     1
  1
185
 11
0.0000000000000001
 21
1.0
 31
0.0
 73
     1
 44
1.0
  0
POINT
  5
6E4
330
6DB
100
AcDbEntity
  8
Defpoints
 62
     0
440
 16777216
100
AcDbPoint
 10
3263.261393680521
 20
1180.29581766557
 30
0.0
  0
POINT
  5
6E5
330
6DB
100
AcDbEntity
  8
Defpoints
 62
     0
440
 16777216
100
AcDbPoint
 10
3233.261393680521
 20
995.2958176655702
 30
0.0
  0
POINT
  5
6E6
330
6DB
100
AcDbEntity
  8
Defpoints
 62
     0
440
 16777216
100
AcDbPoint
 10
3304.006714033945
 20
995.2958176655702
 30
0.0
  0
ENDBLK
  5
6DD
330
6DB
100
AcDbEntity
  8
0
100
AcDbBlockEnd
  0
BLOCK
  5
6E8
330
6E7
100
AcDbEntity
  8
0
100
AcDbBlockBegin
  2
*D41
 70
     1
 10
0.0
 20
0.0
 30
0.0
  3
*D41
  1

  0
LINE
  5
6EA
330
6E7
100
AcDbEntity
  8
标注
 62
     0
440
 16777216
370
    -2
100
AcDbLine
 10
2708.261393680521
 20
1180.29581766557
 30
0.0
 11
2671.71375415392
 21
1180.29581766557
 31
0.0
  0
LINE
  5
6EB
330
6E7
100
AcDbEntity
  8
标注
 62
     0
440
 16777216
370
    -2
100
AcDbLine
 10
2738.261393680521
 20
1050.29581766557
 30
0.0
 11
2671.71375415392
 21
1050.29581766557
 31
0.0
  0
LINE
  5
6EC
330
6E7
100
AcDbEntity
  8
标注
 62
     0
440
 16777216
370
    -2
100
AcDbLine
 10
2681.71375415392
 20
1168.29581766557
 30
0.0
 11
2681.71375415392
 21
1062.29581766557
 31
0.0
  0
SOLID
  5
6ED
330
6E7
100
AcDbEntity
  8
标注
 62
     0
440
 16777216
100
AcDbTrace
 10
2679.71375415392
 20
1168.29581766557
 30
0.0
 11
2683.71375415392
 21
1168.29581766557
 31
0.0
 12
2681.71375415392
 22
1180.29581766557
 32
0.0
 13
2681.71375415392
 23
1180.29581766557
 33
0.0
  0
SOLID
  5
6EE
330
6E7
100
AcDbEntity
  8
标注
 62
     0
440
 16777216
100
AcDbTrace
 10
2679.71375415392
 20
1062.29581766557
 30
0.0
 11
2683.71375415392
 21
1062.29581766557
 31
0.0
 12
2681.71375415392
 22
1050.29581766557
 32
0.0
 13
2681.71375415392
 23
1050.29581766557
 33
0.0
  0
MTEXT
  5
6EF
330
6E7
100
AcDbEntity
  8
标注
 62
     0
440
 16777216
100
AcDbMText
 10
2667.312935600031
 20
1115.29581766557
 30
0.0
 40
18.39999999999998
 41
0.0
 46
0.0
 71
     5
 72
     1
  1
130
 11
0.0000000000000001
 21
1.0
 31
0.0
 73
     1
 44
1.0
  0
POINT
  5
6F0
330
6E7
100
AcDbEntity
  8
Defpoints
 62
     0
440
 16777216
100
AcDbPoint
 10
2713.261393680521
 20
1180.29581766557
 30
0.0
  0
POINT
  5
6F1
330
6E7
100
AcDbEntity
  8
Defpoints
 62
     0
440
 16777216
100
AcDbPoint
 10
2743.261393680521
 20
1050.29581766557
 30
0.0
  0
POINT
  5
6F2
330
6E7
100
AcDbEntity
  8
Defpoints
 62
     0
440
 16777216
100
AcDbPoint
 10
2681.71375415392
 20
1050.29581766557
 30
0.0
  0
ENDBLK
  5
6E9
330
6E7
100
AcDbEntity
  8
0
100
AcDbBlockEnd
  0
BLOCK
  5
6F4
330
6F3
100
AcDbEntity
  8
0
100
AcDbBlockBegin
  2
*D42
 70
     1
 10
0.0
 20
0.0
 30
0.0
  3
*D42
  1

  0
LINE
  5
6F6
330
6F3
100
AcDbEntity
  8
标注
 62
     0
440
 16777216
370
    -2
100
AcDbLine
 10
3078.261393680492
 20
1608.87630448872
 30
0.0
 11
3146.939799521577
 21
1608.87630448872
 31
0.0
  0
LINE
  5
6F7
330
6F3
100
AcDbEntity
  8
标注
 62
     0
440
 16777216
370
    -2
100
AcDbLine
 10
3078.261393680521
 20
1728.87630448872
 30
0.0
 11
3146.939799521577
 21
1728.87630448872
 31
0.0
  0
LINE
  5
6F8
330
6F3
100
AcDbEntity
  8
标注
 62
     0
440
 16777216
370
    -2
100
AcDbLine
 10
3136.939799521577
 20
1620.87630448872
 30
0.0
 11
3136.939799521577
 21
1716.87630448872
 31
0.0
  0
SOLID
  5
6F9
330
6F3
100
AcDbEntity
  8
标注
 62
     0
440
 16777216
100
AcDbTrace
 10
3134.939799521577
 20
1620.87630448872
 30
0.0
 11
3138.939799521577
 21
1620.87630448872
 31
0.0
 12
3136.939799521577
 22
1608.87630448872
 32
0.0
 13
3136.939799521577
 23
1608.87630448872
 33
0.0
  0
SOLID
  5
6FA
330
6F3
100
AcDbEntity
  8
标注
 62
     0
440
 16777216
100
AcDbTrace
 10
3134.939799521577
 20
1716.87630448872
 30
0.0
 11
3138.939799521577
 21
1716.87630448872
 31
0.0
 12
3136.939799521577
 22
1728.87630448872
 32
0.0
 13
3136.939799521577
 23
1728.87630448872
 33
0.0
  0
MTEXT
  5
6FB
330
6F3
100
AcDbEntity
  8
标注
 62
     0
440
 16777216
100
AcDbMText
 10
3122.545256547497
 20
1668.87630448872
 30
0.0
 40
18.39999999999998
 41
0.0
 46
0.0
 71
     5
 72
     1
  1
120
 11
0.0000000000000001
 21
1.0
 31
0.0
 73
     1
 44
1.0
  0
POINT
  5
6FC
330
6F3
100
AcDbEntity
  8
Defpoints
 62
     0
440
 16777216
100
AcDbPoint
 10
3073.261393680492
 20
1608.87630448872
 30
0.0
  0
POINT
  5
6FD
330
6F3
100
AcDbEntity
  8
Defpoints
 62
     0
440
 16777216
100
AcDbPoint
 10
3073.261393680521
 20
1728.87630448872
 30
0.0
  0
POINT
  5
6FE
330
6F3
100
AcDbEntity
  8
Defpoints
 62
     0
440
 16777216
100
AcDbPoint
 10
3136.939799521577
 20
1728.87630448872
 30
0.0
  0
ENDBLK
  5
6F5
330
6F3
100
AcDbEntity
  8
0
100
AcDbBlockEnd
  0
BLOCK
  5
700
330
6FF
100
AcDbEntity
  8
0
100
AcDbBlockBegin
  2
*D43
 70
     1
 10
0.0
 20
0.0
 30
0.0
  3
*D43
  1

  0
LINE
  5
702
330
6FF
100
AcDbEntity
  8
标注
 62
     0
440
 16777216
370
    -2
100
AcDbLine
 10
2813.261393680492
 20
1608.87630448872
 30
0.0
 11
2872.323419629866
 21
1608.87630448872
 31
0.0
  0
LINE
  5
703
330
6FF
100
AcDbEntity
  8
标注
 62
     0
440
 16777216
370
    -2
100
AcDbLine
 10
2813.261393680521
 20
1728.87630448872
 30
0.0
 11
2872.323419629866
 21
1728.87630448872
 31
0.0
  0
LINE
  5
704
330
6FF
100
AcDbEntity
  8
标注
 62
     0
440
 16777216
370
    -2
100
AcDbLine
 10
2862.323419629866
 20
1620.87630448872
 30
0.0
 11
2862.323419629866
 21
1716.87630448872
 31
0.0
  0
SOLID
  5
705
330
6FF
100
AcDbEntity
  8
标注
 62
     0
440
 16777216
100
AcDbTrace
 10
2860.323419629866
 20
1620.87630448872
 30
0.0
 11
2864.323419629866
 21
1620.87630448872
 31
0.0
 12
2862.323419629866
 22
1608.87630448872
 32
0.0
 13
2862.323419629866
 23
1608.87630448872
 33
0.0
  0
SOLID
  5
706
330
6FF
100
AcDbEntity
  8
标注
 62
     0
440
 16777216
100
AcDbTrace
 10
2860.323419629866
 20
1716.87630448872
 30
0.0
 11
2864.323419629866
 21
1716.87630448872
 31
0.0
 12
2862.323419629866
 22
1728.87630448872
 32
0.0
 13
2862.323419629866
 23
1728.87630448872
 33
0.0
  0
MTEXT
  5
707
330
6FF
100
AcDbEntity
  8
标注
 62
     0
440
 16777216
100
AcDbMText
 10
2847.928876655786
 20
1675.320105743758
 30
0.0
 40
18.39999999999998
 41
0.0
 46
0.0
 71
     5
 72
     1
  1
120
 11
0.0000000000000001
 21
1.0
 31
0.0
 73
     1
 44
1.0
  0
POINT
  5
708
330
6FF
100
AcDbEntity
  8
Defpoints
 62
     0
440
 16777216
100
AcDbPoint
 10
2808.261393680492
 20
1608.87630448872
 30
0.0
  0
POINT
  5
709
330
6FF
100
AcDbEntity
  8
Defpoints
 62
     0
440
 16777216
100
AcDbPoint
 10
2808.261393680521
 20
1728.87630448872
 30
0.0
  0
POINT
  5
70A
330
6FF
100
AcDbEntity
  8
Defpoints
 62
     0
440
 16777216
100
AcDbPoint
 10
2862.323419629866
 20
1728.87630448872
 30
0.0
  0
ENDBLK
  5
701
330
6FF
100
AcDbEntity
  8
0
100
AcDbBlockEnd
  0
BLOCK
  5
70C
330
70B
100
AcDbEntity
  8
0
100
AcDbBlockBegin
  2
*D44
 70
     1
 10
0.0
 20
0.0
 30
0.0
  3
*D44
  1

  0
LINE
  5
789
330
70B
100
AcDbEntity
  8
标注
 62
     0
440
 16777216
370
    -2
100
AcDbLine
 10
2789.710073581115
 20
1765.946762530684
 30
0.0
 11
2864.193893363446
 21
1778.843370422308
 31
0.0
  0
LINE
  5
78A
330
70B
100
AcDbEntity
  8
标注
 62
     0
440
 16777216
370
    -2
100
AcDbLine
 10
2922.328893997626
 20
1788.909238555137
 30
0.0
 11
2934.152961923216
 21
1790.956533768592
 31
0.0
  0
MTEXT
  5
78B
102
{ACAD_XDICTIONARY
360
7E8
102
}
330
70B
100
AcDbEntity
  8
标注
 62
     0
440
 16777216
100
AcDbMText
 10
2815.009474252424
 20
1785.458239424299
 30
0.0
 40
18.39999999999998
 41
0.0
 46
0.0
 71
     5
 72
     1
  1
∅35
 11
0.9853389937991503
 21
0.1706079344546382
 31
0.0
 73
     1
 44
1.0
  0
LINE
  5
78C
330
70B
100
AcDbEntity
  8
标注
 62
     0
440
 16777216
370
    -2
100
AcDbLine
 10
2910.504826072037
 20
1786.861943341682
 30
0.0
 11
2876.017961289036
 21
1780.890665635764
 31
0.0
  0
SOLID
  5
78D
330
70B
100
AcDbEntity
  8
标注
 62
     0
440
 16777216
100
AcDbTrace
 10
2921.987678128717
 20
1790.879916542735
 30
0.0
 11
2922.670109866536
 21
1786.938560567539
 31
0.0
 12
2910.504826072037
 22
1786.861943341682
 32
0.0
 13
2910.504826072037
 23
1786.861943341682
 33
0.0
  0
SOLID
  5
78E
330
70B
100
AcDbEntity
  8
标注
 62
     0
440
 16777216
100
AcDbTrace
 10
2863.852677494537
 20
1780.814048409906
 30
0.0
 11
2864.535109232356
 21
1776.87269243471
 31
0.0
 12
2876.017961289036
 22
1780.890665635764
 32
0.0
 13
2876.017961289036
 23
1780.890665635764
 33
0.0
  0
POINT
  5
78F
330
70B
100
AcDbEntity
  8
Defpoints
 62
     0
440
 16777216
100
AcDbPoint
 10
2876.017961289036
 20
1780.890665635764
 30
0.0
  0
POINT
  5
790
330
70B
100
AcDbEntity
  8
Defpoints
 62
     0
440
 16777216
100
AcDbPoint
 10
2910.504826072037
 20
1786.861943341682
 30
0.0
  0
ENDBLK
  5
70D
330
70B
100
AcDbEntity
  8
0
100
AcDbBlockEnd
  0
BLOCK
  5
717
330
716
100
AcDbEntity
  8
0
100
AcDbBlockBegin
  2
*D45
 70
     1
 10
0.0
 20
0.0
 30
0.0
  3
*D45
  1

  0
LINE
  5
719
330
716
100
AcDbEntity
  8
标注
 62
     0
440
 16777216
370
    -2
100
AcDbLine
 10
2898.261393680521
 20
1783.87630448872
 30
0.0
 11
2956.540191162066
 21
1783.87630448872
 31
0.0
  0
LINE
  5
71A
330
716
100
AcDbEntity
  8
标注
 62
     0
440
 16777216
370
    -2
100
AcDbLine
 10
2918.261393680521
 20
1728.87630448872
 30
0.0
 11
2956.540191162066
 21
1728.87630448872
 31
0.0
  0
LINE
  5
71B
330
716
100
AcDbEntity
  8
标注
 62
     0
440
 16777216
370
    -2
100
AcDbLine
 10
2946.540191162065
 20
1771.87630448872
 30
0.0
 11
2946.540191162065
 21
1740.87630448872
 31
0.0
  0
SOLID
  5
71C
330
716
100
AcDbEntity
  8
标注
 62
     0
440
 16777216
100
AcDbTrace
 10
2944.540191162066
 20
1771.87630448872
 30
0.0
 11
2948.540191162065
 21
1771.87630448872
 31
0.0
 12
2946.540191162065
 22
1783.87630448872
 32
0.0
 13
2946.540191162065
 23
1783.87630448872
 33
0.0
  0
SOLID
  5
71D
330
716
100
AcDbEntity
  8
标注
 62
     0
440
 16777216
100
AcDbTrace
 10
2944.540191162066
 20
1740.87630448872
 30
0.0
 11
2948.540191162065
 21
1740.87630448872
 31
0.0
 12
2946.540191162065
 22
1728.87630448872
 32
0.0
 13
2946.540191162065
 23
1728.87630448872
 33
0.0
  0
MTEXT
  5
71E
330
716
100
AcDbEntity
  8
标注
 62
     0
440
 16777216
100
AcDbMText
 10
2932.18330166684
 20
1756.37630448872
 30
0.0
 40
18.39999999999998
 41
0.0
 46
0.0
 71
     5
 72
     1
  1
55
 11
0.0000000000000001
 21
1.0
 31
0.0
 73
     1
 44
1.0
  0
POINT
  5
71F
330
716
100
AcDbEntity
  8
Defpoints
 62
     0
440
 16777216
100
AcDbPoint
 10
2893.261393680521
 20
1783.87630448872
 30
0.0
  0
POINT
  5
720
330
716
100
AcDbEntity
  8
Defpoints
 62
     0
440
 16777216
100
AcDbPoint
 10
2913.261393680521
 20
1728.87630448872
 30
0.0
  0
POINT
  5
721
330
716
100
AcDbEntity
  8
Defpoints
 62
     0
440
 16777216
100
AcDbPoint
 10
2946.540191162065
 20
1728.87630448872
 30
0.0
  0
ENDBLK
  5
718
330
716
100
AcDbEntity
  8
0
100
AcDbBlockEnd
  0
BLOCK
  5
731
330
730
100
AcDbEntity
  8
0
100
AcDbBlockBegin
  2
*D46
 70
     1
 10
0.0
 20
0.0
 30
0.0
  3
*D46
  1

  0
LINE
  5
733
330
730
100
AcDbEntity
  8
标注
 62
     0
440
 16777216
370
    -2
100
AcDbLine
 10
2883.261393680521
 20
1523.87630448872
 30
0.0
 11
2883.261393680521
 21
1429.364802171611
 31
0.0
  0
LINE
  5
734
330
730
100
AcDbEntity
  8
标注
 62
     0
440
 16777216
370
    -2
100
AcDbLine
 10
2903.261393680521
 20
1523.87630448872
 30
0.0
 11
2903.261393680521
 21
1429.364802171611
 31
0.0
  0
LINE
  5
735
330
730
100
AcDbEntity
  8
标注
 62
     0
440
 16777216
370
    -2
100
AcDbLine
 10
2871.261393680521
 20
1439.364802171611
 30
0.0
 11
2859.261393680521
 21
1439.364802171611
 31
0.0
  0
LINE
  5
736
330
730
100
AcDbEntity
  8
标注
 62
     0
440
 16777216
370
    -2
100
AcDbLine
 10
2915.261393680521
 20
1439.364802171611
 30
0.0
 11
2963.869852070699
 21
1439.364802171611
 31
0.0
  0
LINE
  5
737
330
730
100
AcDbEntity
  8
标注
 62
     0
440
 16777216
370
    -2
100
AcDbLine
 10
2883.261393680521
 20
1439.364802171611
 30
0.0
 11
2903.261393680521
 21
1439.364802171611
 31
0.0
  0
SOLID
  5
738
330
730
100
AcDbEntity
  8
标注
 62
     0
440
 16777216
100
AcDbTrace
 10
2871.261393680521
 20
1441.364802171611
 30
0.0
 11
2871.261393680521
 21
1437.364802171611
 31
0.0
 12
2883.261393680521
 22
1439.364802171611
 32
0.0
 13
2883.261393680521
 23
1439.364802171611
 33
0.0
  0
SOLID
  5
739
330
730
100
AcDbEntity
  8
标注
 62
     0
440
 16777216
100
AcDbTrace
 10
2915.261393680521
 20
1441.364802171611
 30
0.0
 11
2915.261393680521
 21
1437.364802171611
 31
0.0
 12
2903.261393680521
 22
1439.364802171611
 32
0.0
 13
2903.261393680521
 23
1439.364802171611
 33
0.0
  0
MTEXT
  5
73A
330
730
100
AcDbEntity
  8
标注
 62
     0
440
 16777216
100
AcDbMText
 10
2945.56562287561
 20
1453.75934514569
 30
0.0
 40
18.39999999999998
 41
0.0
 46
0.0
 71
     5
 72
     1
  1
20
 73
     1
 44
1.0
  0
POINT
  5
73B
330
730
100
AcDbEntity
  8
Defpoints
 62
     0
440
 16777216
100
AcDbPoint
 10
2883.261393680521
 20
1528.87630448872
 30
0.0
  0
POINT
  5
73C
330
730
100
AcDbEntity
  8
Defpoints
 62
     0
440
 16777216
100
AcDbPoint
 10
2903.261393680521
 20
1528.87630448872
 30
0.0
  0
POINT
  5
73D
330
730
100
AcDbEntity
  8
Defpoints
 62
     0
440
 16777216
100
AcDbPoint
 10
2903.261393680521
 20
1439.364802171611
 30
0.0
  0
ENDBLK
  5
732
330
730
100
AcDbEntity
  8
0
100
AcDbBlockEnd
  0
BLOCK
  5
73F
330
73E
100
AcDbEntity
  8
0
100
AcDbBlockBegin
  2
*D47
 70
     1
 10
0.0
 20
0.0
 30
0.0
  3
*D47
  1

  0
LINE
  5
741
330
73E
100
AcDbEntity
  8
标注
 62
     0
440
 16777216
370
    -2
100
AcDbLine
 10
2728.261393680521
 20
1828.87630448872
 30
0.0
 11
2674.75816189628
 21
1828.87630448872
 31
0.0
  0
LINE
  5
742
330
73E
100
AcDbEntity
  8
标注
 62
     0
440
 16777216
370
    -2
100
AcDbLine
 10
2728.261393680521
 20
1728.87630448872
 30
0.0
 11
2674.75816189628
 21
1728.87630448872
 31
0.0
  0
LINE
  5
743
330
73E
100
AcDbEntity
  8
标注
 62
     0
440
 16777216
370
    -2
100
AcDbLine
 10
2684.75816189628
 20
1816.87630448872
 30
0.0
 11
2684.75816189628
 21
1740.87630448872
 31
0.0
  0
SOLID
  5
744
330
73E
100
AcDbEntity
  8
标注
 62
     0
440
 16777216
100
AcDbTrace
 10
2682.75816189628
 20
1816.87630448872
 30
0.0
 11
2686.75816189628
 21
1816.87630448872
 31
0.0
 12
2684.75816189628
 22
1828.87630448872
 32
0.0
 13
2684.75816189628
 23
1828.87630448872
 33
0.0
  0
SOLID
  5
745
330
73E
100
AcDbEntity
  8
标注
 62
     0
440
 16777216
100
AcDbTrace
 10
2682.75816189628
 20
1740.87630448872
 30
0.0
 11
2686.75816189628
 21
1740.87630448872
 31
0.0
 12
2684.75816189628
 22
1728.87630448872
 32
0.0
 13
2684.75816189628
 23
1728.87630448872
 33
0.0
  0
MTEXT
  5
746
330
73E
100
AcDbEntity
  8
标注
 62
     0
440
 16777216
100
AcDbMText
 10
2670.3636189222
 20
1778.87630448872
 30
0.0
 40
18.39999999999998
 41
0.0
 46
0.0
 71
     5
 72
     1
  1
100
 11
0.0000000000000001
 21
1.0
 31
0.0
 73
     1
 44
1.0
  0
POINT
  5
747
330
73E
100
AcDbEntity
  8
Defpoints
 62
     0
440
 16777216
100
AcDbPoint
 10
2733.261393680521
 20
1828.87630448872
 30
0.0
  0
POINT
  5
748
330
73E
100
AcDbEntity
  8
Defpoints
 62
     0
440
 16777216
100
AcDbPoint
 10
2733.261393680521
 20
1728.87630448872
 30
0.0
  0
POINT
  5
749
330
73E
100
AcDbEntity
  8
Defpoints
 62
     0
440
 16777216
100
AcDbPoint
 10
2684.75816189628
 20
1728.87630448872
 30
0.0
  0
ENDBLK
  5
740
330
73E
100
AcDbEntity
  8
0
100
AcDbBlockEnd
  0
BLOCK
  5
754
330
753
100
AcDbEntity
  8
0
100
AcDbBlockBegin
  2
*D48
 70
     1
 10
0.0
 20
0.0
 30
0.0
  3
*D48
  1

  0
LINE
  5
756
330
753
100
AcDbEntity
  8
标注
 62
     0
440
 16777216
370
    -2
100
AcDbLine
 10
2733.261393680521
 20
1333.87630448872
 30
0.0
 11
2733.261393680521
 21
1262.103798463449
 31
0.0
  0
LINE
  5
757
330
753
100
AcDbEntity
  8
标注
 62
     0
440
 16777216
370
    -2
100
AcDbLine
 10
2883.261393680492
 20
1333.87630448872
 30
0.0
 11
2883.261393680492
 21
1262.103798463449
 31
0.0
  0
LINE
  5
758
330
753
100
AcDbEntity
  8
标注
 62
     0
440
 16777216
370
    -2
100
AcDbLine
 10
2745.261393680521
 20
1272.103798463449
 30
0.0
 11
2871.261393680492
 21
1272.103798463449
 31
0.0
  0
SOLID
  5
759
330
753
100
AcDbEntity
  8
标注
 62
     0
440
 16777216
100
AcDbTrace
 10
2745.261393680521
 20
1274.103798463449
 30
0.0
 11
2745.261393680521
 21
1270.10379846345
 31
0.0
 12
2733.261393680521
 22
1272.103798463449
 32
0.0
 13
2733.261393680521
 23
1272.103798463449
 33
0.0
  0
SOLID
  5
75A
330
753
100
AcDbEntity
  8
标注
 62
     0
440
 16777216
100
AcDbTrace
 10
2871.261393680492
 20
1274.103798463449
 30
0.0
 11
2871.261393680492
 21
1270.10379846345
 31
0.0
 12
2883.261393680492
 22
1272.103798463449
 32
0.0
 13
2883.261393680492
 23
1272.103798463449
 33
0.0
  0
MTEXT
  5
75B
330
753
100
AcDbEntity
  8
标注
 62
     0
440
 16777216
100
AcDbMText
 10
2808.261393680507
 20
1286.498341437529
 30
0.0
 40
18.39999999999998
 41
0.0
 46
0.0
 71
     5
 72
     1
  1
150
 73
     1
 44
1.0
  0
POINT
  5
75C
330
753
100
AcDbEntity
  8
Defpoints
 62
     0
440
 16777216
100
AcDbPoint
 10
2733.261393680521
 20
1338.87630448872
 30
0.0
  0
POINT
  5
75D
330
753
100
AcDbEntity
  8
Defpoints
 62
     0
440
 16777216
100
AcDbPoint
 10
2883.261393680492
 20
1338.87630448872
 30
0.0
  0
POINT
  5
75E
330
753
100
AcDbEntity
  8
Defpoints
 62
     0
440
 16777216
100
AcDbPoint
 10
2883.261393680492
 20
1272.103798463449
 30
0.0
  0
ENDBLK
  5
755
330
753
100
AcDbEntity
  8
0
100
AcDbBlockEnd
  0
BLOCK
  5
760
330
75F
100
AcDbEntity
  8
0
100
AcDbBlockBegin
  2
*D49
 70
     1
 10
0.0
 20
0.0
 30
0.0
  3
*D49
  1

  0
LINE
  5
762
330
75F
100
AcDbEntity
  8
标注
 62
     0
440
 16777216
370
    -2
100
AcDbLine
 10
2903.261393680521
 20
1333.87630448872
 30
0.0
 11
2903.261393680521
 21
1262.103798463449
 31
0.0
  0
LINE
  5
763
330
75F
100
AcDbEntity
  8
标注
 62
     0
440
 16777216
370
    -2
100
AcDbLine
 10
3243.261393680521
 20
1333.87630448872
 30
0.0
 11
3243.261393680521
 21
1262.103798463449
 31
0.0
  0
LINE
  5
764
330
75F
100
AcDbEntity
  8
标注
 62
     0
440
 16777216
370
    -2
100
AcDbLine
 10
2915.261393680521
 20
1272.103798463449
 30
0.0
 11
3231.261393680521
 21
1272.103798463449
 31
0.0
  0
SOLID
  5
765
330
75F
100
AcDbEntity
  8
标注
 62
     0
440
 16777216
100
AcDbTrace
 10
2915.261393680521
 20
1274.103798463449
 30
0.0
 11
2915.261393680521
 21
1270.10379846345
 31
0.0
 12
2903.261393680521
 22
1272.103798463449
 32
0.0
 13
2903.261393680521
 23
1272.103798463449
 33
0.0
  0
SOLID
  5
766
330
75F
100
AcDbEntity
  8
标注
 62
     0
440
 16777216
100
AcDbTrace
 10
3231.261393680521
 20
1274.103798463449
 30
0.0
 11
3231.261393680521
 21
1270.10379846345
 31
0.0
 12
3243.261393680521
 22
1272.103798463449
 32
0.0
 13
3243.261393680521
 23
1272.103798463449
 33
0.0
  0
MTEXT
  5
767
330
75F
100
AcDbEntity
  8
标注
 62
     0
440
 16777216
100
AcDbMText
 10
3073.261393680521
 20
1286.504617017337
 30
0.0
 40
18.39999999999998
 41
0.0
 46
0.0
 71
     5
 72
     1
  1
340
 73
     1
 44
1.0
  0
POINT
  5
768
330
75F
100
AcDbEntity
  8
Defpoints
 62
     0
440
 16777216
100
AcDbPoint
 10
2903.261393680521
 20
1338.87630448872
 30
0.0
  0
POINT
  5
769
330
75F
100
AcDbEntity
  8
Defpoints
 62
     0
440
 16777216
100
AcDbPoint
 10
3243.261393680521
 20
1338.87630448872
 30
0.0
  0
POINT
  5
76A
330
75F
100
AcDbEntity
  8
Defpoints
 62
     0
440
 16777216
100
AcDbPoint
 10
3243.261393680521
 20
1272.103798463449
 30
0.0
  0
ENDBLK
  5
761
330
75F
100
AcDbEntity
  8
0
100
AcDbBlockEnd
  0
ENDSEC
  0
SECTION
  2
ENTITIES
  0
DIMENSION
  5
50D
330
1F
100
AcDbEntity
  8
标注
100
AcDbDimension
280
     0
  2
*D30
 10
2684.75816189628
 20
1328.87630448872
 30
0.0
 11
2670.3636189222
 21
1528.87630448872
 31
0.0
 70
    32
 71
     5
 42
400.0
 73
     0
 74
     0
 75
     0
  3
1-8-L
100
AcDbAlignedDimension
 13
2743.261393680521
 23
1728.87630448872
 33
0.0
 14
2743.261393680521
 24
1328.87630448872
 34
0.0
 50
90.0
100
AcDbRotatedDimension
  0
DIMENSION
  5
50E
330
1F
100
AcDbEntity
  8
标注
100
AcDbDimension
280
     0
  2
*D31
 10
2651.639574652269
 20
1308.87630448872
 30
0.0
 11
2637.245031678189
 21
1568.87630448872
 31
0.0
 70
    32
 71
     5
 42
520.0
 73
     0
 74
     0
 75
     0
  3
1-8-a
100
AcDbAlignedDimension
 13
2723.261393680521
 23
1828.87630448872
 33
0.0
 14
2723.261393680521
 24
1308.87630448872
 34
0.0
 50
90.0
100
AcDbRotatedDimension
  0
DIMENSION
  5
50F
330
1F
100
AcDbEntity
  8
标注
100
AcDbDimension
280
     0
  2
*D32
 10
2723.261393680492
 20
1318.87630448872
 30
0.0
 11
2666.396009391732
 21
1292.633694477755
 31
0.0
 70
    36
 71
     5
 42
9.999999999967712
 73
     0
 74
     0
 75
     0
  3
1-8-L
100
AcDbRadialDimension
 15
2715.387771918431
 25
1312.711397324183
 35
0.0
 40
0.0
1001
ACAD
1000
DSTYLE
1002
{
1070
   288
1070
     1
1002
}
1001
ACAD_DSTYLE_DIMRADIAL_EXTENSION
1070
   387
1070
     1
1070
   388
1040
3.141592653589792
1070
   390
1040
4.712388980384688
  0
LINE
  5
510
330
1F
100
AcDbEntity
  8
外框线1
100
AcDbLine
 10
3389.469151773861
 20
1828.87630448872
 30
0.0
 11
3389.469151773861
 21
1308.876304488705
 31
0.0
  0
LINE
  5
511
330
1F
100
AcDbEntity
  8
外框线1
100
AcDbLine
 10
3389.469151773861
 20
1328.87630448872
 30
0.0
 11
3564.469151773862
 21
1328.87630448872
 31
0.0
  0
ARC
  5
512
330
1F
100
AcDbEntity
  8
外框线1
100
AcDbCircle
 10
3564.469151773862
 20
1338.87630448872
 30
0.0
 40
10.0
100
AcDbArc
 50
270.0
 51
0.0
  0
LINE
  5
513
330
1F
100
AcDbEntity
  8
外框线1
100
AcDbLine
 10
3574.469151773861
 20
1338.87630448872
 30
0.0
 11
3574.469151773861
 21
1718.87630448872
 31
0.0
  0
LINE
  5
514
330
1F
100
AcDbEntity
  8
外框线1
100
AcDbLine
 10
3564.469151773862
 20
1728.87630448872
 30
0.0
 11
3389.469151773861
 21
1728.87630448872
 31
0.0
  0
ARC
  5
515
330
1F
100
AcDbEntity
  8
外框线1
100
AcDbCircle
 10
3564.469151773862
 20
1718.87630448872
 30
0.0
 40
10.0
100
AcDbArc
 50
0.0
 51
90.0
  0
ARC
  5
516
330
1F
100
AcDbEntity
  8
外框线1
100
AcDbCircle
 10
3500.37280609164
 20
1338.982400336277
 30
0.0
 40
10.0
100
AcDbArc
 50
268.6635141475294
 51
358.6635141475293
  0
LINE
  5
517
330
1F
100
AcDbEntity
  8
外框线1
100
AcDbLine
 10
3510.370085685303
 20
1338.749160703406
 30
0.0
 11
3519.233191734639
 21
1718.645785262186
 31
0.0
  0
ARC
  5
518
330
1F
100
AcDbEntity
  8
外框线1
100
AcDbCircle
 10
3509.235912140976
 20
1718.879024895072
 30
0.0
 40
10.0
100
AcDbArc
 50
358.6635141475293
 51
88.66351414752934
  0
LINE
  5
519
330
1F
100
AcDbEntity
  8
外框线1
100
AcDbLine
 10
3243.261393680521
 20
1005.29581766557
 30
0.0
 11
3243.261393680521
 21
1180.29581766557
 31
0.0
  0
LINE
  5
51A
330
1F
100
AcDbEntity
  8
外框线1
100
AcDbLine
 10
2913.261393680521
 20
995.2958176655702
 30
0.0
 11
3233.261393680521
 21
995.2958176655702
 31
0.0
  0
LINE
  5
51B
330
1F
100
AcDbEntity
  8
外框线1
100
AcDbLine
 10
2903.261393680521
 20
1180.29581766557
 30
0.0
 11
2903.261393680521
 21
1005.29581766557
 31
0.0
  0
LINE
  5
51C
330
1F
100
AcDbEntity
  8
外框线1
100
AcDbLine
 10
2883.261393680521
 20
1060.29581766557
 30
0.0
 11
2883.261393680521
 21
1180.29581766557
 31
0.0
  0
LINE
  5
51D
330
1F
100
AcDbEntity
  8
外框线1
100
AcDbLine
 10
2743.261393680521
 20
1050.29581766557
 30
0.0
 11
2873.261393680521
 21
1050.29581766557
 31
0.0
  0
LINE
  5
51E
330
1F
100
AcDbEntity
  8
外框线1
100
AcDbLine
 10
2733.261393680521
 20
1180.29581766557
 30
0.0
 11
2733.261393680521
 21
1060.29581766557
 31
0.0
  0
LINE
  5
51F
102
{ACAD_REACTORS
330
53A
330
53D
102
}
330
1F
100
AcDbEntity
  8
外框线1
100
AcDbLine
 10
2713.261393680521
 20
1180.29581766557
 30
0.0
 11
3263.261393680521
 21
1180.29581766557
 31
0.0
  0
LINE
  5
520
330
1F
100
AcDbEntity
  8
外框线1
100
AcDbLine
 10
2873.261393680521
 20
1328.87630448872
 30
0.0
 11
2743.261393680521
 21
1328.87630448872
 31
0.0
  0
LINE
  5
521
102
{ACAD_REACTORS
330
540
102
}
330
1F
100
AcDbEntity
  8
外框线1
100
AcDbLine
 10
2913.261393680521
 20
1728.87630448872
 30
0.0
 11
3233.261393680521
 21
1728.87630448872
 31
0.0
  0
LINE
  5
522
102
{ACAD_REACTORS
330
54F
102
}
330
1F
100
AcDbEntity
  8
外框线1
100
AcDbLine
 10
2903.261393680521
 20
1338.87630448872
 30
0.0
 11
2903.261393680521
 21
1718.87630448872
 31
0.0
  0
LINE
  5
523
102
{ACAD_REACTORS
330
54F
330
570
102
}
330
1F
100
AcDbEntity
  8
外框线1
100
AcDbLine
 10
2883.261393680521
 20
1338.87630448872
 30
0.0
 11
2883.261393680521
 21
1718.87630448872
 31
0.0
  0
LINE
  5
524
330
1F
100
AcDbEntity
  8
外框线1
100
AcDbLine
 10
2733.261393680521
 20
1338.87630448872
 30
0.0
 11
2733.261393680521
 21
1718.87630448872
 31
0.0
  0
LINE
  5
525
330
1F
100
AcDbEntity
  8
外框线1
100
AcDbLine
 10
3233.261393680521
 20
1328.87630448872
 30
0.0
 11
2913.261393680521
 21
1328.87630448872
 31
0.0
  0
LINE
  5
526
330
1F
100
AcDbEntity
  8
外框线1
100
AcDbLine
 10
3243.261393680521
 20
1718.87630448872
 30
0.0
 11
3243.261393680521
 21
1338.87630448872
 31
0.0
  0
LINE
  5
527
102
{ACAD_REACTORS
330
543
102
}
330
1F
100
AcDbEntity
  8
外框线1
100
AcDbLine
 10
2743.261393680521
 20
1728.87630448872
 30
0.0
 11
2873.261393680521
 21
1728.87630448872
 31
0.0
  0
LWPOLYLINE
  5
528
102
{ACAD_REACTORS
330
537
330
560
102
}
330
1F
100
AcDbEntity
  8
外框线2
  6
HIDDEN
 48
0.2
100
AcDbPolyline
 90
        8
 70
     1
 43
0.0
 10
2723.261393680521
 20
1308.87630448872
 42
-0.4142135623730951
 10
2713.261393680521
 20
1318.87630448872
 10
2713.261393680521
 20
1818.87630448872
 42
-0.4142135623730951
 10
2723.261393680521
 20
1828.87630448872
 10
3253.261393680521
 20
1828.87630448872
 42
-0.4142135623730951
 10
3263.261393680521
 20
1818.87630448872
 10
3263.261393680521
 20
1318.87630448872
 42
-0.4142135623730951
 10
3253.261393680521
 20
1308.87630448872
  0
ARC
  5
529
102
{ACAD_REACTORS
330
570
102
}
330
1F
100
AcDbEntity
  8
外框线1
100
AcDbCircle
 10
2743.261393680521
 20
1338.87630448872
 30
0.0
 40
10.0
100
AcDbArc
 50
180.0
 51
270.0
  0
ARC
  5
52A
330
1F
100
AcDbEntity
  8
外框线1
100
AcDbCircle
 10
2743.261393680521
 20
1718.87630448872
 30
0.0
 40
10.0
100
AcDbArc
 50
90.0
 51
180.0
  0
ARC
  5
52B
330
1F
100
AcDbEntity
  8
外框线1
100
AcDbCircle
 10
2873.261393680521
 20
1718.87630448872
 30
0.0
 40
10.0
100
AcDbArc
 50
0.0
 51
90.0
  0
ARC
  5
52C
330
1F
100
AcDbEntity
  8
外框线1
100
AcDbCircle
 10
2913.261393680521
 20
1718.87630448872
 30
0.0
 40
10.0
100
AcDbArc
 50
90.0
 51
180.0
  0
ARC
  5
52D
330
1F
100
AcDbEntity
  8
外框线1
100
AcDbCircle
 10
2873.261393680521
 20
1338.87630448872
 30
0.0
 40
10.0
100
AcDbArc
 50
270.0
 51
0.0
  0
ARC
  5
52E
102
{ACAD_REACTORS
330
573
102
}
330
1F
100
AcDbEntity
  8
外框线1
100
AcDbCircle
 10
2913.261393680521
 20
1338.87630448872
 30
0.0
 40
10.0
100
AcDbArc
 50
180.0
 51
270.0
  0
ARC
  5
52F
102
{ACAD_REACTORS
330
573
102
}
330
1F
100
AcDbEntity
  8
外框线1
100
AcDbCircle
 10
3233.261393680521
 20
1338.87630448872
 30
0.0
 40
10.0
100
AcDbArc
 50
270.0
 51
0.0
  0
ARC
  5
530
330
1F
100
AcDbEntity
  8
外框线1
100
AcDbCircle
 10
3233.261393680521
 20
1718.87630448872
 30
0.0
 40
10.0
100
AcDbArc
 50
0.0
 51
90.0
  0
ARC
  5
531
102
{ACAD_REACTORS
330
53D
102
}
330
1F
100
AcDbEntity
  8
外框线1
100
AcDbCircle
 10
2743.261393680521
 20
1060.29581766557
 30
0.0
 40
10.0
100
AcDbArc
 50
180.0
 51
270.0
  0
ARC
  5
532
330
1F
100
AcDbEntity
  8
外框线1
100
AcDbCircle
 10
2873.261393680521
 20
1060.29581766557
 30
0.0
 40
10.0
100
AcDbArc
 50
270.0
 51
0.0
  0
ARC
  5
533
330
1F
100
AcDbEntity
  8
外框线1
100
AcDbCircle
 10
2913.261393680521
 20
1005.29581766557
 30
0.0
 40
10.0
100
AcDbArc
 50
180.0
 51
270.0
  0
ARC
  5
534
102
{ACAD_REACTORS
330
53A
102
}
330
1F
100
AcDbEntity
  8
外框线1
100
AcDbCircle
 10
3233.261393680521
 20
1005.29581766557
 30
0.0
 40
10.0
100
AcDbArc
 50
270.0
 51
0.0
  0
DIMENSION
  5
535
102
{ACAD_XDICTIONARY
360
536
102
}
102
{ACAD_REACTORS
330
537
102
}
330
1F
100
AcDbEntity
  8
标注
100
AcDbDimension
280
     0
  2
*D39
 10
2713.26139368055
 20
1901.493210604985
 30
0.0
 11
2988.261393680521
 21
1901.493210604985
 31
0.0
 70
   160
 71
     5
 42
549.9999999999708
 73
     0
 74
     0
 75
     0
  3
1-8-a
100
AcDbAlignedDimension
 13
3263.261393680521
 23
1818.87630448872
 33
0.0
 14
2713.26139368055
 24
1818.87630448872
 34
0.0
 50
180.0
100
AcDbRotatedDimension
  0
DIMENSION
  5
538
102
{ACAD_XDICTIONARY
360
539
102
}
102
{ACAD_REACTORS
330
53A
102
}
330
1F
100
AcDbEntity
  8
标注
100
AcDbDimension
280
     0
  2
*D40
 10
3304.006714033945
 20
995.2958176655702
 30
0.0
 11
3304.006714033945
 21
1087.795817665599
 31
0.0
 70
   160
 71
     5
 42
185.0
 73
     0
 74
     0
 75
     0
  3
1-8-L
100
AcDbAlignedDimension
 13
3263.261393680521
 23
1180.29581766557
 33
0.0
 14
3233.261393680521
 24
995.2958176655702
 34
0.0
 50
90.0
100
AcDbRotatedDimension
  0
DIMENSION
  5
53B
102
{ACAD_XDICTIONARY
360
53C
102
}
102
{ACAD_REACTORS
330
53D
102
}
330
1F
100
AcDbEntity
  8
标注
100
AcDbDimension
280
     0
  2
*D41
 10
2681.71375415392
 20
1050.29581766557
 30
0.0
 11
2667.312935600031
 21
1115.29581766557
 31
0.0
 70
    32
 71
     5
 42
130.0
 73
     0
 74
     0
 75
     0
  3
1-8-L
100
AcDbAlignedDimension
 13
2713.261393680521
 23
1180.29581766557
 33
0.0
 14
2743.261393680521
 24
1050.29581766557
 34
0.0
 50
90.0
100
AcDbRotatedDimension
  0
DIMENSION
  5
53E
102
{ACAD_XDICTIONARY
360
53F
102
}
102
{ACAD_REACTORS
330
540
102
}
330
1F
100
AcDbEntity
  8
标注
100
AcDbDimension
280
     0
  2
*D42
 10
3136.939799521577
 20
1728.87630448872
 30
0.0
 11
3122.545256547497
 21
1668.87630448872
 31
0.0
 70
    32
 71
     5
 42
120.0
 73
     0
 74
     0
 75
     0
  3
1-8-L
100
AcDbAlignedDimension
 13
3073.261393680492
 23
1608.87630448872
 33
0.0
 14
3073.261393680521
 24
1728.87630448872
 34
0.0
 50
90.0
100
AcDbRotatedDimension
  0
DIMENSION
  5
541
102
{ACAD_XDICTIONARY
360
542
102
}
102
{ACAD_REACTORS
330
543
102
}
330
1F
100
AcDbEntity
  8
标注
100
AcDbDimension
280
     0
  2
*D43
 10
2862.323419629866
 20
1728.87630448872
 30
0.0
 11
2862.323419629865
 21
1675.320105743758
 31
0.0
 70
   160
 71
     5
 42
120.0
 73
     0
 74
     0
 75
     0
  3
1-8-L
100
AcDbAlignedDimension
 13
2808.261393680492
 23
1608.87630448872
 33
0.0
 14
2808.261393680521
 24
1728.87630448872
 34
0.0
 50
90.0
100
AcDbRotatedDimension
  0
CIRCLE
  5
544
102
{ACAD_REACTORS
330
547
330
54A
102
}
330
1F
100
AcDbEntity
  8
外框线1
100
AcDbCircle
 10
2893.261393680521
 20
1783.87630448872
 30
0.0
 40
17.5
  0
DIMENSION
  5
545
102
{ACAD_XDICTIONARY
360
546
102
}
102
{ACAD_REACTORS
330
547
102
}
330
1F
100
AcDbEntity
  8
标注
100
AcDbDimension
280
     0
  2
*D44
 10
2910.504826072037
 20
1786.861943341682
 30
0.0
 11
2817.553091920766
 21
1770.767681907471
 31
0.0
 70
   163
 71
     5
 42
35.00000000003093
 73
     0
 74
     0
 75
     0
  3
1-8-L
100
AcDbDiametricDimension
 15
2876.017961289036
 25
1780.890665635764
 35
0.0
 40
0.0
1001
ACAD_DSTYLE_DIMRADIAL_EXTENSION
1070
   387
1070
     1
1070
   388
1040
0.0
1070
   390
1040
0.0
  0
DIMENSION
  5
548
102
{ACAD_XDICTIONARY
360
549
102
}
102
{ACAD_REACTORS
330
54A
102
}
330
1F
100
AcDbEntity
  8
标注
100
AcDbDimension
280
     0
  2
*D45
 10
2946.540191162065
 20
1728.87630448872
 30
0.0
 11
2946.540191162065
 21
1756.37630448872
 31
0.0
 70
   160
 71
     5
 42
55.0
 73
     0
 74
     0
 75
     0
  3
1-8-L
100
AcDbAlignedDimension
 13
2893.261393680521
 23
1783.87630448872
 33
0.0
 14
2913.261393680521
 24
1728.87630448872
 34
0.0
 50
90.0
100
AcDbRotatedDimension
  0
DIMENSION
  5
54B
330
1F
100
AcDbEntity
  8
标注
100
AcDbDimension
280
     0
  2
*D33
 10
2743.261393680624
 20
1338.876304488749
 30
0.0
 11
2787.12907460167
 21
1383.574996652021
 31
0.0
 70
    36
 71
     5
 42
9.99999999998181
 73
     0
 74
     0
 75
     0
  3
1-8-L
100
AcDbRadialDimension
 15
2751.718675989302
 25
1344.212443163011
 35
0.0
 40
0.0
1001
ACAD
1000
DSTYLE
1002
{
1070
   288
1070
     1
1002
}
1001
ACAD_DSTYLE_DIMRADIAL_EXTENSION
1070
   387
1070
     1
1070
   388
1040
3.141592653589792
1070
   390
1040
4.712388980384688
  0
DIMENSION
  5
54C
330
1F
100
AcDbEntity
  8
标注
100
AcDbDimension
280
     0
  2
*D34
 10
2913.261393680492
 20
1338.876304488647
 30
0.0
 11
2957.129074602384
 21
1383.574996651118
 31
0.0
 70
    36
 71
     5
 42
10.00000000000227
 73
     0
 74
     0
 75
     0
  3
1-8-L
100
AcDbRadialDimension
 15
2921.718675989287
 25
1344.212443162763
 35
0.0
 40
0.0
1001
ACAD
1000
DSTYLE
1002
{
1070
   288
1070
     1
1002
}
1001
ACAD_DSTYLE_DIMRADIAL_EXTENSION
1070
   387
1070
     1
1070
   388
1040
3.141592653589792
1070
   390
1040
4.712388980384688
  0
DIMENSION
  5
54D
102
{ACAD_XDICTIONARY
360
54E
102
}
102
{ACAD_REACTORS
330
54F
102
}
330
1F
100
AcDbEntity
  8
标注
100
AcDbDimension
280
     0
  2
*D46
 10
2903.261393680521
 20
1439.364802171611
 30
0.0
 11
2945.56562287561
 21
1453.75934514569
 31
0.0
 70
    32
 71
     5
 42
20.0
 73
     0
 74
     0
 75
     0
  3
1-8-L
100
AcDbAlignedDimension
 13
2883.261393680521
 23
1528.87630448872
 33
0.0
 14
2903.261393680521
 24
1528.87630448872
 34
0.0
100
AcDbRotatedDimension
  0
LWPOLYLINE
  5
550
330
1F
100
AcDbEntity
  8
外框线4
100
AcDbPolyline
 90
        6
 70
     1
 43
0.0
 10
2730.261393680522
 20
1132.79581766557
 10
2730.261393680522
 20
1170.29581766557
 10
2733.261393680521
 20
1170.29581766557
 10
2733.261393680521
 20
1095.29581766557
 10
2730.261393680522
 20
1095.29581766557
 10
2728.261393680521
 20
1132.79581766557
  0
LWPOLYLINE
  5
551
330
1F
100
AcDbEntity
  8
外框线4
100
AcDbPolyline
 90
        4
 70
     1
 43
0.0
 10
3183.261393680521
 20
1095.29581766557
 10
3143.261393680521
 20
1095.29581766557
 10
3143.261393680521
 20
1170.29581766557
 10
3183.261393680521
 20
1170.29581766557
  0
LWPOLYLINE
  5
552
330
1F
100
AcDbEntity
  8
外框线4
100
AcDbPolyline
 90
        6
 70
     1
 43
0.0
 10
3246.261393680522
 20
1132.79581766557
 10
3246.261393680522
 20
1170.29581766557
 10
3243.261393680521
 20
1170.29581766557
 10
3243.261393680521
 20
1095.29581766557
 10
3246.261393680522
 20
1095.29581766557
 10
3248.261393680521
 20
1132.79581766557
  0
LWPOLYLINE
  5
553
330
1F
100
AcDbEntity
  8
外框线4
100
AcDbPolyline
 90
        4
 70
     1
 43
0.0
 10
2963.261393680521
 20
1095.29581766557
 10
3003.261393680521
 20
1095.29581766557
 10
3003.261393680521
 20
1170.29581766557
 10
2963.261393680521
 20
1170.29581766557
  0
LWPOLYLINE
  5
554
330
1F
100
AcDbEntity
  8
外框线4
100
AcDbPolyline
 90
        4
 70
     1
 43
0.0
 10
3183.261393680521
 20
1323.87630448872
 10
3143.261393680521
 20
1323.87630448872
 10
3143.261393680521
 20
1328.87630448872
 10
3183.261393680521
 20
1328.87630448872
  0
LWPOLYLINE
  5
555
330
1F
100
AcDbEntity
  8
外框线4
100
AcDbPolyline
 90
        4
 70
     1
 43
0.0
 10
2963.261393680521
 20
1323.87630448872
 10
3003.261393680521
 20
1323.87630448872
 10
3003.261393680521
 20
1328.87630448872
 10
2963.261393680521
 20
1328.87630448872
  0
LWPOLYLINE
  5
556
330
1F
100
AcDbEntity
  8
外框线4
100
AcDbPolyline
 90
        4
 70
     1
 43
0.0
 10
2793.261393680521
 20
1323.87630448872
 10
2833.261393680521
 20
1323.87630448872
 10
2833.261393680521
 20
1328.87630448872
 10
2793.261393680521
 20
1328.87630448872
  0
LWPOLYLINE
  5
557
330
1F
100
AcDbEntity
  8
外框线4
100
AcDbPolyline
 90
        4
 70
     1
 43
0.0
 10
2728.261393680521
 20
1388.87630448872
 10
2728.261393680521
 20
1428.87630448872
 10
2733.261393680521
 20
1428.87630448872
 10
2733.261393680521
 20
1388.87630448872
  0
LWPOLYLINE
  5
558
330
1F
100
AcDbEntity
  8
外框线4
100
AcDbPolyline
 90
        4
 70
     1
 43
0.0
 10
2728.261393680521
 20
1668.87630448872
 10
2728.261393680521
 20
1628.87630448872
 10
2733.261393680521
 20
1628.87630448872
 10
2733.261393680521
 20
1668.87630448872
  0
LWPOLYLINE
  5
559
330
1F
100
AcDbEntity
  8
外框线4
100
AcDbPolyline
 90
        4
 70
     1
 43
0.0
 10
3248.261393680521
 20
1388.87630448872
 10
3248.261393680521
 20
1428.87630448872
 10
3243.261393680521
 20
1428.87630448872
 10
3243.261393680521
 20
1388.87630448872
  0
LWPOLYLINE
  5
55A
330
1F
100
AcDbEntity
  8
外框线4
100
AcDbPolyline
 90
        4
 70
     1
 43
0.0
 10
3248.261393680521
 20
1668.87630448872
 10
3248.261393680521
 20
1628.87630448872
 10
3243.261393680521
 20
1628.87630448872
 10
3243.261393680521
 20
1668.87630448872
  0
LWPOLYLINE
  5
55B
330
1F
100
AcDbEntity
  8
外框线4
100
AcDbPolyline
 90
        4
 70
     1
 43
0.0
 10
3464.469151773862
 20
1388.87630448872
 10
3464.469151773862
 20
1428.87630448872
 10
3389.469151773861
 20
1428.87630448872
 10
3389.469151773861
 20
1388.87630448872
  0
LWPOLYLINE
  5
55C
330
1F
100
AcDbEntity
  8
外框线4
100
AcDbPolyline
 90
        6
 70
     1
 43
0.0
 10
3426.969151773862
 20
1325.87630448872
 10
3389.469151773861
 20
1325.87630448872
 10
3389.469151773861
 20
1328.87630448872
 10
3464.469151773862
 20
1328.87630448872
 10
3464.469151773862
 20
1325.87630448872
 10
3426.969151773862
 20
1323.87630448872
  0
LWPOLYLINE
  5
55D
330
1F
100
AcDbEntity
  8
外框线4
100
AcDbPolyline
 90
        4
 70
     1
 43
0.0
 10
3464.469151773862
 20
1668.87630448872
 10
3464.469151773862
 20
1628.87630448872
 10
3389.469151773861
 20
1628.87630448872
 10
3389.469151773861
 20
1668.87630448872
  0
DIMENSION
  5
55E
102
{ACAD_XDICTIONARY
360
55F
102
}
102
{ACAD_REACTORS
330
560
102
}
330
1F
100
AcDbEntity
  8
标注
100
AcDbDimension
280
     0
  2
*D47
 10
2684.75816189628
 20
1728.87630448872
 30
0.0
 11
2670.3636189222
 21
1778.87630448872
 31
0.0
 70
    32
 71
     5
 42
100.0
 73
     0
 74
     0
 75
     0
  3
1-8-L
100
AcDbAlignedDimension
 13
2733.261393680521
 23
1828.87630448872
 33
0.0
 14
2733.261393680521
 24
1728.87630448872
 34
0.0
 50
90.0
100
AcDbRotatedDimension
  0
INSERT
  5
561
330
1F
100
AcDbEntity
  8
外框线4
100
AcDbBlockReference
  2
A$C36197F93
 10
3473.469201183463
 20
1729.876356481913
 30
0.0
 41
-1.0
  0
INSERT
  5
562
330
1F
100
AcDbEntity
  8
标注
100
AcDbBlockReference
  2
A$C4F516713
 10
2733.261391142842
 20
1730.876290232529
 30
0.0
  0
INSERT
  5
563
330
1F
100
AcDbEntity
  8
标注
100
AcDbBlockReference
  2
A$C146E3994
 10
3389.469151773861
 20
1729.87630448872
 30
0.0
  0
INSERT
  5
564
330
1F
100
AcDbEntity
  8
标注
100
AcDbBlockReference
  2
A$C52C164B5
 10
2881.240616032293
 20
1330.597367598053
 30
0.0
  0
INSERT
  5
565
330
1F
100
AcDbEntity
  8
标注
100
AcDbBlockReference
  2
A$C52C164B5
 10
2881.240616032293
 20
1727.155241379387
 30
0.0
 41
-1.0
 50
180.0
  0
LWPOLYLINE
  5
566
330
1F
100
AcDbEntity
  8
标注
100
AcDbPolyline
 90
        4
 70
     1
 43
0.0
 10
2881.240578400343
 20
1060.29581766557
 10
2905.282208960671
 20
1060.29581766557
 10
2905.282208960671
 20
1075.29581766557
 10
2881.240578400343
 20
1075.29581766557
  0
LINE
  5
567
330
1F
100
AcDbEntity
  8
标注
100
AcDbLine
 10
2893.261393680521
 20
1075.29581766557
 30
0.0
 11
2893.261393680521
 21
1060.29581766557
 31
0.0
  0
INSERT
  5
568
330
1F
100
AcDbEntity
  8
外框线1
100
AcDbBlockReference
  2
A$C73DC396D
 10
2743.261431247338
 20
1730.876296654464
 30
0.0
  0
DIMENSION
  5
569
330
1F
100
AcDbEntity
  8
标注
100
AcDbDimension
280
     0
  2
*D35
 10
3268.261393680521
 20
1873.159658362612
 30
0.0
 11
3080.761393680521
 21
1873.159658362612
 31
0.0
 70
   160
 71
     5
 42
375.0
 73
     0
 74
     0
 75
     0
  3
1-8-L
100
AcDbAlignedDimension
 13
2893.261393680521
 23
1783.876304488705
 33
0.0
 14
3268.261393680521
 24
1833.87630448872
 34
0.0
100
AcDbRotatedDimension
  0
LEADER
  5
56A
330
1F
100
AcDbEntity
  8
外框线1
100
AcDbLeader
  3
1-8-L
 76
     2
 10
3073.580940687905
 20
1727.268197472545
 30
0.0
 10
3073.580940687905
 20
1682.964647818419
 30
0.0
1001
ACAD
1000
DSTYLE
1002
{
1070
   147
1040
0.625
1070
    77
1070
     0
1002
}
  0
LEADER
  5
56B
330
1F
100
AcDbEntity
  8
外框线1
100
AcDbLeader
  3
1-8-L
 76
     2
 10
2807.912991640267
 20
1728.848600251472
 30
0.0
 10
2807.912991640267
 20
1684.545050597346
 30
0.0
1001
ACAD
1000
DSTYLE
1002
{
1070
   147
1040
0.625
1070
    77
1070
     0
1002
}
  0
INSERT
  5
56C
330
1F
100
AcDbEntity
  8
外框线1
100
AcDbBlockReference
  2
A$C73DC396D
 10
3233.261434019681
 20
1730.876436153838
 30
0.0
 41
-1.0
  0
INSERT
  5
56D
330
1F
100
AcDbEntity
  8
外框线1
100
AcDbBlockReference
  2
A$C73DC396D
 10
2998.261434019682
 20
1730.876436153838
 30
0.0
 41
-1.0
  0
DIMENSION
  5
56E
102
{ACAD_XDICTIONARY
360
56F
102
}
102
{ACAD_REACTORS
330
570
102
}
330
1F
100
AcDbEntity
  8
标注
100
AcDbDimension
280
     0
  2
*D48
 10
2883.261393680492
 20
1272.103798463449
 30
0.0
 11
2808.261393680507
 21
1286.498341437529
 31
0.0
 70
    32
 71
     5
 42
149.9999999999709
 73
     0
 74
     0
 75
     0
  3
1-8-L
100
AcDbAlignedDimension
 13
2733.261393680521
 23
1338.87630448872
 33
0.0
 14
2883.261393680492
 24
1338.87630448872
 34
0.0
100
AcDbRotatedDimension
  0
DIMENSION
  5
571
102
{ACAD_XDICTIONARY
360
572
102
}
102
{ACAD_REACTORS
330
573
102
}
330
1F
100
AcDbEntity
  8
标注
100
AcDbDimension
280
     0
  2
*D49
 10
3243.261393680521
 20
1272.103798463449
 30
0.0
 11
3073.261393680521
 21
1272.103798463449
 31
0.0
 70
   160
 71
     5
 42
340.0
 73
     0
 74
     0
 75
     0
  3
1-8-L
100
AcDbAlignedDimension
 13
2903.261393680521
 23
1338.87630448872
 33
0.0
 14
3243.261393680521
 24
1338.87630448872
 34
0.0
100
AcDbRotatedDimension
  0
LWPOLYLINE
  5
574
330
1F
100
AcDbEntity
  8
外框线1
100
AcDbPolyline
 90
        8
 70
     1
 43
0.0
 10
2805.20102075152
 20
1135.131951401974
 42
0.274206687526
 10
2811.321766609522
 20
1135.131951401974
 10
2832.605963951523
 20
1132.755444601575
 42
-0.6299625821720002
 10
2832.784032366522
 20
1132.244394414771
 42
-0.187293026366
 10
2829.261393680521
 20
1130.292776678474
 10
2787.261393680929
 20
1130.292776678474
 42
-0.187293026366
 10
2783.738754997023
 20
1132.244394416779
 42
-0.6299625821720002
 10
2783.916823410509
 20
1132.755444601575
  0
LWPOLYLINE
  5
575
330
1F
100
AcDbEntity
  8
外框线1
100
AcDbPolyline
 90
        8
 70
     1
 43
0.0
 10
2811.321766610512
 20
1145.453601954974
 42
0.274206687526
 10
2805.20102075152
 20
1145.453601954974
 10
2783.916823410509
 20
1147.830108755373
 42
-0.6299625821720002
 10
2783.738754995014
 20
1148.341158942177
 42
-0.187293026366
 10
2787.261393680929
 20
1150.292776678474
 10
2829.261393680521
 20
1150.292776678474
 42
-0.187293026366
 10
2832.784032364514
 20
1148.341158940169
 42
-0.6299625821720002
 10
2832.605963951523
 20
1147.830108755373
  0
LWPOLYLINE
  5
576
330
1F
100
AcDbEntity
  8
外框线1
100
AcDbPolyline
 90
        4
 70
     1
 43
0.0
 10
2813.94117957251
 20
1138.358860387572
 10
2834.211393680504
 20
1136.785357433578
 10
2834.211393680504
 20
1143.80019592337
 10
2813.94117957251
 20
1142.226692969376
 42
-0.165578060144
  0
LWPOLYLINE
  5
577
330
1F
100
AcDbEntity
  8
外框线1
100
AcDbPolyline
 90
        4
 70
     1
 43
0.0
 10
2802.581607788823
 20
1138.358860387572
 10
2782.311393680917
 20
1136.785357433578
 10
2782.311393680917
 20
1143.80019592337
 10
2802.581607788823
 20
1142.226692969376
 42
0.165578060144
  0
ELLIPSE
  5
578
330
1F
100
AcDbEntity
  8
外框线1
100
AcDbEllipse
 10
2808.261393680521
 20
1140.292776678474
 30
0.0
 11
0.0
 21
2.800000000000181
 31
0.0
210
0.0
220
0.0
230
1.0
 40
0.8216696726797591
 41
0.0
 42
6.283185307179586
  0
DIMENSION
  5
579
330
1F
100
AcDbEntity
  8
标注
100
AcDbDimension
280
     0
  2
*D36
 10
2841.626836796925
 20
1180.29581766557
 30
0.0
 11
2841.626836796924
 21
1108.397538583089
 31
0.0
 70
   160
 71
     5
 42
40.00304098724154
 73
     0
 74
     0
 75
     0
  3
1-8-L
100
AcDbAlignedDimension
 13
2804.444381502828
 23
1140.292776678329
 33
0.0
 14
2804.444381502828
 24
1180.29581766557
 34
0.0
 50
90.0
100
AcDbRotatedDimension
  0
LWPOLYLINE
  5
57A
330
1F
100
AcDbEntity
  8
外框线1
100
AcDbPolyline
 90
        8
 70
     1
 43
0.0
 10
3070.20102075152
 20
1135.131951401974
 42
0.274206687526
 10
3076.321766609523
 20
1135.131951401974
 10
3097.605963951523
 20
1132.755444601575
 42
-0.6299625821720002
 10
3097.784032366523
 20
1132.244394414771
 42
-0.187293026366
 10
3094.261393680521
 20
1130.292776678474
 10
3052.261393680929
 20
1130.292776678474
 42
-0.187293026366
 10
3048.738754997023
 20
1132.244394416779
 42
-0.6299625821720002
 10
3048.916823410509
 20
1132.755444601575
  0
LWPOLYLINE
  5
57B
330
1F
100
AcDbEntity
  8
外框线1
100
AcDbPolyline
 90
        8
 70
     1
 43
0.0
 10
3076.321766610512
 20
1145.453601954974
 42
0.274206687526
 10
3070.20102075152
 20
1145.453601954974
 10
3048.916823410509
 20
1147.830108755373
 42
-0.6299625821720002
 10
3048.738754995015
 20
1148.341158942177
 42
-0.187293026366
 10
3052.261393680929
 20
1150.292776678474
 10
3094.261393680521
 20
1150.292776678474
 42
-0.187293026366
 10
3097.784032364514
 20
1148.341158940169
 42
-0.6299625821720002
 10
3097.605963951523
 20
1147.830108755373
  0
LWPOLYLINE
  5
57C
330
1F
100
AcDbEntity
  8
外框线1
100
AcDbPolyline
 90
        4
 70
     1
 43
0.0
 10
3078.94117957251
 20
1138.358860387572
 10
3099.211393680504
 20
1136.785357433578
 10
3099.211393680504
 20
1143.80019592337
 10
3078.94117957251
 20
1142.226692969376
 42
-0.165578060144
  0
LWPOLYLINE
  5
57D
330
1F
100
AcDbEntity
  8
外框线1
100
AcDbPolyline
 90
        4
 70
     1
 43
0.0
 10
3067.581607788823
 20
1138.358860387572
 10
3047.311393680917
 20
1136.785357433578
 10
3047.311393680917
 20
1143.80019592337
 10
3067.581607788823
 20
1142.226692969376
 42
0.165578060144
  0
ELLIPSE
  5
57E
330
1F
100
AcDbEntity
  8
外框线1
100
AcDbEllipse
 10
3073.261393680521
 20
1140.292776678474
 30
0.0
 11
0.0
 21
2.800000000000181
 31
0.0
210
0.0
220
0.0
230
1.0
 40
0.8216696726797591
 41
0.0
 42
6.283185307179586
  0
DIMENSION
  5
57F
330
1F
100
AcDbEntity
  8
标注
100
AcDbDimension
280
     0
  2
*D37
 10
3125.133473640927
 20
1180.29581766557
 30
0.0
 11
3125.133473640926
 21
1108.397538583089
 31
0.0
 70
   160
 71
     5
 42
40.00304098724154
 73
     0
 74
     0
 75
     0
  3
1-8-L
100
AcDbAlignedDimension
 13
3069.444381502828
 23
1140.292776678329
 33
0.0
 14
3069.444381502828
 24
1180.29581766557
 34
0.0
 50
90.0
100
AcDbRotatedDimension
  0
DIMENSION
  5
580
330
1F
100
AcDbEntity
  8
标注
100
AcDbDimension
280
     0
  2
*D38
 10
3099.211393680067
 20
1047.226109407627
 30
0.0
 11
3173.981226082302
 21
1047.226109407627
 31
0.0
 70
   160
  1
{\fSimSun|b0|i0|c134|p2;53.5-53.6}
 71
     5
 42
51.89999999958672
 73
     0
 74
     0
 75
     0
  3
1-8-L
100
AcDbAlignedDimension
 13
3047.311393680481
 23
1143.800195923588
 33
0.0
 14
3099.211393680067
 24
1143.800195923588
 34
0.0
100
AcDbRotatedDimension
  0
INSERT
  5
581
330
1F
100
AcDbEntity
  8
外框线1
100
AcDbBlockReference
  2
A$C6E3C7DD4
 10
3243.261293162702
 20
1166.295847085424
 30
0.0
 41
-1.0
  0
INSERT
  5
582
330
1F
100
AcDbEntity
  8
外框线1
100
AcDbBlockReference
  2
A$C6A1E44B3
 10
2743.261471586411
 20
1096.295705134213
 30
0.0
  0
INSERT
  5
583
330
1F
100
AcDbEntity
  8
外框线1
100
AcDbBlockReference
  2
A$C6A1E44B3
 10
2998.261393680667
 20
1096.295705134213
 30
0.0
 41
-1.0
  0
INSERT
  5
584
330
1F
100
AcDbEntity
  8
外框线1
100
AcDbBlockReference
  2
A$C6A1E44B3
 10
3233.261393680667
 20
1096.295705134213
 30
0.0
 41
-1.0
  0
ARC
  5
585
330
1F
100
AcDbEntity
  8
外框线1
100
AcDbCircle
 10
2801.381393680342
 20
1620.433471096639
 30
0.0
 40
3.33
100
AcDbArc
 50
300.765406939364
 51
0.0
  0
ARC
  5
586
330
1F
100
AcDbEntity
  8
外框线1
100
AcDbCircle
 10
2801.692593802109
 20
1620.613142570703
 30
0.0
 40
3.33
100
AcDbArc
 50
239.999999999938
 51
299.2345930572712
  0
ARC
  5
587
330
1F
100
AcDbEntity
  8
外框线1
100
AcDbCircle
 10
2808.261393680347
 20
1608.876304488705
 30
0.0
 40
19.0
100
AcDbArc
 50
109.0546939574512
 51
130.9453060426577
  0
ARC
  5
588
330
1F
100
AcDbEntity
  8
外框线1
100
AcDbCircle
 10
2802.711393680358
 20
1624.944829623262
 30
0.0
 40
2.0
100
AcDbArc
 50
0.0
 51
109.0546939574512
  0
ARC
  5
589
330
1F
100
AcDbEntity
  8
外框线1
100
AcDbCircle
 10
2797.120642712449
 20
1621.717008046999
 30
0.0
 40
2.0
100
AcDbArc
 50
130.9453060426577
 51
239.999999999938
  0
CIRCLE
  5
58A
330
1F
100
AcDbEntity
  8
外框线1
100
AcDbCircle
 10
2808.261393680347
 20
1608.876304488705
 30
0.0
 40
6.025
  0
CIRCLE
  5
58B
330
1F
100
AcDbEntity
  8
外框线1
100
AcDbCircle
 10
2808.261393680347
 20
1608.876304488705
 30
0.0
 40
23.55
  0
LINE
  5
58C
330
1F
100
AcDbEntity
  8
外框线1
100
AcDbLine
 10
2804.711393680358
 20
1620.433471096639
 30
0.0
 11
2804.711393680358
 21
1624.944829623262
 31
0.0
  0
LINE
  5
58D
330
1F
100
AcDbEntity
  8
外框线1
100
AcDbLine
 10
2800.027593802072
 20
1617.729277976108
 30
0.0
 11
2796.120642712449
 21
1619.984957239434
 31
0.0
  0
ARC
  5
58E
330
1F
100
AcDbEntity
  8
外框线1
100
AcDbCircle
 10
2794.812593802104
 20
1608.696633014642
 30
0.0
 40
3.33
100
AcDbArc
 50
0.7654069411920834
 51
59.99999999993804
  0
ARC
  5
58F
330
1F
100
AcDbEntity
  8
外框线1
100
AcDbCircle
 10
2794.812593802104
 20
1609.055975962769
 30
0.0
 40
3.33
100
AcDbArc
 50
300.0000000000619
 51
359.2345930588079
  0
ARC
  5
590
330
1F
100
AcDbEntity
  8
外框线1
100
AcDbCircle
 10
2808.261393680347
 20
1608.876304488705
 30
0.0
 40
19.0
100
AcDbArc
 50
169.0546939578236
 51
190.9453060421764
  0
ARC
  5
591
330
1F
100
AcDbEntity
  8
外框线1
100
AcDbCircle
 10
2791.570642712461
 20
1612.104126064998
 30
0.0
 40
2.0
100
AcDbArc
 50
59.99999999993804
 51
169.0546939578236
  0
ARC
  5
592
330
1F
100
AcDbEntity
  8
外框线1
100
AcDbCircle
 10
2791.570642712461
 20
1605.648482912442
 30
0.0
 40
2.0
100
AcDbArc
 50
190.9453060421764
 51
300.0000000000619
  0
LINE
  5
593
330
1F
100
AcDbEntity
  8
外框线1
100
AcDbLine
 10
2796.477593802083
 20
1611.580497609236
 30
0.0
 11
2792.570642712461
 21
1613.836176872563
 31
0.0
  0
LINE
  5
594
330
1F
100
AcDbEntity
  8
外框线1
100
AcDbLine
 10
2796.477593802083
 20
1606.172111368174
 30
0.0
 11
2792.570642712461
 21
1603.916432104848
 31
0.0
  0
ARC
  5
595
330
1F
100
AcDbEntity
  8
外框线1
100
AcDbCircle
 10
2801.692593802109
 20
1597.139466406708
 30
0.0
 40
3.329999999999999
100
AcDbArc
 50
60.76540694272882
 51
120.0000000000619
  0
ARC
  5
596
330
1F
100
AcDbEntity
  8
外框线1
100
AcDbCircle
 10
2801.381393680342
 20
1597.319137880771
 30
0.0
 40
3.329999999999999
100
AcDbArc
 50
0.0
 51
59.23459306063598
  0
ARC
  5
597
330
1F
100
AcDbEntity
  8
外框线1
100
AcDbCircle
 10
2808.261393680347
 20
1608.876304488705
 30
0.0
 40
19.0
100
AcDbArc
 50
229.0546939573423
 51
250.9453060425487
  0
ARC
  5
598
330
1F
100
AcDbEntity
  8
外框线1
100
AcDbCircle
 10
2797.120642712449
 20
1596.035600930412
 30
0.0
 40
1.999999999999999
100
AcDbArc
 50
120.0000000000619
 51
229.0546939573423
  0
ARC
  5
599
330
1F
100
AcDbEntity
  8
外框线1
100
AcDbCircle
 10
2802.711393680358
 20
1592.807779354149
 30
0.0
 40
1.999999999999999
100
AcDbArc
 50
250.9453060425487
 51
0.0
  0
LINE
  5
59A
330
1F
100
AcDbEntity
  8
外框线1
100
AcDbLine
 10
2800.027593802072
 20
1600.023331001303
 30
0.0
 11
2796.120642712449
 21
1597.767651738006
 31
0.0
  0
LINE
  5
59B
330
1F
100
AcDbEntity
  8
外框线1
100
AcDbLine
 10
2804.711393680358
 20
1597.319137880771
 30
0.0
 11
2804.711393680358
 21
1592.807779354149
 31
0.0
  0
ARC
  5
59C
330
1F
100
AcDbEntity
  8
外框线1
100
AcDbCircle
 10
2815.141393680351
 20
1597.319137880771
 30
0.0
 40
3.33
100
AcDbArc
 50
120.765406939364
 51
180.0
  0
ARC
  5
59D
330
1F
100
AcDbEntity
  8
外框线1
100
AcDbCircle
 10
2814.830193558584
 20
1597.139466406708
 30
0.0
 40
3.33
100
AcDbArc
 50
59.99999999993804
 51
119.2345930572711
  0
ARC
  5
59E
330
1F
100
AcDbEntity
  8
外框线1
100
AcDbCircle
 10
2808.261393680347
 20
1608.876304488705
 30
0.0
 40
19.0
100
AcDbArc
 50
289.0546939574512
 51
310.9453060426577
  0
ARC
  5
59F
330
1F
100
AcDbEntity
  8
外框线1
100
AcDbCircle
 10
2813.811393680335
 20
1592.807779354149
 30
0.0
 40
2.0
100
AcDbArc
 50
180.0
 51
289.0546939574512
  0
ARC
  5
5A0
330
1F
100
AcDbEntity
  8
外框线1
100
AcDbCircle
 10
2819.402144648244
 20
1596.035600930441
 30
0.0
 40
2.0
100
AcDbArc
 50
310.9453060426577
 51
59.99999999993804
  0
LINE
  5
5A1
330
1F
100
AcDbEntity
  8
外框线1
100
AcDbLine
 10
2811.811393680335
 20
1597.319137880771
 30
0.0
 11
2811.811393680335
 21
1592.807779354149
 31
0.0
  0
LINE
  5
5A2
330
1F
100
AcDbEntity
  8
外框线1
100
AcDbLine
 10
2816.495193558621
 20
1600.023331001303
 30
0.0
 11
2820.402144648244
 21
1597.767651738006
 31
0.0
  0
ARC
  5
5A3
330
1F
100
AcDbEntity
  8
外框线1
100
AcDbCircle
 10
2821.710193558589
 20
1609.055975962769
 30
0.0
 40
3.33
100
AcDbArc
 50
180.7654069411921
 51
239.999999999938
  0
ARC
  5
5A4
330
1F
100
AcDbEntity
  8
外框线1
100
AcDbCircle
 10
2821.710193558589
 20
1608.696633014642
 30
0.0
 40
3.33
100
AcDbArc
 50
120.0000000000619
 51
179.2345930588079
  0
ARC
  5
5A5
330
1F
100
AcDbEntity
  8
外框线1
100
AcDbCircle
 10
2808.261393680347
 20
1608.876304488705
 30
0.0
 40
19.0
100
AcDbArc
 50
349.0546939578236
 51
10.94530604217638
  0
ARC
  5
5A6
330
1F
100
AcDbEntity
  8
外框线1
100
AcDbCircle
 10
2824.952144648232
 20
1605.648482912442
 30
0.0
 40
2.0
100
AcDbArc
 50
239.999999999938
 51
349.0546939578236
  0
ARC
  5
5A7
330
1F
100
AcDbEntity
  8
外框线1
100
AcDbCircle
 10
2824.952144648232
 20
1612.104126064998
 30
0.0
 40
2.0
100
AcDbArc
 50
10.94530604217638
 51
120.0000000000619
  0
LINE
  5
5A8
330
1F
100
AcDbEntity
  8
外框线1
100
AcDbLine
 10
2820.045193558552
 20
1606.172111368174
 30
0.0
 11
2823.952144648232
 21
1603.916432104877
 31
0.0
  0
LINE
  5
5A9
330
1F
100
AcDbEntity
  8
外框线1
100
AcDbLine
 10
2820.045193558552
 20
1611.580497609236
 30
0.0
 11
2823.952144648232
 21
1613.836176872563
 31
0.0
  0
ARC
  5
5AA
330
1F
100
AcDbEntity
  8
外框线1
100
AcDbCircle
 10
2814.830193558584
 20
1620.613142570703
 30
0.0
 40
3.33
100
AcDbArc
 50
240.7654069427288
 51
300.0000000000619
  0
ARC
  5
5AB
330
1F
100
AcDbEntity
  8
外框线1
100
AcDbCircle
 10
2815.141393680351
 20
1620.433471096639
 30
0.0
 40
3.33
100
AcDbArc
 50
180.0
 51
239.234593060636
  0
ARC
  5
5AC
330
1F
100
AcDbEntity
  8
外框线1
100
AcDbCircle
 10
2808.261393680347
 20
1608.876304488705
 30
0.0
 40
19.0
100
AcDbArc
 50
49.05469395734226
 51
70.94530604254877
  0
ARC
  5
5AD
330
1F
100
AcDbEntity
  8
外框线1
100
AcDbCircle
 10
2819.402144648244
 20
1621.717008046999
 30
0.0
 40
2.0
100
AcDbArc
 50
300.0000000000619
 51
49.05469395734226
  0
ARC
  5
5AE
330
1F
100
AcDbEntity
  8
外框线1
100
AcDbCircle
 10
2813.811393680335
 20
1624.944829623262
 30
0.0
 40
2.0
100
AcDbArc
 50
70.94530604254877
 51
180.0
  0
LINE
  5
5AF
330
1F
100
AcDbEntity
  8
外框线1
100
AcDbLine
 10
2816.495193558564
 20
1617.729277976108
 30
0.0
 11
2820.402144648244
 21
1619.984957239434
 31
0.0
  0
LINE
  5
5B0
330
1F
100
AcDbEntity
  8
外框线1
100
AcDbLine
 10
2811.811393680335
 20
1620.433471096639
 30
0.0
 11
2811.811393680335
 21
1624.944829623262
 31
0.0
  0
CIRCLE
  5
5B1
330
1F
100
AcDbEntity
  8
外框线1
100
AcDbCircle
 10
2808.261393680347
 20
1608.876304488705
 30
0.0
 40
50.75
  0
DIMENSION
  5
5B2
330
1F
100
AcDbEntity
  8
标注
100
AcDbDimension
280
     0
  2
*D29
 10
3032.237430303773
 20
1638.752665191776
 30
0.0
 11
3179.747231318317
 21
1549.77010864258
 31
0.0
 70
    35
 71
     5
 42
101.4999999999183
 73
     0
 74
     0
 75
     0
  3
1-8-L
100
AcDbDiametricDimension
 15
3114.285357057226
 25
1578.999943785606
 35
0.0
 40
0.0
1001
ACAD_DSTYLE_DIMRADIAL_EXTENSION
1070
   387
1070
     1
1070
   388
1040
0.0
1070
   390
1040
0.0
  0
ARC
  5
5B3
330
1F
100
AcDbEntity
  8
外框线1
100
AcDbCircle
 10
3066.381393680313
 20
1620.433471096654
 30
0.0
 40
3.33
100
AcDbArc
 50
300.765406939364
 51
0.0
  0
ARC
  5
5B4
330
1F
100
AcDbEntity
  8
外框线1
100
AcDbCircle
 10
3066.69259380208
 20
1620.613142570717
 30
0.0
 40
3.33
100
AcDbArc
 50
239.999999999938
 51
299.2345930572712
  0
ARC
  5
5B5
330
1F
100
AcDbEntity
  8
外框线1
100
AcDbCircle
 10
3073.261393680317
 20
1608.87630448872
 30
0.0
 40
19.0
100
AcDbArc
 50
109.0546939574512
 51
130.9453060426577
  0
ARC
  5
5B6
330
1F
100
AcDbEntity
  8
外框线1
100
AcDbCircle
 10
3067.711393680329
 20
1624.944829623277
 30
0.0
 40
2.0
100
AcDbArc
 50
0.0
 51
109.0546939574512
  0
ARC
  5
5B7
330
1F
100
AcDbEntity
  8
外框线1
100
AcDbCircle
 10
3062.12064271242
 20
1621.717008046999
 30
0.0
 40
2.0
100
AcDbArc
 50
130.9453060426577
 51
239.999999999938
  0
CIRCLE
  5
5B8
330
1F
100
AcDbEntity
  8
外框线1
100
AcDbCircle
 10
3073.261393680317
 20
1608.87630448872
 30
0.0
 40
6.025
  0
CIRCLE
  5
5B9
330
1F
100
AcDbEntity
  8
外框线1
100
AcDbCircle
 10
3073.261393680317
 20
1608.87630448872
 30
0.0
 40
23.55
  0
LINE
  5
5BA
330
1F
100
AcDbEntity
  8
外框线1
100
AcDbLine
 10
3069.711393680329
 20
1620.433471096654
 30
0.0
 11
3069.711393680329
 21
1624.944829623277
 31
0.0
  0
LINE
  5
5BB
330
1F
100
AcDbEntity
  8
外框线1
100
AcDbLine
 10
3065.027593802043
 20
1617.729277976122
 30
0.0
 11
3061.12064271242
 21
1619.984957239434
 31
0.0
  0
ARC
  5
5BC
330
1F
100
AcDbEntity
  8
外框线1
100
AcDbCircle
 10
3059.812593802075
 20
1608.696633014642
 30
0.0
 40
3.33
100
AcDbArc
 50
0.7654069411920834
 51
59.99999999993804
  0
ARC
  5
5BD
330
1F
100
AcDbEntity
  8
外框线1
100
AcDbCircle
 10
3059.812593802075
 20
1609.055975962783
 30
0.0
 40
3.33
100
AcDbArc
 50
300.0000000000619
 51
359.2345930588079
  0
ARC
  5
5BE
330
1F
100
AcDbEntity
  8
外框线1
100
AcDbCircle
 10
3073.261393680317
 20
1608.87630448872
 30
0.0
 40
19.0
100
AcDbArc
 50
169.0546939578236
 51
190.9453060421764
  0
ARC
  5
5BF
330
1F
100
AcDbEntity
  8
外框线1
100
AcDbCircle
 10
3056.570642712431
 20
1612.104126064998
 30
0.0
 40
2.0
100
AcDbArc
 50
59.99999999993804
 51
169.0546939578236
  0
ARC
  5
5C0
330
1F
100
AcDbEntity
  8
外框线1
100
AcDbCircle
 10
3056.570642712431
 20
1605.648482912442
 30
0.0
 40
2.0
100
AcDbArc
 50
190.9453060421764
 51
300.0000000000619
  0
LINE
  5
5C1
330
1F
100
AcDbEntity
  8
外框线1
100
AcDbLine
 10
3061.477593802054
 20
1611.580497609251
 30
0.0
 11
3057.570642712432
 21
1613.836176872563
 31
0.0
  0
LINE
  5
5C2
330
1F
100
AcDbEntity
  8
外框线1
100
AcDbLine
 10
3061.477593802054
 20
1606.172111368174
 30
0.0
 11
3057.570642712432
 21
1603.916432104863
 31
0.0
  0
ARC
  5
5C3
330
1F
100
AcDbEntity
  8
外框线1
100
AcDbCircle
 10
3066.69259380208
 20
1597.139466406708
 30
0.0
 40
3.329999999999999
100
AcDbArc
 50
60.76540694272882
 51
120.0000000000619
  0
ARC
  5
5C4
330
1F
100
AcDbEntity
  8
外框线1
100
AcDbCircle
 10
3066.381393680313
 20
1597.319137880771
 30
0.0
 40
3.329999999999999
100
AcDbArc
 50
0.0
 51
59.23459306063598
  0
ARC
  5
5C5
330
1F
100
AcDbEntity
  8
外框线1
100
AcDbCircle
 10
3073.261393680317
 20
1608.87630448872
 30
0.0
 40
19.0
100
AcDbArc
 50
229.0546939573423
 51
250.9453060425487
  0
ARC
  5
5C6
330
1F
100
AcDbEntity
  8
外框线1
100
AcDbCircle
 10
3062.12064271242
 20
1596.035600930427
 30
0.0
 40
1.999999999999999
100
AcDbArc
 50
120.0000000000619
 51
229.0546939573423
  0
ARC
  5
5C7
330
1F
100
AcDbEntity
  8
外框线1
100
AcDbCircle
 10
3067.711393680329
 20
1592.807779354149
 30
0.0
 40
1.999999999999999
100
AcDbArc
 50
250.9453060425487
 51
0.0
  0
LINE
  5
5C8
330
1F
100
AcDbEntity
  8
外框线1
100
AcDbLine
 10
3065.027593802043
 20
1600.023331001317
 30
0.0
 11
3061.12064271242
 21
1597.767651738006
 31
0.0
  0
LINE
  5
5C9
330
1F
100
AcDbEntity
  8
外框线1
100
AcDbLine
 10
3069.711393680329
 20
1597.319137880771
 30
0.0
 11
3069.711393680329
 21
1592.807779354149
 31
0.0
  0
ARC
  5
5CA
330
1F
100
AcDbEntity
  8
外框线1
100
AcDbCircle
 10
3080.141393680322
 20
1597.319137880786
 30
0.0
 40
3.33
100
AcDbArc
 50
120.765406939364
 51
180.0
  0
ARC
  5
5CB
330
1F
100
AcDbEntity
  8
外框线1
100
AcDbCircle
 10
3079.830193558555
 20
1597.139466406708
 30
0.0
 40
3.33
100
AcDbArc
 50
59.99999999993804
 51
119.2345930572711
  0
ARC
  5
5CC
330
1F
100
AcDbEntity
  8
外框线1
100
AcDbCircle
 10
3073.261393680317
 20
1608.87630448872
 30
0.0
 40
19.0
100
AcDbArc
 50
289.0546939574512
 51
310.9453060426577
  0
ARC
  5
5CD
330
1F
100
AcDbEntity
  8
外框线1
100
AcDbCircle
 10
3078.811393680306
 20
1592.807779354163
 30
0.0
 40
2.0
100
AcDbArc
 50
180.0
 51
289.0546939574512
  0
ARC
  5
5CE
330
1F
100
AcDbEntity
  8
外框线1
100
AcDbCircle
 10
3084.402144648215
 20
1596.035600930441
 30
0.0
 40
2.0
100
AcDbArc
 50
310.9453060426577
 51
59.99999999993804
  0
LINE
  5
5CF
330
1F
100
AcDbEntity
  8
外框线1
100
AcDbLine
 10
3076.811393680306
 20
1597.319137880786
 30
0.0
 11
3076.811393680306
 21
1592.807779354163
 31
0.0
  0
LINE
  5
5D0
330
1F
100
AcDbEntity
  8
外框线1
100
AcDbLine
 10
3081.495193558593
 20
1600.023331001317
 30
0.0
 11
3085.402144648215
 21
1597.767651738006
 31
0.0
  0
ARC
  5
5D1
330
1F
100
AcDbEntity
  8
外框线1
100
AcDbCircle
 10
3086.71019355856
 20
1609.055975962783
 30
0.0
 40
3.33
100
AcDbArc
 50
180.7654069411921
 51
239.999999999938
  0
ARC
  5
5D2
330
1F
100
AcDbEntity
  8
外框线1
100
AcDbCircle
 10
3086.71019355856
 20
1608.696633014657
 30
0.0
 40
3.33
100
AcDbArc
 50
120.0000000000619
 51
179.2345930588079
  0
ARC
  5
5D3
330
1F
100
AcDbEntity
  8
外框线1
100
AcDbCircle
 10
3073.261393680317
 20
1608.87630448872
 30
0.0
 40
19.0
100
AcDbArc
 50
349.0546939578236
 51
10.94530604217638
  0
ARC
  5
5D4
330
1F
100
AcDbEntity
  8
外框线1
100
AcDbCircle
 10
3089.952144648203
 20
1605.648482912442
 30
0.0
 40
2.0
100
AcDbArc
 50
239.999999999938
 51
349.0546939578236
  0
ARC
  5
5D5
330
1F
100
AcDbEntity
  8
外框线1
100
AcDbCircle
 10
3089.952144648203
 20
1612.104126064998
 30
0.0
 40
2.0
100
AcDbArc
 50
10.94530604217638
 51
120.0000000000619
  0
LINE
  5
5D6
330
1F
100
AcDbEntity
  8
外框线1
100
AcDbLine
 10
3085.045193558523
 20
1606.172111368189
 30
0.0
 11
3088.952144648204
 21
1603.916432104877
 31
0.0
  0
LINE
  5
5D7
330
1F
100
AcDbEntity
  8
外框线1
100
AcDbLine
 10
3085.045193558523
 20
1611.580497609251
 30
0.0
 11
3088.952144648204
 21
1613.836176872563
 31
0.0
  0
ARC
  5
5D8
330
1F
100
AcDbEntity
  8
外框线1
100
AcDbCircle
 10
3079.830193558555
 20
1620.613142570717
 30
0.0
 40
3.33
100
AcDbArc
 50
240.7654069427288
 51
300.0000000000619
  0
ARC
  5
5D9
330
1F
100
AcDbEntity
  8
外框线1
100
AcDbCircle
 10
3080.141393680322
 20
1620.433471096654
 30
0.0
 40
3.33
100
AcDbArc
 50
180.0
 51
239.234593060636
  0
ARC
  5
5DA
330
1F
100
AcDbEntity
  8
外框线1
100
AcDbCircle
 10
3073.261393680317
 20
1608.87630448872
 30
0.0
 40
19.0
100
AcDbArc
 50
49.05469395734226
 51
70.94530604254877
  0
ARC
  5
5DB
330
1F
100
AcDbEntity
  8
外框线1
100
AcDbCircle
 10
3084.402144648215
 20
1621.717008046999
 30
0.0
 40
2.0
100
AcDbArc
 50
300.0000000000619
 51
49.05469395734226
  0
ARC
  5
5DC
330
1F
100
AcDbEntity
  8
外框线1
100
AcDbCircle
 10
3078.811393680306
 20
1624.944829623277
 30
0.0
 40
2.0
100
AcDbArc
 50
70.94530604254877
 51
180.0
  0
LINE
  5
5DD
330
1F
100
AcDbEntity
  8
外框线1
100
AcDbLine
 10
3081.495193558534
 20
1617.729277976122
 30
0.0
 11
3085.402144648215
 21
1619.984957239434
 31
0.0
  0
LINE
  5
5DE
330
1F
100
AcDbEntity
  8
外框线1
100
AcDbLine
 10
3076.811393680306
 20
1620.433471096654
 30
0.0
 11
3076.811393680306
 21
1624.944829623277
 31
0.0
  0
CIRCLE
  5
5DF
330
1F
100
AcDbEntity
  8
外框线1
100
AcDbCircle
 10
3073.261393680317
 20
1608.87630448872
 30
0.0
 40
50.75
  0
ARC
  5
5E0
330
1F
100
AcDbEntity
  8
外框线1
100
AcDbCircle
 10
2755.995999154308
 20
1048.29581766557
 30
0.0
 40
2.0
100
AcDbArc
 50
0.9999999998715059
 51
90.0
  0
LINE
  5
5E1
330
1F
100
AcDbEntity
  8
外框线1
100
AcDbLine
 10
2795.129759049298
 20
1026.29581766557
 30
0.0
 11
2804.711393680504
 21
1026.29581766557
 31
0.0
  0
LINE
  5
5E2
330
1F
100
AcDbEntity
  8
外框线1
100
AcDbLine
 10
2757.995694544596
 20
1048.330722478455
 30
0.0
 11
2758.079998938331
 21
1043.500926996163
 31
0.0
  0
ARC
  5
5E3
330
1F
100
AcDbEntity
  8
外框线1
100
AcDbCircle
 10
2768.078475889888
 20
1043.675451060542
 30
0.0
 40
10.0
100
AcDbArc
 50
180.9999999998715
 51
268.9999999984608
  0
LINE
  5
5E4
330
1F
100
AcDbEntity
  8
外框线1
100
AcDbLine
 10
2783.028846086956
 20
1033.412968097607
 30
0.0
 11
2767.903951825538
 21
1033.67697410897
 31
0.0
  0
ARC
  5
5E5
330
1F
100
AcDbEntity
  8
外框线1
100
AcDbCircle
 10
2783.011393680492
 20
1032.413120402449
 30
0.0
 40
1.0
100
AcDbArc
 50
0.0
 51
89.00000000179634
  0
LINE
  5
5E6
330
1F
100
AcDbEntity
  8
外框线1
100
AcDbLine
 10
2784.011393680492
 20
1032.413120402449
 30
0.0
 11
2784.062924654943
 21
1029.460912852697
 31
0.0
  0
LINE
  5
5E7
330
1F
100
AcDbEntity
  8
外框线1
100
AcDbLine
 10
2808.261393680492
 20
1027.495817665567
 30
0.0
 11
2786.06262004529
 21
1027.495817665567
 31
0.0
  0
ARC
  5
5E8
330
1F
100
AcDbEntity
  8
外框线1
100
AcDbCircle
 10
2786.06262004529
 20
1029.495817665567
 30
0.0
 40
2.0
100
AcDbArc
 50
180.9999999998715
 51
270.0
  0
LINE
  5
5E9
330
1F
100
AcDbEntity
  8
外框线1
100
AcDbLine
 10
2795.129759049298
 20
1027.495817665567
 30
0.0
 11
2795.129759049298
 21
1026.29581766557
 31
0.0
  0
LINE
  5
5EA
330
1F
100
AcDbEntity
  8
外框线1
100
AcDbLine
 10
2804.711393680504
 20
1027.495817665567
 30
0.0
 11
2804.711393680504
 21
1026.29581766557
 31
0.0
  0
LINE
  5
5EB
330
1F
100
AcDbEntity
  8
外框线1
100
AcDbLine
 10
2821.393028311744
 20
1026.29581766557
 30
0.0
 11
2811.811393680539
 21
1026.29581766557
 31
0.0
  0
LINE
  5
5EC
330
1F
100
AcDbEntity
  8
外框线1
100
AcDbLine
 10
2858.527092816446
 20
1048.330722478455
 30
0.0
 11
2858.442788422712
 21
1043.500926996177
 31
0.0
  0
ARC
  5
5ED
330
1F
100
AcDbEntity
  8
外框线1
100
AcDbCircle
 10
2848.444311471154
 20
1043.675451060542
 30
0.0
 40
10.0
100
AcDbArc
 50
270.9999999982037
 51
359.0000000001285
  0
LINE
  5
5EE
330
1F
100
AcDbEntity
  8
外框线1
100
AcDbLine
 10
2833.493941274086
 20
1033.412968097622
 30
0.0
 11
2848.618835535504
 21
1033.676974108985
 31
0.0
  0
ARC
  5
5EF
330
1F
100
AcDbEntity
  8
外框线1
100
AcDbCircle
 10
2833.511393680492
 20
1032.413120402463
 30
0.0
 40
1.0
100
AcDbArc
 50
90.99999999820365
 51
180.0
  0
LINE
  5
5F0
330
1F
100
AcDbEntity
  8
外框线1
100
AcDbLine
 10
2832.511393680492
 20
1032.413120402463
 30
0.0
 11
2832.45986270604
 21
1029.460912852697
 31
0.0
  0
LINE
  5
5F1
330
1F
100
AcDbEntity
  8
外框线1
100
AcDbLine
 10
2808.261393680492
 20
1027.495817665567
 30
0.0
 11
2830.460167315752
 21
1027.495817665567
 31
0.0
  0
ARC
  5
5F2
330
1F
100
AcDbEntity
  8
外框线1
100
AcDbCircle
 10
2830.460167315752
 20
1029.495817665567
 30
0.0
 40
2.0
100
AcDbArc
 50
270.0
 51
359.0000000001285
  0
LINE
  5
5F3
330
1F
100
AcDbEntity
  8
外框线1
100
AcDbLine
 10
2821.393028311744
 20
1027.495817665567
 30
0.0
 11
2821.393028311744
 21
1026.29581766557
 31
0.0
  0
LINE
  5
5F4
330
1F
100
AcDbEntity
  8
外框线1
100
AcDbLine
 10
2811.811393680539
 20
1027.495817665567
 30
0.0
 11
2811.811393680539
 21
1026.29581766557
 31
0.0
  0
ARC
  5
5F5
330
1F
100
AcDbEntity
  8
外框线1
100
AcDbCircle
 10
2860.526788206735
 20
1048.29581766557
 30
0.0
 40
2.0
100
AcDbArc
 50
90.0
 51
179.0000000001285
  0
LINE
  5
5F6
330
1F
100
AcDbEntity
  8
外框线1
100
AcDbLine
 10
2755.995999154308
 20
1050.29581766557
 30
0.0
 11
2860.526788206735
 21
1050.29581766557
 31
0.0
  0
ARC
  5
5F7
330
1F
100
AcDbEntity
  8
外框线1
100
AcDbCircle
 10
3020.995999154307
 20
993.2958176655702
 30
0.0
 40
2.0
100
AcDbArc
 50
0.9999999998715059
 51
90.0
  0
LINE
  5
5F8
330
1F
100
AcDbEntity
  8
外框线1
100
AcDbLine
 10
3060.129759049298
 20
971.2958176655702
 30
0.0
 11
3069.711393680504
 21
971.2958176655702
 31
0.0
  0
LINE
  5
5F9
330
1F
100
AcDbEntity
  8
外框线1
100
AcDbLine
 10
3022.995694544596
 20
993.3307224784549
 30
0.0
 11
3023.07999893833
 21
988.5009269961628
 31
0.0
  0
ARC
  5
5FA
330
1F
100
AcDbEntity
  8
外框线1
100
AcDbCircle
 10
3033.078475889888
 20
988.6754510605424
 30
0.0
 40
10.0
100
AcDbArc
 50
180.9999999998715
 51
268.9999999984608
  0
LINE
  5
5FB
330
1F
100
AcDbEntity
  8
外框线1
100
AcDbLine
 10
3048.028846086956
 20
978.4129680976075
 30
0.0
 11
3032.903951825538
 21
978.6769741089701
 31
0.0
  0
ARC
  5
5FC
330
1F
100
AcDbEntity
  8
外框线1
100
AcDbCircle
 10
3048.011393680492
 20
977.4131204024488
 30
0.0
 40
1.0
100
AcDbArc
 50
0.0
 51
89.00000000179634
  0
LINE
  5
5FD
330
1F
100
AcDbEntity
  8
外框线1
100
AcDbLine
 10
3049.011393680492
 20
977.4131204024488
 30
0.0
 11
3049.062924654944
 21
974.4609128526972
 31
0.0
  0
LINE
  5
5FE
330
1F
100
AcDbEntity
  8
外框线1
100
AcDbLine
 10
3073.261393680492
 20
972.4958176655674
 30
0.0
 11
3051.06262004529
 21
972.4958176655674
 31
0.0
  0
ARC
  5
5FF
330
1F
100
AcDbEntity
  8
外框线1
100
AcDbCircle
 10
3051.06262004529
 20
974.4958176655673
 30
0.0
 40
2.0
100
AcDbArc
 50
180.9999999998715
 51
270.0
  0
LINE
  5
600
330
1F
100
AcDbEntity
  8
外框线1
100
AcDbLine
 10
3060.129759049298
 20
972.4958176655674
 30
0.0
 11
3060.129759049298
 21
971.2958176655702
 31
0.0
  0
LINE
  5
601
330
1F
100
AcDbEntity
  8
外框线1
100
AcDbLine
 10
3069.711393680504
 20
972.4958176655674
 30
0.0
 11
3069.711393680504
 21
971.2958176655702
 31
0.0
  0
LINE
  5
602
330
1F
100
AcDbEntity
  8
外框线1
100
AcDbLine
 10
3086.393028311745
 20
971.2958176655702
 30
0.0
 11
3076.811393680539
 21
971.2958176655702
 31
0.0
  0
LINE
  5
603
330
1F
100
AcDbEntity
  8
外框线1
100
AcDbLine
 10
3123.527092816447
 20
993.3307224784549
 30
0.0
 11
3123.442788422712
 21
988.5009269961773
 31
0.0
  0
ARC
  5
604
330
1F
100
AcDbEntity
  8
外框线1
100
AcDbCircle
 10
3113.444311471154
 20
988.6754510605424
 30
0.0
 40
10.0
100
AcDbArc
 50
270.9999999982037
 51
359.0000000001285
  0
LINE
  5
605
330
1F
100
AcDbEntity
  8
外框线1
100
AcDbLine
 10
3098.493941274086
 20
978.4129680976221
 30
0.0
 11
3113.618835535505
 21
978.6769741089846
 31
0.0
  0
ARC
  5
606
330
1F
100
AcDbEntity
  8
外框线1
100
AcDbCircle
 10
3098.511393680492
 20
977.4131204024634
 30
0.0
 40
1.0
100
AcDbArc
 50
90.99999999820365
 51
180.0
  0
LINE
  5
607
330
1F
100
AcDbEntity
  8
外框线1
100
AcDbLine
 10
3097.511393680492
 20
977.4131204024634
 30
0.0
 11
3097.459862706041
 21
974.4609128526972
 31
0.0
  0
LINE
  5
608
330
1F
100
AcDbEntity
  8
外框线1
100
AcDbLine
 10
3073.261393680492
 20
972.4958176655674
 30
0.0
 11
3095.460167315752
 21
972.4958176655674
 31
0.0
  0
ARC
  5
609
330
1F
100
AcDbEntity
  8
外框线1
100
AcDbCircle
 10
3095.460167315752
 20
974.4958176655673
 30
0.0
 40
2.0
100
AcDbArc
 50
270.0
 51
359.0000000001285
  0
LINE
  5
60A
330
1F
100
AcDbEntity
  8
外框线1
100
AcDbLine
 10
3086.393028311745
 20
972.4958176655674
 30
0.0
 11
3086.393028311745
 21
971.2958176655702
 31
0.0
  0
LINE
  5
60B
330
1F
100
AcDbEntity
  8
外框线1
100
AcDbLine
 10
3076.811393680539
 20
972.4958176655674
 30
0.0
 11
3076.811393680539
 21
971.2958176655702
 31
0.0
  0
ARC
  5
60C
330
1F
100
AcDbEntity
  8
外框线1
100
AcDbCircle
 10
3125.526788206735
 20
993.2958176655702
 30
0.0
 40
2.0
100
AcDbArc
 50
90.0
 51
179.0000000001285
  0
LINE
  5
60D
330
1F
100
AcDbEntity
  8
外框线1
100
AcDbLine
 10
3020.995999154307
 20
995.2958176655702
 30
0.0
 11
3125.526788206735
 21
995.2958176655702
 31
0.0
  0
ARC
  5
60E
330
1F
100
AcDbEntity
  8
外框线1
100
AcDbCircle
 10
3576.469151773861
 20
1556.610909962506
 30
0.0
 40
2.0
100
AcDbArc
 50
91.00000000153924
 51
180.0
  0
LINE
  5
60F
330
1F
100
AcDbEntity
  8
外框线1
100
AcDbLine
 10
3598.469151773861
 20
1595.744669857497
 30
0.0
 11
3598.469151773861
 21
1605.326304488702
 31
0.0
  0
LINE
  5
610
330
1F
100
AcDbEntity
  8
外框线1
100
AcDbLine
 10
3576.434246960963
 20
1558.610605352795
 30
0.0
 11
3581.264042443269
 21
1558.694909746529
 31
0.0
  0
ARC
  5
611
330
1F
100
AcDbEntity
  8
外框线1
100
AcDbCircle
 10
3581.089518378889
 20
1568.693386698087
 30
0.0
 40
10.0
100
AcDbArc
 50
271.0000000015392
 51
358.9999999984608
  0
LINE
  5
612
330
1F
100
AcDbEntity
  8
外框线1
100
AcDbLine
 10
3591.352001341809
 20
1583.643756895155
 30
0.0
 11
3591.087995330447
 21
1568.518862633737
 31
0.0
  0
ARC
  5
613
330
1F
100
AcDbEntity
  8
外框线1
100
AcDbCircle
 10
3592.351849036982
 20
1583.626304488691
 30
0.0
 40
1.0
100
AcDbArc
 50
90.0
 51
179.0000000017962
  0
LINE
  5
614
330
1F
100
AcDbEntity
  8
外框线1
100
AcDbLine
 10
3592.351849036982
 20
1584.626304488691
 30
0.0
 11
3595.30405658672
 21
1584.677835463142
 31
0.0
  0
LINE
  5
615
330
1F
100
AcDbEntity
  8
外框线1
100
AcDbLine
 10
3597.26915177385
 20
1608.876304488691
 30
0.0
 11
3597.26915177385
 21
1586.677530853489
 31
0.0
  0
ARC
  5
616
330
1F
100
AcDbEntity
  8
外框线1
100
AcDbCircle
 10
3595.269151773849
 20
1586.677530853489
 30
0.0
 40
2.0
100
AcDbArc
 50
271.0000000015392
 51
0.0
  0
LINE
  5
617
330
1F
100
AcDbEntity
  8
外框线1
100
AcDbLine
 10
3597.26915177385
 20
1595.744669857497
 30
0.0
 11
3598.469151773861
 21
1595.744669857497
 31
0.0
  0
LINE
  5
618
330
1F
100
AcDbEntity
  8
外框线1
100
AcDbLine
 10
3597.26915177385
 20
1605.326304488702
 30
0.0
 11
3598.469151773861
 21
1605.326304488702
 31
0.0
  0
LINE
  5
619
330
1F
100
AcDbEntity
  8
外框线1
100
AcDbLine
 10
3598.469151773861
 20
1622.007939119943
 30
0.0
 11
3598.469151773861
 21
1612.426304488737
 31
0.0
  0
LINE
  5
61A
330
1F
100
AcDbEntity
  8
外框线1
100
AcDbLine
 10
3576.434246960963
 20
1659.142003624645
 30
0.0
 11
3581.26404244324
 21
1659.05769923091
 31
0.0
  0
ARC
  5
61B
330
1F
100
AcDbEntity
  8
外框线1
100
AcDbCircle
 10
3581.089518378889
 20
1649.059222279353
 30
0.0
 40
10.0
100
AcDbArc
 50
0.9999999982037785
 51
88.99999999846079
  0
LINE
  5
61C
330
1F
100
AcDbEntity
  8
外框线1
100
AcDbLine
 10
3591.352001341809
 20
1634.108852082285
 30
0.0
 11
3591.087995330447
 21
1649.233746343703
 31
0.0
  0
ARC
  5
61D
330
1F
100
AcDbEntity
  8
外框线1
100
AcDbCircle
 10
3592.351849036953
 20
1634.126304488691
 30
0.0
 40
1.0
100
AcDbArc
 50
180.9999999982037
 51
270.0
  0
LINE
  5
61E
330
1F
100
AcDbEntity
  8
外框线1
100
AcDbLine
 10
3592.351849036953
 20
1633.126304488691
 30
0.0
 11
3595.30405658672
 21
1633.074773514239
 31
0.0
  0
LINE
  5
61F
330
1F
100
AcDbEntity
  8
外框线1
100
AcDbLine
 10
3597.26915177385
 20
1608.876304488691
 30
0.0
 11
3597.26915177385
 21
1631.075078123951
 31
0.0
  0
ARC
  5
620
330
1F
100
AcDbEntity
  8
外框线1
100
AcDbCircle
 10
3595.269151773849
 20
1631.075078123951
 30
0.0
 40
2.0
100
AcDbArc
 50
0.0
 51
88.99999999846079
  0
LINE
  5
621
330
1F
100
AcDbEntity
  8
外框线1
100
AcDbLine
 10
3597.26915177385
 20
1622.007939119943
 30
0.0
 11
3598.469151773861
 21
1622.007939119943
 31
0.0
  0
LINE
  5
622
330
1F
100
AcDbEntity
  8
外框线1
100
AcDbLine
 10
3597.26915177385
 20
1612.426304488737
 30
0.0
 11
3598.469151773861
 21
1612.426304488737
 31
0.0
  0
ARC
  5
623
330
1F
100
AcDbEntity
  8
外框线1
100
AcDbCircle
 10
3576.469151773861
 20
1661.141699014933
 30
0.0
 40
2.0
100
AcDbArc
 50
180.0
 51
268.9999999984608
  0
LINE
  5
624
330
1F
100
AcDbEntity
  8
外框线1
100
AcDbLine
 10
3574.469151773861
 20
1556.610909962506
 30
0.0
 11
3574.469151773861
 21
1661.141699014933
 31
0.0
  0
ARC
  5
625
330
1F
100
AcDbEntity
  8
外框线1
100
AcDbCircle
 10
3517.447975548588
 20
1556.377885590326
 30
0.0
 40
2.0
100
AcDbArc
 50
89.66351414909196
 51
178.6635141475293
  0
LINE
  5
626
330
1F
100
AcDbEntity
  8
外框线1
100
AcDbLine
 10
3540.354745033714
 20
1594.9878723201
 30
0.0
 11
3540.578226728096
 21
1604.566900357346
 31
0.0
  0
LINE
  5
627
330
1F
100
AcDbEntity
  8
外框线1
100
AcDbLine
 10
3517.459721053041
 20
1558.377851100788
 30
0.0
 11
3522.29016894733
 21
1558.34948258779
 31
0.0
  0
ARC
  5
628
330
1F
100
AcDbEntity
  8
外框线1
100
AcDbCircle
 10
3522.348896469943
 20
1568.349310140202
 30
0.0
 40
10.0
100
AcDbArc
 50
269.6635141490919
 51
357.663514145454
  0
LINE
  5
629
330
1F
100
AcDbEntity
  8
外框线1
100
AcDbLine
 10
3532.957289506092
 20
1583.056251453196
 30
0.0
 11
3532.340582836616
 21
1567.941629444121
 31
0.0
  0
ARC
  5
62A
330
1F
100
AcDbEntity
  8
外框线1
100
AcDbCircle
 10
3533.956458142777
 20
1583.015483383558
 30
0.0
 40
1.0
100
AcDbArc
 50
88.66351414752934
 51
177.6635141487851
  0
LINE
  5
62B
330
1F
100
AcDbEntity
  8
外框线1
100
AcDbLine
 10
3533.979782106057
 20
1584.015211342925
 30
0.0
 11
3536.93238844195
 21
1583.997871118354
 31
0.0
  0
LINE
  5
62C
330
1F
100
AcDbEntity
  8
外框线1
100
AcDbLine
 10
3539.461353246494
 20
1608.143923369021
 30
0.0
 11
3538.943589865194
 21
1585.951188702285
 31
0.0
  0
ARC
  5
62D
330
1F
100
AcDbEntity
  8
外框线1
100
AcDbCircle
 10
3536.944133946462
 20
1585.99783662886
 30
0.0
 40
2.0
100
AcDbArc
 50
269.6635141490919
 51
358.6635141475293
  0
LINE
  5
62E
330
1F
100
AcDbEntity
  8
外框线1
100
AcDbLine
 10
3539.155071482463
 20
1595.015861076044
 30
0.0
 11
3540.354745033714
 21
1594.9878723201
 31
0.0
  0
LINE
  5
62F
330
1F
100
AcDbEntity
  8
外框线1
100
AcDbLine
 10
3539.378553176844
 20
1604.59488911329
 30
0.0
 11
3540.578226728096
 21
1604.566900357346
 31
0.0
  0
LINE
  5
630
330
1F
100
AcDbEntity
  8
外框线1
100
AcDbLine
 10
3540.967308561806
 20
1621.243996906112
 30
0.0
 11
3540.743826867423
 21
1611.664968868867
 31
0.0
  0
LINE
  5
631
330
1F
100
AcDbEntity
  8
外框线1
100
AcDbLine
 10
3519.804511695598
 20
1658.881900747237
 30
0.0
 11
3524.631026964715
 21
1658.684969315207
 31
0.0
  0
ARC
  5
632
330
1F
100
AcDbEntity
  8
外框线1
100
AcDbCircle
 10
3524.223346268634
 20
1648.693282948534
 30
0.0
 40
10.0
100
AcDbArc
 50
359.6635141457568
 51
87.66351414461286
  0
LINE
  5
633
330
1F
100
AcDbEntity
  8
外框线1
100
AcDbLine
 10
3534.134335533563
 20
1633.507618083797
 30
0.0
 11
3534.223173821047
 21
1648.634555425891
 31
0.0
  0
ARC
  5
634
330
1F
100
AcDbEntity
  8
外框线1
100
AcDbCircle
 10
3535.134318288758
 20
1633.501745331497
 30
0.0
 40
1.0
100
AcDbArc
 50
179.6635141457568
 51
268.6635141475294
  0
LINE
  5
635
330
1F
100
AcDbEntity
  8
外框线1
100
AcDbLine
 10
3535.110994325478
 20
1632.502017372131
 30
0.0
 11
3538.061196848278
 21
1632.381643235701
 31
0.0
  0
LINE
  5
636
330
1F
100
AcDbEntity
  8
外框线1
100
AcDbLine
 10
3539.461353246494
 20
1608.143923369021
 30
0.0
 11
3539.979116627794
 21
1630.336658035816
 31
0.0
  0
ARC
  5
637
330
1F
100
AcDbEntity
  8
外框线1
100
AcDbCircle
 10
3537.979660709061
 20
1630.38330596239
 30
0.0
 40
2.0
100
AcDbArc
 50
358.6635141475293
 51
87.66351414461286
  0
LINE
  5
638
330
1F
100
AcDbEntity
  8
外框线1
100
AcDbLine
 10
3539.767635010554
 20
1621.271985662057
 30
0.0
 11
3540.967308561806
 21
1621.243996906112
 31
0.0
  0
LINE
  5
639
330
1F
100
AcDbEntity
  8
外框线1
100
AcDbLine
 10
3539.544153316172
 20
1611.692957624811
 30
0.0
 11
3540.743826867423
 21
1611.664968868867
 31
0.0
  0
ARC
  5
63A
330
1F
100
AcDbEntity
  8
外框线1
100
AcDbCircle
 10
3519.886047834873
 20
1660.880238020549
 30
0.0
 40
2.0
100
AcDbArc
 50
178.6635141475293
 51
267.6635141462819
  0
LINE
  5
63B
330
1F
100
AcDbEntity
  8
外框线1
100
AcDbLine
 10
3515.448519629856
 20
1556.424533516899
 30
0.0
 11
3517.88659191614
 21
1660.926885947123
 31
0.0
  0
ENDSEC
  0
SECTION
  2
OBJECTS
  0
DICTIONARY
  5
C
330
0
100
AcDbDictionary
281
     1
  3
ACAD_CIP_PREVIOUS_PRODUCT_INFO
350
216
  3
ACAD_COLOR
350
6B
  3
ACAD_DETAILVIEWSTYLE
350
21B
  3
ACAD_GROUP
350
D
  3
ACAD_LAYOUT
350
1A
  3
ACAD_MATERIAL
350
6A
  3
ACAD_MLEADERSTYLE
350
12D
  3
ACAD_MLINESTYLE
350
17
  3
ACAD_PLOTSETTINGS
350
19
  3
ACAD_PLOTSTYLENAME
350
E
  3
ACAD_SCALELIST
350
10C
  3
ACAD_SECTIONVIEWSTYLE
350
219
  3
ACAD_TABLESTYLE
350
7E
  3
ACAD_VISUALSTYLE
350
EF
  3
ACDB_RECOMPOSE_DATA
350
7FF
  3
AcDbVariableDictionary
350
5E
  0
DICTIONARY
  5
79C
330
8
100
AcDbDictionary
280
     1
281
     1
  0
DICTIONARY
  5
1FF
330
2
100
AcDbDictionary
280
     1
281
     1
  3
ACAD_LAYERSTATES
360
200
  0
DICTIONARY
  5
13C
330
10
100
AcDbDictionary
280
     1
281
     1
  0
DICTIONARY
  5
1CE
330
1F
100
AcDbDictionary
280
     1
281
     1
  0
DICTIONARY
  5
251
330
250
100
AcDbDictionary
280
     1
281
     1
  3
ACAD_SORTENTS
360
252
  0
DICTIONARY
  5
25F
330
25E
100
AcDbDictionary
280
     1
281
     1
  3
ACAD_SORTENTS
360
260
  0
DICTIONARY
  5
26A
330
269
100
AcDbDictionary
280
     1
281
     1
  3
ACAD_SORTENTS
360
26B
  0
DICTIONARY
  5
272
330
271
100
AcDbDictionary
280
     1
281
     1
  3
ACAD_SORTENTS
360
273
  0
DICTIONARY
  5
281
330
280
100
AcDbDictionary
280
     1
281
     1
  3
ACAD_SORTENTS
360
282
  0
DICTIONARY
  5
28D
330
28C
100
AcDbDictionary
280
     1
281
     1
  3
ACAD_SORTENTS
360
28E
  0
DICTIONARY
  5
2BB
330
2BA
100
AcDbDictionary
280
     1
281
     1
  3
ACAD_SORTENTS
360
2BC
  0
DICTIONARY
  5
7E2
330
6B1
100
AcDbDictionary
280
     1
281
     1
  0
DICTIONARY
  5
7E4
330
6C5
100
AcDbDictionary
280
     1
281
     1
  0
DICTIONARY
  5
7E6
330
6D7
100
AcDbDictionary
280
     1
281
     1
  0
DICTIONARY
  5
7E8
330
78B
100
AcDbDictionary
280
     1
281
     1
  0
DICTIONARY
  5
536
330
535
100
AcDbDictionary
280
     1
281
     1
  3
ACAD_DIMASSOC
360
537
  0
DICTIONARY
  5
539
330
538
100
AcDbDictionary
280
     1
281
     1
  3
ACAD_DIMASSOC
360
53A
  0
DICTIONARY
  5
53C
330
53B
100
AcDbDictionary
280
     1
281
     1
  3
ACAD_DIMASSOC
360
53D
  0
DICTIONARY
  5
53F
330
53E
100
AcDbDictionary
280
     1
281
     1
  3
ACAD_DIMASSOC
360
540
  0
DICTIONARY
  5
542
330
541
100
AcDbDictionary
280
     1
281
     1
  3
ACAD_DIMASSOC
360
543
  0
DICTIONARY
  5
546
330
545
100
AcDbDictionary
280
     1
281
     1
  3
ACAD_DIMASSOC
360
547
  0
DICTIONARY
  5
549
330
548
100
AcDbDictionary
280
     1
281
     1
  3
ACAD_DIMASSOC
360
54A
  0
DICTIONARY
  5
54E
330
54D
100
AcDbDictionary
280
     1
281
     1
  3
ACAD_DIMASSOC
360
54F
  0
DICTIONARY
  5
55F
330
55E
100
AcDbDictionary
280
     1
281
     1
  3
ACAD_DIMASSOC
360
560
  0
DICTIONARY
  5
56F
330
56E
100
AcDbDictionary
280
     1
281
     1
  3
ACAD_DIMASSOC
360
570
  0
DICTIONARY
  5
572
330
571
100
AcDbDictionary
280
     1
281
     1
  3
ACAD_DIMASSOC
360
573
  0
XRECORD
  5
216
102
{ACAD_REACTORS
330
C
102
}
330
C
100
AcDbXrecord
280
     1
300
ACDMAC
300
2022
300

  0
DICTIONARY
  5
6B
102
{ACAD_REACTORS
330
C
102
}
330
C
100
AcDbDictionary
281
     1
  0
DICTIONARY
  5
21B
102
{ACAD_REACTORS
330
C
102
}
330
C
100
AcDbDictionary
281
     1
  3
Metric50
350
21C
  0
DICTIONARY
  5
D
102
{ACAD_REACTORS
330
C
102
}
330
C
100
AcDbDictionary
281
     1
  0
DICTIONARY
  5
1A
102
{ACAD_REACTORS
330
C
102
}
330
C
100
AcDbDictionary
281
     1
  3
Model
350
22
  3
布局1
350
D3
  3
布局2
350
D7
1001
AcadStringInfo
1000
MIFCodePage
1070
     5
  0
DICTIONARY
  5
6A
102
{ACAD_REACTORS
330
C
102
}
330
C
100
AcDbDictionary
281
     1
  3
ByBlock
350
ED
  3
ByLayer
350
EC
  3
Global
350
EE
  0
DICTIONARY
  5
12D
102
{ACAD_REACTORS
330
C
102
}
330
C
100
AcDbDictionary
281
     1
  3
Annotative
350
13B
  3
Standard
350
12E
  0
DICTIONARY
  5
17
102
{ACAD_REACTORS
330
C
102
}
330
C
100
AcDbDictionary
281
     1
  3
Standard
350
18
  0
DICTIONARY
  5
19
102
{ACAD_REACTORS
330
C
102
}
330
C
100
AcDbDictionary
281
     1
  0
ACDBDICTIONARYWDFLT
  5
E
102
{ACAD_REACTORS
330
C
102
}
330
C
100
AcDbDictionary
281
     1
  3
Normal
350
F
100
AcDbDictionaryWithDefault
340
F
  0
DICTIONARY
  5
10C
102
{ACAD_REACTORS
330
C
102
}
330
C
100
AcDbDictionary
281
     1
  3
A0
350
10D
  3
A1
350
1BE
  3
A2
350
1BF
  3
A3
350
1C0
  3
A4
350
1C1
  3
A5
350
1C2
  3
A6
350
1C3
  3
A7
350
1C4
  3
A8
350
1C5
  3
A9
350
1C6
  3
B0
350
1C7
  3
B1
350
1C8
  3
B2
350
1C9
  3
B3
350
1CA
  3
B4
350
1CB
  3
B5
350
1CC
  3
B6
350
1CD
  0
DICTIONARY
  5
219
102
{ACAD_REACTORS
330
C
102
}
330
C
100
AcDbDictionary
281
     1
  3
Metric50
350
21A
  0
DICTIONARY
  5
7E
102
{ACAD_REACTORS
330
C
102
}
330
C
100
AcDbDictionary
281
     1
  3
Standard
350
7F
  0
DICTIONARY
  5
EF
102
{ACAD_REACTORS
330
C
102
}
330
C
100
AcDbDictionary
281
     1
  3
2dWireframe
350
F5
  3
3dWireframe
350
3D5
  3
Basic
350
F4
  3
Brighten
350
FB
  3
ColorChange
350
FF
  3
Conceptual
350
F8
  3
Dim
350
FA
  3
EdgeColorOff
350
1E6
  3
Facepattern
350
FE
  3
Flat
350
F0
  3
FlatWithEdges
350
F1
  3
Gouraud
350
F2
  3
GouraudWithEdges
350
F3
  3
Hidden
350
F7
  3
JitterOff
350
1E4
  3
Linepattern
350
FD
  3
OverhangOff
350
1E5
  3
Realistic
350
F9
  3
Shaded
350
1F3
  3
Shaded with edges
350
1F2
  3
Shades of Gray
350
1EF
  3
Sketchy
350
1F0
  3
Thicken
350
FC
  3
Wireframe
350
F6
  3
X-Ray
350
1F1
  0
XRECORD
  5
7FF
102
{ACAD_REACTORS
330
C
102
}
330
C
100
AcDbXrecord
280
     1
 90
        1
330
7F
  0
DICTIONARY
  5
5E
102
{ACAD_REACTORS
330
C
102
}
330
C
100
AcDbDictionary
281
     1
  3
CANNOSCALE
350
146
  3
CMLEADERSTYLE
350
145
  3
CTABLESTYLE
350
84
  3
CVIEWDETAILSTYLE
350
227
  3
CVIEWSECTIONSTYLE
350
228
  3
DIMASSOC
350
5F
  3
HIDETEXT
350
63
  3
INDEXCTL
350
7ED
  3
LAYEREVAL
350
1AE
  3
LAYERNOTIFY
350
1AF
  3
LIGHTINGUNITS
350
7EB
  3
MSLTSCALE
350
7EA
  3
SORTENTS
350
7EC
  0
DICTIONARY
  5
200
102
{ACAD_REACTORS
330
1FF
102
}
330
1FF
100
AcDbDictionary
281
     1
  0
SORTENTSTABLE
  5
252
102
{ACAD_REACTORS
330
251
102
}
330
251
100
AcDbSortentsTable
330
250
  0
SORTENTSTABLE
  5
260
102
{ACAD_REACTORS
330
25F
102
}
330
25F
100
AcDbSortentsTable
330
25E
  0
SORTENTSTABLE
  5
26B
102
{ACAD_REACTORS
330
26A
102
}
330
26A
100
AcDbSortentsTable
330
269
  0
SORTENTSTABLE
  5
273
102
{ACAD_REACTORS
330
272
102
}
330
272
100
AcDbSortentsTable
330
271
  0
SORTENTSTABLE
  5
282
102
{ACAD_REACTORS
330
281
102
}
330
281
100
AcDbSortentsTable
330
280
  0
SORTENTSTABLE
  5
28E
102
{ACAD_REACTORS
330
28D
102
}
330
28D
100
AcDbSortentsTable
330
28C
  0
SORTENTSTABLE
  5
2BC
102
{ACAD_REACTORS
330
2BB
102
}
330
2BB
100
AcDbSortentsTable
330
2BA
  0
DIMASSOC
  5
537
102
{ACAD_REACTORS
330
536
102
}
330
536
100
AcDbDimAssoc
330
535
 90
        3
 70
     0
 71
     0
  1
AcDbOsnapPointRef
 72
     1
331
528
 73
     2
 91
        5
 40
3.141592653589792
 10
0.0
 20
0.0
 30
2.000000000000000E+50
 75
     0
  1
AcDbOsnapPointRef
 72
    13
331
528
 73
     2
 91
        3
 40
0.0
 10
0.0
 20
0.0
 30
2.000000000000000E+50
 75
     0
  0
DIMASSOC
  5
53A
102
{ACAD_REACTORS
330
539
102
}
330
539
100
AcDbDimAssoc
330
538
 90
        3
 70
     0
 71
     0
  1
AcDbOsnapPointRef
 72
     1
331
51F
 73
     2
 91
        0
 40
1.0
 10
0.0
 20
0.0
 30
2.000000000000000E+50
 75
     0
  1
AcDbOsnapPointRef
 72
    13
331
534
 73
     2
 91
        0
 40
4.712388980384688
 10
0.0
 20
0.0
 30
2.000000000000000E+50
 75
     0
  0
DIMASSOC
  5
53D
102
{ACAD_REACTORS
330
53C
102
}
330
53C
100
AcDbDimAssoc
330
53B
 90
        3
 70
     0
 71
     0
  1
AcDbOsnapPointRef
 72
    13
331
51F
 73
     2
 91
        0
 40
0.0
 10
0.0
 20
0.0
 30
2.000000000000000E+50
 75
     0
  1
AcDbOsnapPointRef
 72
     1
331
531
 73
     2
 91
        0
 40
4.712388980384688
 10
0.0
 20
0.0
 30
2.000000000000000E+50
 75
     0
  0
DIMASSOC
  5
540
102
{ACAD_REACTORS
330
53F
102
}
330
53F
100
AcDbDimAssoc
330
53E
 90
        2
 70
     0
 71
     0
  1
AcDbOsnapPointRef
 72
     2
331
521
 73
     2
 91
        0
 40
0.5
 10
0.0
 20
0.0
 30
0.0
 75
     0
  0
DIMASSOC
  5
543
102
{ACAD_REACTORS
330
542
102
}
330
542
100
AcDbDimAssoc
330
541
 90
        2
 70
     0
 71
     0
  1
AcDbOsnapPointRef
 72
     2
331
527
 73
     2
 91
        0
 40
0.5
 10
0.0
 20
0.0
 30
0.0
 75
     0
  0
DIMASSOC
  5
547
102
{ACAD_REACTORS
330
546
102
}
330
546
100
AcDbDimAssoc
330
545
 90
        2
 70
     0
 71
     0
  1
AcDbOsnapPointRef
 72
     3
331
544
 73
     2
 91
        0
 40
0.0
 10
0.0
 20
0.0
 30
0.0
 75
     0
  0
DIMASSOC
  5
54A
102
{ACAD_REACTORS
330
549
102
}
330
549
100
AcDbDimAssoc
330
548
 90
        1
 70
     0
 71
     0
  1
AcDbOsnapPointRef
 72
     3
331
544
 73
     2
 91
        0
 40
0.0
 10
0.0
 20
0.0
 30
0.0
 75
     0
  0
DIMASSOC
  5
54F
102
{ACAD_REACTORS
330
54E
102
}
330
54E
100
AcDbDimAssoc
330
54D
 90
        3
 70
     0
 71
     0
  1
AcDbOsnapPointRef
 72
     2
331
523
 73
     2
 91
        0
 40
0.5
 10
0.0
 20
0.0
 30
0.0
 75
     0
  1
AcDbOsnapPointRef
 72
     2
331
522
 73
     2
 91
        0
 40
0.5
 10
0.0
 20
0.0
 30
0.0
 75
     0
  0
DIMASSOC
  5
560
102
{ACAD_REACTORS
330
55F
102
}
330
55F
100
AcDbDimAssoc
330
55E
 90
        1
 70
     0
 71
     0
  1
AcDbOsnapPointRef
 72
     8
331
528
 73
     2
 91
        4
 40
0.0188679245283019
 10
0.0
 20
0.0
 30
0.0
 75
     1
  1
AcDbOsnapPointRef
 72
     0
 40
0.0
 10
20943.47041950761
 20
-17195.61925934829
 30
0.0
 75
     0
  0
DIMASSOC
  5
570
102
{ACAD_REACTORS
330
56F
102
}
330
56F
100
AcDbDimAssoc
330
56E
 90
        3
 70
     0
 71
     0
  1
AcDbOsnapPointRef
 72
    13
331
529
 73
     2
 91
        0
 40
3.141592653589793
 10
0.0
 20
0.0
 30
2.000000000000000E+50
 75
     0
  1
AcDbOsnapPointRef
 72
     8
331
523
 73
     2
 91
        0
 40
0.0
 10
0.0
 20
0.0
 30
0.0
 75
     1
  1
AcDbOsnapPointRef
 72
    13
331
529
 73
     2
 91
        0
 40
3.141592653589793
 10
0.0
 20
0.0
 30
2.000000000000000E+50
 75
     0
  0
DIMASSOC
  5
573
102
{ACAD_REACTORS
330
572
102
}
330
572
100
AcDbDimAssoc
330
571
 90
        3
 70
     0
 71
     0
  1
AcDbOsnapPointRef
 72
    13
331
52E
 73
     2
 91
        0
 40
3.141592653589793
 10
0.0
 20
0.0
 30
2.000000000000000E+50
 75
     0
  1
AcDbOsnapPointRef
 72
     1
331
52F
 73
     2
 91
        0
 40
6.283185307179586
 10
0.0
 20
0.0
 30
2.000000000000000E+50
 75
     0
  0
ACDBDETAILVIEWSTYLE
  5
21C
102
{ACAD_REACTORS
330
21B
102
}
330
21B
100
AcDbModelDocViewStyle
 70
     0
  3
Metric50
290
     0
300
Metric50
 90
        0
100
AcDbDetailViewStyle
 70
     0
 71
     0
 90
        3
 71
     1
340
11
 62
   256
 40
5.0
340
0
 62
   256
 40
5.0
300

 40
0.0
280
     1
 71
     2
340
16
 90
       25
 62
   256
 71
     3
340
11
 62
   256
 40
5.0
 90
        0
 40
15.0
 90
        1
300
%<\AcVar ViewDetailId>% (%<\AcVar ViewScale \f "%sn">%)
 71
     4
340
16
 90
       25
 62
   256
340
16
 90
       25
 62
   256
280
     0
  0
LAYOUT
  5
22
102
{ACAD_XDICTIONARY
360
205
102
}
102
{ACAD_REACTORS
330
1A
102
}
330
1A
100
AcDbPlotSettings
  1

  2
none_device
  4
ISO_A4_(210.00_x_297.00_MM)
  6

 40
7.5
 41
20.0
 42
7.5
 43
20.0
 44
210.0
 45
297.0
 46
11.54999923706054
 47
-13.65000009536743
 48
0.0
 49
0.0
140
0.0
141
0.0
142
1.0
143
8.704084754739808
 70
 11952
 72
     1
 73
     0
 74
     0
  7

 75
     0
147
0.1148885871608098
 76
     0
 77
     2
 78
   300
148
0.0
149
0.0
100
AcDbLayout
  1
Model
 70
     1
 71
     0
 10
0.0
 20
0.0
 11
12.0
 21
9.0
 12
0.0
 22
0.0
 32
0.0
 14
0.0
 24
0.0
 34
0.0
 15
0.0
 25
0.0
 35
0.0
146
0.0
 13
0.0
 23
0.0
 33
0.0
 16
1.0
 26
0.0
 36
0.0
 17
0.0
 27
1.0
 37
0.0
 76
     0
330
1F
331
EA
1001
ACAD_PSEXT
1000
None
1000
None
1000
Not applicable
1000
The layout will not be plotted unless a new plotter configuration name is selected.
1070
     0
  0
LAYOUT
  5
D3
102
{ACAD_REACTORS
330
1A
102
}
330
1A
100
AcDbPlotSettings
  1

  2
C:\Documents and Settings\basas\Application Data\Autodesk\AutoCAD 2005\R16.1\enu\plotters\Default Windows System Printer.pc3
  4

  6

 40
0.0
 41
0.0
 42
0.0
 43
0.0
 44
0.0
 45
0.0
 46
0.0
 47
0.0
 48
0.0
 49
0.0
140
0.0
141
0.0
142
1.0
143
1.0
 70
   688
 72
     0
 73
     0
 74
     5
  7

 75
    16
147
1.0
 76
     0
 77
     2
 78
   300
148
0.0
149
0.0
100
AcDbLayout
  1
布局1
 70
     1
 71
     1
 10
0.0
 20
0.0
 11
12.0
 21
9.0
 12
0.0
 22
0.0
 32
0.0
 14
0.0
 24
0.0
 34
0.0
 15
0.0
 25
0.0
 35
0.0
146
0.0
 13
0.0
 23
0.0
 33
0.0
 16
1.0
 26
0.0
 36
0.0
 17
0.0
 27
1.0
 37
0.0
 76
     0
330
D2
1001
AcadStringInfo
1000
MIFCodePage
1070
     5
  0
LAYOUT
  5
D7
102
{ACAD_REACTORS
330
1A
102
}
330
1A
100
AcDbPlotSettings
  1

  2
C:\Documents and Settings\basas\Application Data\Autodesk\AutoCAD 2005\R16.1\enu\plotters\Default Windows System Printer.pc3
  4

  6

 40
0.0
 41
0.0
 42
0.0
 43
0.0
 44
0.0
 45
0.0
 46
0.0
 47
0.0
 48
0.0
 49
0.0
140
0.0
141
0.0
142
1.0
143
1.0
 70
   688
 72
     0
 73
     0
 74
     5
  7

 75
    16
147
1.0
 76
     0
 77
     2
 78
   300
148
0.0
149
0.0
100
AcDbLayout
  1
布局2
 70
     1
 71
     2
 10
0.0
 20
0.0
 11
12.0
 21
9.0
 12
0.0
 22
0.0
 32
0.0
 14
0.0
 24
0.0
 34
0.0
 15
0.0
 25
0.0
 35
0.0
146
0.0
 13
0.0
 23
0.0
 33
0.0
 16
1.0
 26
0.0
 36
0.0
 17
0.0
 27
1.0
 37
0.0
 76
     0
330
D6
1001
AcadStringInfo
1000
MIFCodePage
1070
     5
  0
MATERIAL
  5
ED
102
{ACAD_XDICTIONARY
360
1F9
102
}
102
{ACAD_REACTORS
330
6A
102
}
330
6A
100
AcDbMaterial
  1
ByBlock
 94
       63
  0
MATERIAL
  5
EC
102
{ACAD_XDICTIONARY
360
1F7
102
}
102
{ACAD_REACTORS
330
6A
102
}
330
6A
100
AcDbMaterial
  1
ByLayer
 94
       63
  0
MATERIAL
  5
EE
102
{ACAD_XDICTIONARY
360
173
102
}
102
{ACAD_REACTORS
330
6A
102
}
330
6A
100
AcDbMaterial
  1
Global
 43
0.0007999999797903
 43
0.0
 43
0.0
 43
0.0
 43
0.0
 43
0.0007999999797903
 43
0.0
 43
0.0
 43
0.0
 43
0.0
 43
1.0
 43
0.0
 43
0.0
 43
0.0
 43
0.0
 43
1.0
 49
0.0007999999797903
 49
0.0
 49
0.0
 49
0.0
 49
0.0
 49
0.0007999999797903
 49
0.0
 49
0.0
 49
0.0
 49
0.0
 49
1.0
 49
0.0
 49
0.0
 49
0.0
 49
0.0
 49
1.0
142
0.0007999999797903
142
0.0
142
0.0
142
0.0
142
0.0
142
0.0007999999797903
142
0.0
142
0.0
142
0.0
142
0.0
142
1.0
142
0.0
142
0.0
142
0.0
142
0.0
142
1.0
144
0.0007999999797903
144
0.0
144
0.0
144
0.0
144
0.0
144
0.0007999999797903
144
0.0
144
0.0
144
0.0
144
0.0
144
1.0
144
0.0
144
0.0
144
0.0
144
0.0
144
1.0
 94
       63
1001
ACAD
1070
    -1
1070
     3
1070
     0
1000

1071
        0
1070
     0
  0
MLEADERSTYLE
  5
13B
102
{ACAD_REACTORS
330
12D
102
}
330
12D
100
AcDbMLeaderStyle
179
     2
170
     2
171
     1
172
     0
 90
        2
 40
0.0
 41
0.0
173
     1
 91
-1056964608
340
14
 92
       -2
290
     1
 42
2.0
291
     1
 43
8.0
  3
Standard
 44
4.0
300

342
11
174
     1
178
     1
175
     1
176
     0
 93
-1056964608
 45
4.0
292
     0
297
     0
 46
4.0
 94
-1056964608
 47
1.0
 49
1.0
140
1.0
293
     1
141
0.0
294
     1
177
     0
142
1.0
295
     0
296
     1
143
3.75
271
     0
272
     9
273
     9
298
     0
  0
MLEADERSTYLE
  5
12E
102
{ACAD_REACTORS
330
12D
102
}
330
12D
100
AcDbMLeaderStyle
179
     2
170
     2
171
     1
172
     0
 90
        2
 40
0.0
 41
0.0
173
     1
 91
-1056964608
340
14
 92
       -2
290
     1
 42
2.0
291
     1
 43
8.0
  3
Standard
 44
4.0
300

342
11
174
     1
178
     1
175
     1
176
     0
 93
-1056964608
 45
4.0
292
     0
297
     0
 46
4.0
 94
-1056964608
 47
1.0
 49
1.0
140
1.0
293
     1
141
0.0
294
     1
177
     0
142
1.0
295
     0
296
     0
143
3.75
271
     0
272
     9
273
     9
298
     0
  0
MLINESTYLE
  5
18
102
{ACAD_REACTORS
330
17
102
}
330
17
100
AcDbMlineStyle
  2
STANDARD
 70
     0
  3

 62
   256
 51
90.0
 52
90.0
 71
     2
 49
0.5
 62
   256
  6
BYLAYER
 49
-0.5
 62
   256
  6
BYLAYER
  0
ACDBPLACEHOLDER
  5
F
102
{ACAD_REACTORS
330
E
102
}
330
E
  0
SCALE
  5
10D
102
{ACAD_REACTORS
330
10C
102
}
330
10C
100
AcDbScale
 70
     0
300
1:1
140
1.0
141
1.0
290
     1
  0
SCALE
  5
1BE
102
{ACAD_REACTORS
330
10C
102
}
330
10C
100
AcDbScale
 70
     0
300
1:2
140
1.0
141
2.0
290
     0
  0
SCALE
  5
1BF
102
{ACAD_REACTORS
330
10C
102
}
330
10C
100
AcDbScale
 70
     0
300
1:4
140
1.0
141
4.0
290
     0
  0
SCALE
  5
1C0
102
{ACAD_REACTORS
330
10C
102
}
330
10C
100
AcDbScale
 70
     0
300
1:5
140
1.0
141
5.0
290
     0
  0
SCALE
  5
1C1
102
{ACAD_REACTORS
330
10C
102
}
330
10C
100
AcDbScale
 70
     0
300
1:8
140
1.0
141
8.0
290
     0
  0
SCALE
  5
1C2
102
{ACAD_REACTORS
330
10C
102
}
330
10C
100
AcDbScale
 70
     0
300
1:10
140
1.0
141
10.0
290
     0
  0
SCALE
  5
1C3
102
{ACAD_REACTORS
330
10C
102
}
330
10C
100
AcDbScale
 70
     0
300
1:16
140
1.0
141
16.0
290
     0
  0
SCALE
  5
1C4
102
{ACAD_REACTORS
330
10C
102
}
330
10C
100
AcDbScale
 70
     0
300
1:20
140
1.0
141
20.0
290
     0
  0
SCALE
  5
1C5
102
{ACAD_REACTORS
330
10C
102
}
330
10C
100
AcDbScale
 70
     0
300
1:30
140
1.0
141
30.0
290
     0
  0
SCALE
  5
1C6
102
{ACAD_REACTORS
330
10C
102
}
330
10C
100
AcDbScale
 70
     0
300
1:40
140
1.0
141
40.0
290
     0
  0
SCALE
  5
1C7
102
{ACAD_REACTORS
330
10C
102
}
330
10C
100
AcDbScale
 70
     0
300
1:50
140
1.0
141
50.0
290
     0
  0
SCALE
  5
1C8
102
{ACAD_REACTORS
330
10C
102
}
330
10C
100
AcDbScale
 70
     0
300
1:100
140
1.0
141
100.0
290
     0
  0
SCALE
  5
1C9
102
{ACAD_REACTORS
330
10C
102
}
330
10C
100
AcDbScale
 70
     0
300
2:1
140
2.0
141
1.0
290
     0
  0
SCALE
  5
1CA
102
{ACAD_REACTORS
330
10C
102
}
330
10C
100
AcDbScale
 70
     0
300
4:1
140
4.0
141
1.0
290
     0
  0
SCALE
  5
1CB
102
{ACAD_REACTORS
330
10C
102
}
330
10C
100
AcDbScale
 70
     0
300
8:1
140
8.0
141
1.0
290
     0
  0
SCALE
  5
1CC
102
{ACAD_REACTORS
330
10C
102
}
330
10C
100
AcDbScale
 70
     0
300
10:1
140
10.0
141
1.0
290
     0
  0
SCALE
  5
1CD
102
{ACAD_REACTORS
330
10C
102
}
330
10C
100
AcDbScale
 70
     0
300
100:1
140
100.0
141
1.0
290
     0
  0
ACDBSECTIONVIEWSTYLE
  5
21A
102
{ACAD_REACTORS
330
219
102
}
330
219
100
AcDbModelDocViewStyle
 70
     0
  3
Metric50
290
     0
300
Metric50
 90
        0
100
AcDbSectionViewStyle
 70
     0
 71
     0
 90
      102
 71
     1
340
11
 62
   256
 40
5.0
340
0
340
0
 62
   256
 40
5.0
300
I, O, Q, S, X, Z
 40
10.0
 90
        0
 40
2.5
 90
        0
 71
     2
340
16
 90
       25
 62
   256
340
16
 90
       50
 62
   256
 40
5.0
 40
2.5
 40
5.0
 71
     3
340
11
 62
   256
 40
5.0
 90
        0
 40
15.0
 90
        1
300
%<\AcVar ViewSectionStartId>%-%<\AcVar ViewSectionEndId>% (%<\AcVar ViewScale \f "%sn">%)
 71
     4
 62
   256
 62
   257
300
ANSI31
 40
1.0
 90
        0
290
     0
290
     0
 90
        6
 40
0.0
 40
1.570796326794896
 40
0.2617993877991494
 40
1.308996938995747
 40
-0.2617993877991494
 40
1.832595714594046
  0
TABLESTYLE
  5
7F
102
{ACAD_XDICTIONARY
360
162
102
}
102
{ACAD_REACTORS
330
7E
102
}
330
7E
100
AcDbTableStyle
280
     0
  3
Standard
 70
     0
 71
     0
 40
1.5
 41
1.5
280
     0
281
     0
  7
Standard
140
4.5
170
     2
 62
     0
 63
     7
283
     0
 90
      512
 91
        0
  1

274
    -2
284
     1
 64
     0
275
    -2
285
     1
 65
     0
276
    -2
286
     1
 66
     0
277
    -2
287
     1
 67
     0
278
    -2
288
     1
 68
     0
279
    -2
289
     1
 69
     0
  7
Standard
140
6.0
170
     5
 62
     0
 63
     7
283
     0
 90
      512
 91
        0
  1

274
    -2
284
     1
 64
     0
275
    -2
285
     1
 65
     0
276
    -2
286
     1
 66
     0
277
    -2
287
     1
 67
     0
278
    -2
288
     1
 68
     0
279
    -2
289
     1
 69
     0
  7
Standard
140
4.5
170
     5
 62
     0
 63
     7
283
     0
 90
      512
 91
        0
  1

274
    -2
284
     1
 64
     0
275
    -2
285
     1
 65
     0
276
    -2
286
     1
 66
     0
277
    -2
287
     1
 67
     0
278
    -2
288
     1
 68
     0
279
    -2
289
     1
 69
     0
  0
VISUALSTYLE
  5
F5
102
{ACAD_REACTORS
330
EF
102
}
330
EF
100
AcDbVisualStyle
  2
2dWireframe
 70
     4
177
     3
291
     0
 70
    58
 90
        0
176
     1
 90
        2
176
     1
 90
        1
176
     1
 90
        0
176
     1
 40
0.6
176
     1
 40
30.0
176
     1
 62
     7
176
     1
 90
        1
176
     1
 90
        4
176
     1
 62
     7
176
     1
 62
   257
176
     1
 90
        1
176
     1
 90
        1
176
     1
 40
1.0
176
     1
 90
        0
176
     1
 62
   257
176
     1
 40
1.0
176
     1
 90
        1
176
     1
 90
        6
176
     1
 90
        2
176
     1
 62
     7
176
     1
 90
        5
176
     1
 90
        0
176
     1
 90
        0
176
     1
290
     0
176
     1
 90
        1
176
     1
 40
0.0
176
     1
 90
        0
176
     1
290
     1
176
     1
290
     1
176
     1
290
     0
176
     1
290
     0
176
     1
290
     0
176
     1
290
     0
176
     1
290
     0
176
     1
290
     0
176
     1
290
     0
176
     1
 90
       50
176
     1
 40
0.0
176
     1
 40
1.0
176
     1
 90
        0
176
     1
 62
    18
420
        0
176
     1
 90
       50
176
     1
 90
        3
176
     1
 62
     5
420
      255
176
     1
290
     0
176
     1
 90
       50
176
     1
 90
       50
176
     1
 90
       50
176
     1
290
     0
176
     1
 90
       50
176
     1
 62
   256
176
     0
 40
1.0
176
     0
 90
        2
176
     1
  1
strokes_ogs.tif
176
     1
290
     0
176
     1
 40
1.0
176
     1
 40
1.0
176
     1
  0
VISUALSTYLE
  5
3D5
102
{ACAD_REACTORS
330
EF
102
}
330
EF
100
AcDbVisualStyle
  2
3dWireframe
 70
     5
177
     3
291
     0
 70
    58
 90
        0
176
     1
 90
        2
176
     1
 90
        1
176
     1
 90
        0
176
     1
 40
0.6
176
     1
 40
30.0
176
     1
 62
     7
176
     1
 90
        1
176
     1
 90
        4
176
     1
 62
     7
176
     1
 62
   257
176
     1
 90
        1
176
     1
 90
        1
176
     1
 40
1.0
176
     1
 90
        0
176
     1
 62
   257
176
     1
 40
1.0
176
     1
 90
        1
176
     1
 90
        6
176
     1
 90
        2
176
     1
 62
     7
176
     1
 90
        5
176
     1
 90
        0
176
     1
 90
        0
176
     1
290
     0
176
     1
 90
        1
176
     1
 40
0.0
176
     1
 90
        0
176
     1
290
     0
176
     1
290
     1
176
     1
290
     1
176
     1
290
     0
176
     1
290
     0
176
     1
290
     0
176
     1
290
     0
176
     1
290
     0
176
     1
290
     0
176
     1
 90
       50
176
     1
 40
0.0
176
     1
 40
1.0
176
     1
 90
        0
176
     1
 62
    18
420
        0
176
     1
 90
       50
176
     1
 90
        3
176
     1
 62
     5
420
      255
176
     1
290
     0
176
     1
 90
       50
176
     1
 90
       50
176
     1
 90
       50
176
     1
290
     0
176
     1
 90
       50
176
     1
 62
   256
176
     0
 40
1.0
176
     0
 90
        2
176
     1
  1
strokes_ogs.tif
176
     1
290
     0
176
     1
 40
1.0
176
     1
 40
1.0
176
     1
  0
VISUALSTYLE
  5
F4
102
{ACAD_REACTORS
330
EF
102
}
330
EF
100
AcDbVisualStyle
  2
Basic
 70
     7
177
     3
291
     1
 70
    58
 90
        1
176
     1
 90
        0
176
     1
 90
        1
176
     1
 90
        0
176
     1
 40
0.6
176
     1
 40
30.0
176
     1
 62
     7
176
     1
 90
        0
176
     1
 90
        4
176
     1
 62
     7
176
     1
 62
   257
176
     1
 90
        1
176
     1
 90
        1
176
     1
 40
1.0
176
     1
 90
        8
176
     1
 62
     7
176
     1
 40
1.0
176
     1
 90
        1
176
     1
 90
        6
176
     1
 90
        2
176
     1
 62
     7
176
     1
 90
        5
176
     1
 90
        0
176
     1
 90
        0
176
     1
290
     0
176
     1
 90
        1
176
     1
 40
0.0
176
     1
 90
        0
176
     1
290
     0
176
     1
290
     1
176
     1
290
     1
176
     1
290
     0
176
     1
290
     0
176
     1
290
     0
176
     1
290
     0
176
     1
290
     0
176
     1
290
     0
176
     1
 90
       50
176
     1
 40
0.0
176
     1
 40
1.0
176
     1
 90
        0
176
     1
 62
    18
420
        0
176
     1
 90
       50
176
     1
 90
        3
176
     1
 62
     5
420
      255
176
     1
290
     0
176
     1
 90
       50
176
     1
 90
       50
176
     1
 90
       50
176
     1
290
     0
176
     1
 90
       50
176
     1
 62
   256
176
     0
 40
1.0
176
     0
 90
        2
176
     1
  1
strokes_ogs.tif
176
     1
290
     0
176
     1
 40
1.0
176
     1
 40
1.0
176
     1
  0
VISUALSTYLE
  5
FB
102
{ACAD_REACTORS
330
EF
102
}
330
EF
100
AcDbVisualStyle
  2
Brighten
 70
    12
177
     3
291
     1
 70
    58
 90
        2
176
     1
 90
        2
176
     1
 90
        1
176
     1
 90
        0
176
     1
 40
0.6
176
     1
 40
30.0
176
     1
 62
     7
176
     1
 90
        1
176
     1
 90
        4
176
     1
 62
     7
176
     1
 62
   257
176
     1
 90
        1
176
     1
 90
        1
176
     1
 40
1.0
176
     1
 90
        8
176
     1
 62
     7
176
     1
 40
1.0
176
     1
 90
        1
176
     1
 90
        6
176
     1
 90
        2
176
     1
 62
     7
176
     1
 90
        5
176
     1
 90
        0
176
     1
 90
        0
176
     1
290
     0
176
     1
 90
        1
176
     1
 40
50.0
176
     1
 90
        0
176
     1
290
     0
176
     1
290
     1
176
     1
290
     1
176
     1
290
     0
176
     1
290
     0
176
     1
290
     0
176
     1
290
     0
176
     1
290
     0
176
     1
290
     0
176
     1
 90
       50
176
     1
 40
0.0
176
     1
 40
1.0
176
     1
 90
        0
176
     1
 62
    18
420
        0
176
     1
 90
       50
176
     1
 90
        3
176
     1
 62
     5
420
      255
176
     1
290
     0
176
     1
 90
       50
176
     1
 90
       50
176
     1
 90
       50
176
     1
290
     0
176
     1
 90
       50
176
     1
 62
   256
176
     0
 40
1.0
176
     0
 90
        2
176
     1
  1
strokes_ogs.tif
176
     1
290
     0
176
     1
 40
1.0
176
     1
 40
1.0
176
     1
  0
VISUALSTYLE
  5
FF
102
{ACAD_REACTORS
330
EF
102
}
330
EF
100
AcDbVisualStyle
  2
ColorChange
 70
    16
177
     3
291
     1
 70
    58
 90
        2
176
     1
 90
        2
176
     1
 90
        3
176
     1
 90
        0
176
     1
 40
0.6
176
     1
 40
30.0
176
     1
 62
     8
176
     1
 90
        1
176
     1
 90
        4
176
     1
 62
     7
176
     1
 62
   257
176
     1
 90
        1
176
     1
 90
        1
176
     1
 40
1.0
176
     1
 90
        8
176
     1
 62
     8
176
     1
 40
1.0
176
     1
 90
        1
176
     1
 90
        6
176
     1
 90
        2
176
     1
 62
     7
176
     1
 90
        5
176
     1
 90
        0
176
     1
 90
        0
176
     1
290
     0
176
     1
 90
        1
176
     1
 40
0.0
176
     1
 90
        0
176
     1
290
     0
176
     1
290
     1
176
     1
290
     1
176
     1
290
     0
176
     1
290
     0
176
     1
290
     0
176
     1
290
     0
176
     1
290
     0
176
     1
290
     0
176
     1
 90
       50
176
     1
 40
0.0
176
     1
 40
1.0
176
     1
 90
        0
176
     1
 62
    18
420
        0
176
     1
 90
       50
176
     1
 90
        3
176
     1
 62
     5
420
      255
176
     1
290
     0
176
     1
 90
       50
176
     1
 90
       50
176
     1
 90
       50
176
     1
290
     0
176
     1
 90
       50
176
     1
 62
   256
176
     0
 40
1.0
176
     0
 90
        2
176
     1
  1
strokes_ogs.tif
176
     1
290
     0
176
     1
 40
1.0
176
     1
 40
1.0
176
     1
  0
VISUALSTYLE
  5
F8
102
{ACAD_REACTORS
330
EF
102
}
330
EF
100
AcDbVisualStyle
  2
Conceptual
 70
     9
177
     3
291
     0
 70
    58
 90
        3
176
     1
 90
        2
176
     1
 90
        1
176
     1
 90
        0
176
     1
 40
0.6
176
     1
 40
30.0
176
     1
 62
     7
176
     1
 90
        2
176
     1
 90
        2
176
     1
 62
     7
176
     1
 62
   257
176
     1
 90
        1
176
     1
 90
        1
176
     1
 40
40.0
176
     1
 90
        8
176
     1
 62
     7
176
     1
 40
1.0
176
     1
 90
        1
176
     1
 90
        6
176
     1
 90
        2
176
     1
 62
     7
176
     1
 90
        3
176
     1
 90
        0
176
     1
 90
        0
176
     1
290
     0
176
     1
 90
        1
176
     1
 40
0.0
176
     1
 90
        0
176
     1
290
     0
176
     1
290
     1
176
     1
290
     1
176
     1
290
     0
176
     1
290
     0
176
     1
290
     0
176
     1
290
     0
176
     1
290
     0
176
     1
290
     0
176
     1
 90
       50
176
     1
 40
0.0
176
     1
 40
1.0
176
     1
 90
        0
176
     1
 62
    18
420
        0
176
     1
 90
       50
176
     1
 90
        3
176
     1
 62
     5
420
      255
176
     1
290
     0
176
     1
 90
       50
176
     1
 90
       50
176
     1
 90
       50
176
     1
290
     0
176
     1
 90
       50
176
     1
 62
   256
176
     0
 40
1.0
176
     0
 90
        2
176
     1
  1
strokes_ogs.tif
176
     1
290
     0
176
     1
 40
1.0
176
     1
 40
1.0
176
     1
  0
VISUALSTYLE
  5
FA
102
{ACAD_REACTORS
330
EF
102
}
330
EF
100
AcDbVisualStyle
  2
Dim
 70
    11
177
     3
291
     1
 70
    58
 90
        2
176
     1
 90
        2
176
     1
 90
        1
176
     1
 90
        0
176
     1
 40
0.6
176
     1
 40
30.0
176
     1
 62
     7
176
     1
 90
        1
176
     1
 90
        4
176
     1
 62
     7
176
     1
 62
   257
176
     1
 90
        1
176
     1
 90
        1
176
     1
 40
1.0
176
     1
 90
        8
176
     1
 62
     7
176
     1
 40
1.0
176
     1
 90
        1
176
     1
 90
        6
176
     1
 90
        2
176
     1
 62
     7
176
     1
 90
        5
176
     1
 90
        0
176
     1
 90
        0
176
     1
290
     0
176
     1
 90
        1
176
     1
 40
-50.0
176
     1
 90
        0
176
     1
290
     0
176
     1
290
     1
176
     1
290
     1
176
     1
290
     0
176
     1
290
     0
176
     1
290
     0
176
     1
290
     0
176
     1
290
     0
176
     1
290
     0
176
     1
 90
       50
176
     1
 40
0.0
176
     1
 40
1.0
176
     1
 90
        0
176
     1
 62
    18
420
        0
176
     1
 90
       50
176
     1
 90
        3
176
     1
 62
     5
420
      255
176
     1
290
     0
176
     1
 90
       50
176
     1
 90
       50
176
     1
 90
       50
176
     1
290
     0
176
     1
 90
       50
176
     1
 62
   256
176
     0
 40
1.0
176
     0
 90
        2
176
     1
  1
strokes_ogs.tif
176
     1
290
     0
176
     1
 40
1.0
176
     1
 40
1.0
176
     1
  0
VISUALSTYLE
  5
1E6
102
{ACAD_REACTORS
330
EF
102
}
330
EF
100
AcDbVisualStyle
  2
EdgeColorOff
 70
    22
177
     3
291
     1
 70
    58
 90
        2
176
     0
 90
        2
176
     0
 90
        0
176
     0
 90
        0
176
     0
 40
0.6
176
     0
 40
30.0
176
     0
 62
     7
176
     0
 90
        1
176
     0
 90
        4
176
     0
 62
     7
176
     0
 62
   257
176
     0
 90
        1
176
     0
 90
        1
176
     0
 40
1.0
176
     0
 90
        8
176
     2
 62
     7
176
     0
 40
1.0
176
     0
 90
        1
176
     0
 90
        6
176
     0
 90
        2
176
     0
 62
     7
176
     0
 90
        5
176
     0
 90
        0
176
     0
 90
        0
176
     0
290
     0
176
     0
 90
        1
176
     0
 40
0.0
176
     0
 90
        0
176
     0
290
     0
176
     1
290
     1
176
     1
290
     1
176
     1
290
     0
176
     1
290
     0
176
     1
290
     0
176
     1
290
     0
176
     1
290
     0
176
     1
290
     0
176
     1
 90
       50
176
     1
 40
0.0
176
     1
 40
1.0
176
     1
 90
        0
176
     1
 62
    18
420
        0
176
     1
 90
       50
176
     1
 90
        3
176
     1
 62
     5
420
      255
176
     1
290
     0
176
     1
 90
       50
176
     1
 90
       50
176
     1
 90
       50
176
     1
290
     0
176
     1
 90
       50
176
     1
 62
   256
176
     0
 40
1.0
176
     0
 90
        2
176
     1
  1
strokes_ogs.tif
176
     1
290
     0
176
     1
 40
1.0
176
     1
 40
1.0
176
     1
  0
VISUALSTYLE
  5
FE
102
{ACAD_REACTORS
330
EF
102
}
330
EF
100
AcDbVisualStyle
  2
Facepattern
 70
    15
177
     3
291
     1
 70
    58
 90
        2
176
     1
 90
        2
176
     1
 90
        1
176
     1
 90
        0
176
     1
 40
0.6
176
     1
 40
30.0
176
     1
 62
     7
176
     1
 90
        1
176
     1
 90
        4
176
     1
 62
     7
176
     1
 62
   257
176
     1
 90
        1
176
     1
 90
        1
176
     1
 40
1.0
176
     1
 90
        8
176
     1
 62
     7
176
     1
 40
1.0
176
     1
 90
        1
176
     1
 90
        6
176
     1
 90
        2
176
     1
 62
     7
176
     1
 90
        5
176
     1
 90
        0
176
     1
 90
        0
176
     1
290
     0
176
     1
 90
        1
176
     1
 40
0.0
176
     1
 90
        0
176
     1
290
     0
176
     1
290
     1
176
     1
290
     1
176
     1
290
     0
176
     1
290
     0
176
     1
290
     0
176
     1
290
     0
176
     1
290
     0
176
     1
290
     0
176
     1
 90
       50
176
     1
 40
0.0
176
     1
 40
1.0
176
     1
 90
        0
176
     1
 62
    18
420
        0
176
     1
 90
       50
176
     1
 90
        3
176
     1
 62
     5
420
      255
176
     1
290
     0
176
     1
 90
       50
176
     1
 90
       50
176
     1
 90
       50
176
     1
290
     0
176
     1
 90
       50
176
     1
 62
   256
176
     0
 40
1.0
176
     0
 90
        2
176
     1
  1
strokes_ogs.tif
176
     1
290
     0
176
     1
 40
1.0
176
     1
 40
1.0
176
     1
  0
VISUALSTYLE
  5
F0
102
{ACAD_REACTORS
330
EF
102
}
330
EF
100
AcDbVisualStyle
  2
Flat
 70
     0
177
     3
291
     1
 70
    58
 90
        2
176
     1
 90
        1
176
     1
 90
        1
176
     1
 90
        2
176
     1
 40
0.6
176
     1
 40
30.0
176
     1
 62
     7
176
     1
 90
        0
176
     1
 90
        0
176
     1
 62
     7
176
     1
 62
   257
176
     1
 90
        1
176
     1
 90
        1
176
     1
 40
1.0
176
     1
 90
        8
176
     1
 62
     7
176
     1
 40
1.0
176
     1
 90
        1
176
     1
 90
        6
176
     1
 90
        2
176
     1
 62
     7
176
     1
 90
        5
176
     1
 90
        0
176
     1
 90
        0
176
     1
290
     0
176
     1
 90
       13
176
     1
 40
0.0
176
     1
 90
        0
176
     1
290
     0
176
     1
290
     1
176
     1
290
     1
176
     1
290
     0
176
     1
290
     0
176
     1
290
     0
176
     1
290
     0
176
     1
290
     0
176
     1
290
     0
176
     1
 90
       50
176
     1
 40
0.0
176
     1
 40
1.0
176
     1
 90
        0
176
     1
 62
    18
420
        0
176
     1
 90
       50
176
     1
 90
        3
176
     1
 62
     5
420
      255
176
     1
290
     0
176
     1
 90
       50
176
     1
 90
       50
176
     1
 90
       50
176
     1
290
     0
176
     1
 90
       50
176
     1
 62
   256
176
     0
 40
1.0
176
     0
 90
        2
176
     1
  1
strokes_ogs.tif
176
     1
290
     0
176
     1
 40
1.0
176
     1
 40
1.0
176
     1
  0
VISUALSTYLE
  5
F1
102
{ACAD_REACTORS
330
EF
102
}
330
EF
100
AcDbVisualStyle
  2
FlatWithEdges
 70
     1
177
     3
291
     1
 70
    58
 90
        2
176
     1
 90
        1
176
     1
 90
        1
176
     1
 90
        2
176
     1
 40
0.6
176
     1
 40
30.0
176
     1
 62
     7
176
     1
 90
        1
176
     1
 90
        0
176
     1
 62
     7
176
     1
 62
   257
176
     1
 90
        1
176
     1
 90
        1
176
     1
 40
1.0
176
     1
 90
        0
176
     1
 62
   257
176
     1
 40
1.0
176
     1
 90
        1
176
     1
 90
        6
176
     1
 90
        2
176
     1
 62
     7
176
     1
 90
        5
176
     1
 90
        0
176
     1
 90
        0
176
     1
290
     0
176
     1
 90
       13
176
     1
 40
0.0
176
     1
 90
        0
176
     1
290
     0
176
     1
290
     1
176
     1
290
     1
176
     1
290
     0
176
     1
290
     0
176
     1
290
     0
176
     1
290
     0
176
     1
290
     0
176
     1
290
     0
176
     1
 90
       50
176
     1
 40
0.0
176
     1
 40
1.0
176
     1
 90
        0
176
     1
 62
    18
420
        0
176
     1
 90
       50
176
     1
 90
        3
176
     1
 62
     5
420
      255
176
     1
290
     0
176
     1
 90
       50
176
     1
 90
       50
176
     1
 90
       50
176
     1
290
     0
176
     1
 90
       50
176
     1
 62
   256
176
     0
 40
1.0
176
     0
 90
        2
176
     1
  1
strokes_ogs.tif
176
     1
290
     0
176
     1
 40
1.0
176
     1
 40
1.0
176
     1
  0
VISUALSTYLE
  5
F2
102
{ACAD_REACTORS
330
EF
102
}
330
EF
100
AcDbVisualStyle
  2
Gouraud
 70
     2
177
     3
291
     1
 70
    58
 90
        2
176
     1
 90
        2
176
     1
 90
        1
176
     1
 90
        2
176
     1
 40
0.6
176
     1
 40
30.0
176
     1
 62
     7
176
     1
 90
        0
176
     1
 90
        0
176
     1
 62
     7
176
     1
 62
   257
176
     1
 90
        1
176
     1
 90
        1
176
     1
 40
1.0
176
     1
 90
        0
176
     1
 62
     7
176
     1
 40
1.0
176
     1
 90
        1
176
     1
 90
        6
176
     1
 90
        2
176
     1
 62
     7
176
     1
 90
        5
176
     1
 90
        0
176
     1
 90
        0
176
     1
290
     0
176
     1
 90
       13
176
     1
 40
0.0
176
     1
 90
        0
176
     1
290
     0
176
     1
290
     1
176
     1
290
     1
176
     1
290
     0
176
     1
290
     0
176
     1
290
     0
176
     1
290
     0
176
     1
290
     0
176
     1
290
     0
176
     1
 90
       50
176
     1
 40
0.0
176
     1
 40
1.0
176
     1
 90
        0
176
     1
 62
    18
420
        0
176
     1
 90
       50
176
     1
 90
        3
176
     1
 62
     5
420
      255
176
     1
290
     0
176
     1
 90
       50
176
     1
 90
       50
176
     1
 90
       50
176
     1
290
     0
176
     1
 90
       50
176
     1
 62
   256
176
     0
 40
1.0
176
     0
 90
        2
176
     1
  1
strokes_ogs.tif
176
     1
290
     0
176
     1
 40
1.0
176
     1
 40
1.0
176
     1
  0
VISUALSTYLE
  5
F3
102
{ACAD_REACTORS
330
EF
102
}
330
EF
100
AcDbVisualStyle
  2
GouraudWithEdges
 70
     3
177
     3
291
     1
 70
    58
 90
        2
176
     1
 90
        2
176
     1
 90
        1
176
     1
 90
        2
176
     1
 40
0.6
176
     1
 40
30.0
176
     1
 62
     7
176
     1
 90
        1
176
     1
 90
        0
176
     1
 62
     7
176
     1
 62
   257
176
     1
 90
        1
176
     1
 90
        1
176
     1
 40
1.0
176
     1
 90
        0
176
     1
 62
   257
176
     1
 40
1.0
176
     1
 90
        1
176
     1
 90
        6
176
     1
 90
        2
176
     1
 62
     7
176
     1
 90
        5
176
     1
 90
        0
176
     1
 90
        0
176
     1
290
     0
176
     1
 90
       13
176
     1
 40
0.0
176
     1
 90
        0
176
     1
290
     0
176
     1
290
     1
176
     1
290
     1
176
     1
290
     0
176
     1
290
     0
176
     1
290
     0
176
     1
290
     0
176
     1
290
     0
176
     1
290
     0
176
     1
 90
       50
176
     1
 40
0.0
176
     1
 40
1.0
176
     1
 90
        0
176
     1
 62
    18
420
        0
176
     1
 90
       50
176
     1
 90
        3
176
     1
 62
     5
420
      255
176
     1
290
     0
176
     1
 90
       50
176
     1
 90
       50
176
     1
 90
       50
176
     1
290
     0
176
     1
 90
       50
176
     1
 62
   256
176
     0
 40
1.0
176
     0
 90
        2
176
     1
  1
strokes_ogs.tif
176
     1
290
     0
176
     1
 40
1.0
176
     1
 40
1.0
176
     1
  0
VISUALSTYLE
  5
F7
102
{ACAD_REACTORS
330
EF
102
}
330
EF
100
AcDbVisualStyle
  2
Hidden
 70
     6
177
     3
291
     0
 70
    58
 90
        1
176
     1
 90
        2
176
     1
 90
        2
176
     1
 90
        0
176
     1
 40
0.6
176
     1
 40
30.0
176
     1
 62
     7
176
     1
 90
        2
176
     1
 90
        2
176
     1
 62
     7
176
     1
 62
   257
176
     1
 90
        2
176
     1
 90
        1
176
     1
 40
40.0
176
     1
 90
        0
176
     1
 62
   257
176
     1
 40
1.0
176
     1
 90
        1
176
     1
 90
        6
176
     1
 90
        2
176
     1
 62
     7
176
     1
 90
        3
176
     1
 90
        0
176
     1
 90
        0
176
     1
290
     0
176
     1
 90
        1
176
     1
 40
0.0
176
     1
 90
        0
176
     1
290
     0
176
     1
290
     1
176
     1
290
     1
176
     1
290
     0
176
     1
290
     0
176
     1
290
     0
176
     1
290
     0
176
     1
290
     0
176
     1
290
     0
176
     1
 90
       50
176
     1
 40
0.0
176
     1
 40
1.0
176
     1
 90
        0
176
     1
 62
    18
420
        0
176
     1
 90
       50
176
     1
 90
        3
176
     1
 62
     5
420
      255
176
     1
290
     0
176
     1
 90
       50
176
     1
 90
       50
176
     1
 90
       50
176
     1
290
     0
176
     1
 90
       50
176
     1
 62
   256
176
     0
 40
1.0
176
     0
 90
        2
176
     1
  1
strokes_ogs.tif
176
     1
290
     0
176
     1
 40
1.0
176
     1
 40
1.0
176
     1
  0
VISUALSTYLE
  5
1E4
102
{ACAD_REACTORS
330
EF
102
}
330
EF
100
AcDbVisualStyle
  2
JitterOff
 70
    20
177
     3
291
     1
 70
    58
 90
        2
176
     0
 90
        2
176
     0
 90
        0
176
     0
 90
        0
176
     0
 40
0.6
176
     0
 40
30.0
176
     0
 62
     7
176
     0
 90
        1
176
     0
 90
        4
176
     0
 62
     7
176
     0
 62
   257
176
     0
 90
        1
176
     0
 90
        1
176
     0
 40
1.0
176
     0
 90
       10
176
     2
 62
     7
176
     0
 40
1.0
176
     0
 90
        1
176
     0
 90
        6
176
     0
 90
        2
176
     0
 62
     7
176
     0
 90
        5
176
     0
 90
        0
176
     0
 90
        0
176
     0
290
     0
176
     0
 90
        1
176
     0
 40
0.0
176
     0
 90
        0
176
     0
290
     0
176
     1
290
     1
176
     1
290
     1
176
     1
290
     0
176
     1
290
     0
176
     1
290
     0
176
     1
290
     0
176
     1
290
     0
176
     1
290
     0
176
     1
 90
       50
176
     1
 40
0.0
176
     1
 40
1.0
176
     1
 90
        0
176
     1
 62
    18
420
        0
176
     1
 90
       50
176
     1
 90
        3
176
     1
 62
     5
420
      255
176
     1
290
     0
176
     1
 90
       50
176
     1
 90
       50
176
     1
 90
       50
176
     1
290
     0
176
     1
 90
       50
176
     1
 62
   256
176
     0
 40
1.0
176
     0
 90
        2
176
     1
  1
strokes_ogs.tif
176
     1
290
     0
176
     1
 40
1.0
176
     1
 40
1.0
176
     1
  0
VISUALSTYLE
  5
FD
102
{ACAD_REACTORS
330
EF
102
}
330
EF
100
AcDbVisualStyle
  2
Linepattern
 70
    14
177
     3
291
     1
 70
    58
 90
        2
176
     1
 90
        2
176
     1
 90
        1
176
     1
 90
        0
176
     1
 40
0.6
176
     1
 40
30.0
176
     1
 62
     7
176
     1
 90
        1
176
     1
 90
        4
176
     1
 62
     7
176
     1
 62
   257
176
     1
 90
        7
176
     1
 90
        7
176
     1
 40
1.0
176
     1
 90
        8
176
     1
 62
     7
176
     1
 40
1.0
176
     1
 90
        1
176
     1
 90
        6
176
     1
 90
        2
176
     1
 62
     7
176
     1
 90
        5
176
     1
 90
        0
176
     1
 90
        0
176
     1
290
     0
176
     1
 90
        1
176
     1
 40
0.0
176
     1
 90
        0
176
     1
290
     0
176
     1
290
     1
176
     1
290
     1
176
     1
290
     0
176
     1
290
     0
176
     1
290
     0
176
     1
290
     0
176
     1
290
     0
176
     1
290
     0
176
     1
 90
       50
176
     1
 40
0.0
176
     1
 40
1.0
176
     1
 90
        0
176
     1
 62
    18
420
        0
176
     1
 90
       50
176
     1
 90
        3
176
     1
 62
     5
420
      255
176
     1
290
     0
176
     1
 90
       50
176
     1
 90
       50
176
     1
 90
       50
176
     1
290
     0
176
     1
 90
       50
176
     1
 62
   256
176
     0
 40
1.0
176
     0
 90
        2
176
     1
  1
strokes_ogs.tif
176
     1
290
     0
176
     1
 40
1.0
176
     1
 40
1.0
176
     1
  0
VISUALSTYLE
  5
1E5
102
{ACAD_REACTORS
330
EF
102
}
330
EF
100
AcDbVisualStyle
  2
OverhangOff
 70
    21
177
     3
291
     1
 70
    58
 90
        2
176
     0
 90
        2
176
     0
 90
        0
176
     0
 90
        0
176
     0
 40
0.6
176
     0
 40
30.0
176
     0
 62
     7
176
     0
 90
        1
176
     0
 90
        4
176
     0
 62
     7
176
     0
 62
   257
176
     0
 90
        1
176
     0
 90
        1
176
     0
 40
1.0
176
     0
 90
        9
176
     2
 62
     7
176
     0
 40
1.0
176
     0
 90
        1
176
     0
 90
        6
176
     0
 90
        2
176
     0
 62
     7
176
     0
 90
        5
176
     0
 90
        0
176
     0
 90
        0
176
     0
290
     0
176
     0
 90
        1
176
     0
 40
0.0
176
     0
 90
        0
176
     0
290
     0
176
     1
290
     1
176
     1
290
     1
176
     1
290
     0
176
     1
290
     0
176
     1
290
     0
176
     1
290
     0
176
     1
290
     0
176
     1
290
     0
176
     1
 90
       50
176
     1
 40
0.0
176
     1
 40
1.0
176
     1
 90
        0
176
     1
 62
    18
420
        0
176
     1
 90
       50
176
     1
 90
        3
176
     1
 62
     5
420
      255
176
     1
290
     0
176
     1
 90
       50
176
     1
 90
       50
176
     1
 90
       50
176
     1
290
     0
176
     1
 90
       50
176
     1
 62
   256
176
     0
 40
1.0
176
     0
 90
        2
176
     1
  1
strokes_ogs.tif
176
     1
290
     0
176
     1
 40
1.0
176
     1
 40
1.0
176
     1
  0
VISUALSTYLE
  5
F9
102
{ACAD_REACTORS
330
EF
102
}
330
EF
100
AcDbVisualStyle
  2
Realistic
 70
     8
177
     3
291
     0
 70
    58
 90
        2
176
     1
 90
        2
176
     1
 90
        0
176
     1
 90
        2
176
     1
 40
0.6
176
     1
 40
30.0
176
     1
 62
     7
176
     1
 90
        0
176
     1
 90
        0
176
     1
 62
     7
176
     1
 62
   257
176
     1
 90
        1
176
     1
 90
        1
176
     1
 40
1.0
176
     1
 90
        8
176
     1
 62
   257
176
     1
 40
1.0
176
     1
 90
        1
176
     1
 90
        6
176
     1
 90
        2
176
     1
 62
     7
176
     1
 90
        3
176
     1
 90
        0
176
     1
 90
        0
176
     1
290
     0
176
     1
 90
       13
176
     1
 40
0.0
176
     1
 90
        0
176
     1
290
     0
176
     1
290
     1
176
     1
290
     1
176
     1
290
     0
176
     1
290
     0
176
     1
290
     0
176
     1
290
     0
176
     1
290
     0
176
     1
290
     0
176
     1
 90
       50
176
     1
 40
0.0
176
     1
 40
1.0
176
     1
 90
        0
176
     1
 62
    18
420
        0
176
     1
 90
       50
176
     1
 90
        3
176
     1
 62
     5
420
      255
176
     1
290
     0
176
     1
 90
       50
176
     1
 90
       50
176
     1
 90
       50
176
     1
290
     0
176
     1
 90
       50
176
     1
 62
   256
176
     0
 40
1.0
176
     0
 90
        2
176
     1
  1
strokes_ogs.tif
176
     1
290
     0
176
     1
 40
1.0
176
     1
 40
1.0
176
     1
  0
VISUALSTYLE
  5
1F3
102
{ACAD_REACTORS
330
EF
102
}
330
EF
100
AcDbVisualStyle
  2
Shaded
 70
    27
177
     3
291
     0
 70
    58
 90
        2
176
     1
 90
        2
176
     1
 90
        1
176
     1
 90
        2
176
     1
 40
0.6
176
     1
 40
30.0
176
     1
 62
     7
176
     1
 90
        0
176
     1
 90
        4
176
     1
 62
     7
176
     1
 62
   257
176
     1
 90
        1
176
     1
 90
        1
176
     1
 40
1.0
176
     1
 90
        8
176
     1
 62
   257
176
     1
 40
1.0
176
     1
 90
        1
176
     1
 90
        6
176
     1
 90
        2
176
     1
 62
     8
176
     1
 90
        3
176
     1
 90
        0
176
     1
 90
        0
176
     1
290
     0
176
     1
 90
        5
176
     1
 40
0.0
176
     1
 90
        0
176
     1
290
     0
176
     1
290
     1
176
     1
290
     1
176
     1
290
     0
176
     1
290
     0
176
     1
290
     0
176
     1
290
     0
176
     1
290
     0
176
     1
290
     0
176
     1
 90
       50
176
     1
 40
0.0
176
     1
 40
1.0
176
     1
 90
        0
176
     1
 62
    18
420
        0
176
     1
 90
       50
176
     1
 90
        3
176
     1
 62
     5
420
      255
176
     1
290
     0
176
     1
 90
       50
176
     1
 90
       50
176
     1
 90
       50
176
     1
290
     0
176
     1
 90
       50
176
     1
 62
   256
176
     0
 40
1.0
176
     0
 90
        2
176
     1
  1
strokes_ogs.tif
176
     1
290
     0
176
     1
 40
1.0
176
     1
 40
1.0
176
     1
  0
VISUALSTYLE
  5
1F2
102
{ACAD_REACTORS
330
EF
102
}
330
EF
100
AcDbVisualStyle
  2
Shaded with edges
 70
    26
177
     3
291
     0
 70
    58
 90
        2
176
     1
 90
        2
176
     1
 90
        1
176
     1
 90
        2
176
     1
 40
0.6
176
     1
 40
30.0
176
     1
 62
     7
176
     1
 90
        1
176
     1
 90
        2
176
     1
 62
     7
176
     1
 62
   257
176
     1
 90
        2
176
     1
 90
        1
176
     1
 40
1.0
176
     1
 90
        8
176
     1
 62
   257
176
     1
 40
1.0
176
     1
 90
        1
176
     1
 90
        6
176
     1
 90
        2
176
     1
 62
     7
176
     1
 90
        3
176
     1
 90
        0
176
     1
 90
        0
176
     1
290
     0
176
     1
 90
        5
176
     1
 40
0.0
176
     1
 90
        0
176
     1
290
     0
176
     1
290
     1
176
     1
290
     1
176
     1
290
     0
176
     1
290
     0
176
     1
290
     0
176
     1
290
     0
176
     1
290
     0
176
     1
290
     0
176
     1
 90
       50
176
     1
 40
0.0
176
     1
 40
1.0
176
     1
 90
        0
176
     1
 62
    18
420
        0
176
     1
 90
       50
176
     1
 90
        3
176
     1
 62
     5
420
      255
176
     1
290
     0
176
     1
 90
       50
176
     1
 90
       50
176
     1
 90
       50
176
     1
290
     0
176
     1
 90
       50
176
     1
 62
   256
176
     0
 40
1.0
176
     0
 90
        2
176
     1
  1
strokes_ogs.tif
176
     1
290
     0
176
     1
 40
1.0
176
     1
 40
1.0
176
     1
  0
VISUALSTYLE
  5
1EF
102
{ACAD_REACTORS
330
EF
102
}
330
EF
100
AcDbVisualStyle
  2
Shades of Gray
 70
    23
177
     3
291
     0
 70
    58
 90
        2
176
     1
 90
        2
176
     1
 90
        3
176
     1
 90
        0
176
     1
 40
0.6
176
     1
 40
30.0
176
     1
 62
     7
176
     1
 90
        2
176
     1
 90
        2
176
     1
 62
     7
176
     1
 62
     7
176
     1
 90
        1
176
     1
 90
        1
176
     1
 40
40.0
176
     1
 90
        8
176
     1
 62
     7
176
     1
 40
1.0
176
     1
 90
        1
176
     1
 90
        6
176
     1
 90
        2
176
     1
 62
     7
176
     1
 90
        3
176
     1
 90
        0
176
     1
 90
        0
176
     1
290
     0
176
     1
 90
        1
176
     1
 40
0.0
176
     1
 90
        0
176
     1
290
     0
176
     1
290
     1
176
     1
290
     1
176
     1
290
     0
176
     1
290
     0
176
     1
290
     0
176
     1
290
     0
176
     1
290
     0
176
     1
290
     0
176
     1
 90
       50
176
     1
 40
0.0
176
     1
 40
1.0
176
     1
 90
        0
176
     1
 62
    18
420
        0
176
     1
 90
       50
176
     1
 90
        3
176
     1
 62
     5
420
      255
176
     1
290
     0
176
     1
 90
       50
176
     1
 90
       50
176
     1
 90
       50
176
     1
290
     0
176
     1
 90
       50
176
     1
 62
   256
176
     0
 40
1.0
176
     0
 90
        2
176
     1
  1
strokes_ogs.tif
176
     1
290
     0
176
     1
 40
1.0
176
     1
 40
1.0
176
     1
  0
VISUALSTYLE
  5
1F0
102
{ACAD_REACTORS
330
EF
102
}
330
EF
100
AcDbVisualStyle
  2
Sketchy
 70
    24
177
     3
291
     0
 70
    58
 90
        1
176
     1
 90
        2
176
     1
 90
        2
176
     1
 90
        0
176
     1
 40
0.6
176
     1
 40
30.0
176
     1
 62
     7
176
     1
 90
        2
176
     1
 90
        2
176
     1
 62
     7
176
     1
 62
     7
176
     1
 90
        1
176
     1
 90
        1
176
     1
 40
40.0
176
     1
 90
       11
176
     1
 62
     7
176
     1
 40
1.0
176
     1
 90
        1
176
     1
 90
        6
176
     1
 90
        2
176
     1
 62
     7
176
     1
 90
        6
176
     1
 90
        0
176
     1
 90
        0
176
     1
290
     0
176
     1
 90
        1
176
     1
 40
0.0
176
     1
 90
        0
176
     1
290
     0
176
     1
290
     1
176
     1
290
     1
176
     1
290
     0
176
     1
290
     0
176
     1
290
     0
176
     1
290
     0
176
     1
290
     0
176
     1
290
     0
176
     1
 90
       50
176
     1
 40
0.0
176
     1
 40
1.0
176
     1
 90
        0
176
     1
 62
    18
420
        0
176
     1
 90
       50
176
     1
 90
        3
176
     1
 62
     5
420
      255
176
     1
290
     0
176
     1
 90
       50
176
     1
 90
       50
176
     1
 90
       50
176
     1
290
     0
176
     1
 90
       50
176
     1
 62
   256
176
     0
 40
1.0
176
     0
 90
        2
176
     1
  1
strokes_ogs.tif
176
     1
290
     0
176
     1
 40
1.0
176
     1
 40
1.0
176
     1
  0
VISUALSTYLE
  5
FC
102
{ACAD_REACTORS
330
EF
102
}
330
EF
100
AcDbVisualStyle
  2
Thicken
 70
    13
177
     3
291
     1
 70
    58
 90
        2
176
     1
 90
        2
176
     1
 90
        1
176
     1
 90
        0
176
     1
 40
0.6
176
     1
 40
30.0
176
     1
 62
     7
176
     1
 90
        1
176
     1
 90
        4
176
     1
 62
     7
176
     1
 62
   257
176
     1
 90
        1
176
     1
 90
        1
176
     1
 40
1.0
176
     1
 90
       12
176
     1
 62
     7
176
     1
 40
1.0
176
     1
 90
        1
176
     1
 90
        6
176
     1
 90
        2
176
     1
 62
     7
176
     1
 90
        5
176
     1
 90
        0
176
     1
 90
        0
176
     1
290
     0
176
     1
 90
        1
176
     1
 40
0.0
176
     1
 90
        0
176
     1
290
     0
176
     1
290
     1
176
     1
290
     1
176
     1
290
     0
176
     1
290
     0
176
     1
290
     0
176
     1
290
     0
176
     1
290
     0
176
     1
290
     0
176
     1
 90
       50
176
     1
 40
0.0
176
     1
 40
1.0
176
     1
 90
        0
176
     1
 62
    18
420
        0
176
     1
 90
       50
176
     1
 90
        3
176
     1
 62
     5
420
      255
176
     1
290
     0
176
     1
 90
       50
176
     1
 90
       50
176
     1
 90
       50
176
     1
290
     0
176
     1
 90
       50
176
     1
 62
   256
176
     0
 40
1.0
176
     0
 90
        2
176
     1
  1
strokes_ogs.tif
176
     1
290
     0
176
     1
 40
1.0
176
     1
 40
1.0
176
     1
  0
VISUALSTYLE
  5
F6
102
{ACAD_REACTORS
330
EF
102
}
330
EF
100
AcDbVisualStyle
  2
Wireframe
 70
     5
177
     3
291
     0
 70
    58
 90
        0
176
     1
 90
        2
176
     1
 90
        0
176
     1
 90
        0
176
     1
 40
0.6
176
     1
 40
30.0
176
     1
 62
     7
176
     1
 90
        1
176
     1
 90
        4
176
     1
 62
     7
176
     1
 62
   257
176
     1
 90
        1
176
     1
 90
        1
176
     1
 40
1.0
176
     1
 90
        0
176
     1
 62
   257
176
     1
 40
1.0
176
     1
 90
        1
176
     1
 90
        6
176
     1
 90
        2
176
     1
 62
     7
176
     1
 90
        3
176
     1
 90
        0
176
     1
 90
        0
176
     1
290
     0
176
     1
 90
        1
176
     1
 40
0.0
176
     1
 90
        0
176
     1
290
     0
176
     1
290
     1
176
     1
290
     1
176
     1
290
     0
176
     1
290
     0
176
     1
290
     0
176
     1
290
     0
176
     1
290
     0
176
     1
290
     0
176
     1
 90
       50
176
     1
 40
0.0
176
     1
 40
1.0
176
     1
 90
        0
176
     1
 62
    18
420
        0
176
     1
 90
       50
176
     1
 90
        3
176
     1
 62
     5
420
      255
176
     1
290
     0
176
     1
 90
       50
176
     1
 90
       50
176
     1
 90
       50
176
     1
290
     0
176
     1
 90
       50
176
     1
 62
   256
176
     0
 40
1.0
176
     0
 90
        2
176
     1
  1
strokes_ogs.tif
176
     1
290
     0
176
     1
 40
1.0
176
     1
 40
1.0
176
     1
  0
VISUALSTYLE
  5
1F1
102
{ACAD_REACTORS
330
EF
102
}
330
EF
100
AcDbVisualStyle
  2
X-Ray
 70
    25
177
     3
291
     0
 70
    58
 90
        2
176
     1
 90
        2
176
     1
 90
        1
176
     1
 90
        1
176
     1
 40
0.5
176
     1
 40
30.0
176
     1
 62
     7
176
     1
 90
        1
176
     1
 90
        0
176
     1
 62
     7
176
     1
 62
   257
176
     1
 90
        1
176
     1
 90
        1
176
     1
 40
1.0
176
     1
 90
        8
176
     1
 62
     7
176
     1
 40
1.0
176
     1
 90
        1
176
     1
 90
        6
176
     1
 90
        2
176
     1
 62
     7
176
     1
 90
        3
176
     1
 90
        0
176
     1
 90
        0
176
     1
290
     0
176
     1
 90
       13
176
     1
 40
0.0
176
     1
 90
        0
176
     1
290
     0
176
     1
290
     1
176
     1
290
     1
176
     1
290
     0
176
     1
290
     0
176
     1
290
     0
176
     1
290
     0
176
     1
290
     0
176
     1
290
     0
176
     1
 90
       50
176
     1
 40
0.0
176
     1
 40
1.0
176
     1
 90
        0
176
     1
 62
    18
420
        0
176
     1
 90
       50
176
     1
 90
        3
176
     1
 62
     5
420
      255
176
     1
290
     0
176
     1
 90
       50
176
     1
 90
       50
176
     1
 90
       50
176
     1
290
     0
176
     1
 90
       50
176
     1
 62
   256
176
     0
 40
1.0
176
     0
 90
        2
176
     1
  1
strokes_ogs.tif
176
     1
290
     0
176
     1
 40
1.0
176
     1
 40
1.0
176
     1
  0
DICTIONARYVAR
  5
146
102
{ACAD_REACTORS
330
5E
102
}
330
5E
100
DictionaryVariables
280
     0
  1
1:1
  0
DICTIONARYVAR
  5
145
102
{ACAD_REACTORS
330
5E
102
}
330
5E
100
DictionaryVariables
280
     0
  1
STANDARD
  0
DICTIONARYVAR
  5
84
102
{ACAD_REACTORS
330
5E
102
}
330
5E
100
DictionaryVariables
280
     0
  1
STANDARD
  0
DICTIONARYVAR
  5
227
102
{ACAD_REACTORS
330
5E
102
}
330
5E
100
DictionaryVariables
280
     0
  1
Metric50
  0
DICTIONARYVAR
  5
228
102
{ACAD_REACTORS
330
5E
102
}
330
5E
100
DictionaryVariables
280
     0
  1
Metric50
  0
DICTIONARYVAR
  5
5F
102
{ACAD_REACTORS
330
5E
102
}
330
5E
100
DictionaryVariables
280
     0
  1
2
  0
DICTIONARYVAR
  5
63
102
{ACAD_REACTORS
330
5E
102
}
330
5E
100
DictionaryVariables
280
     0
  1
1
  0
DICTIONARYVAR
  5
7ED
102
{ACAD_REACTORS
330
5E
102
}
330
5E
100
DictionaryVariables
280
     0
  1
0
  0
DICTIONARYVAR
  5
1AE
102
{ACAD_REACTORS
330
5E
102
}
330
5E
100
DictionaryVariables
280
     0
  1
0
  0
DICTIONARYVAR
  5
1AF
102
{ACAD_REACTORS
330
5E
102
}
330
5E
100
DictionaryVariables
280
     0
  1
0
  0
DICTIONARYVAR
  5
7EB
102
{ACAD_REACTORS
330
5E
102
}
330
5E
100
DictionaryVariables
280
     0
  1
2
  0
DICTIONARYVAR
  5
7EA
102
{ACAD_REACTORS
330
5E
102
}
330
5E
100
DictionaryVariables
280
     0
  1
1
  0
DICTIONARYVAR
  5
7EC
102
{ACAD_REACTORS
330
5E
102
}
330
5E
100
DictionaryVariables
280
     0
  1
127
  0
DICTIONARY
  5
205
330
22
100
AcDbDictionary
280
     1
281
     1
  0
DICTIONARY
  5
1F9
330
ED
100
AcDbDictionary
280
     1
281
     1
  3
FBXASSET
360
1FA
  0
DICTIONARY
  5
1F7
330
EC
100
AcDbDictionary
280
     1
281
     1
  3
FBXASSET
360
1F8
  0
DICTIONARY
  5
173
330
EE
100
AcDbDictionary
280
     1
281
     1
  3
BUMPTILE
360
175
  3
DIFFUSETILE
360
174
  3
FBXASSET
360
1FB
  3
OPACITYTILE
360
176
  3
REFLECTIONTILE
360
177
  0
DICTIONARY
  5
162
330
7F
100
AcDbDictionary
280
     1
281
     1
  3
ACAD_ROUNDTRIP_2008_TABLESTYLE_CELLSTYLEMAP
360
7FE
  0
XRECORD
  5
1FA
102
{ACAD_REACTORS
330
1F9
102
}
330
1F9
100
AcDbXrecord
280
     1
 70
     1
 90
429727718
  1
D62C5603-E3A1-4AEA-B7FB-FE5D8D0755AF
310
504B03040A0000080000CC70623B3DEE336E79000000790000001B0000006175746F6465736B2D64657369676E2D7061636B6167652E786D6C3C3F786D6C2076657273696F6E3D22312E302220656E636F64696E673D227574662D3822203F3E3C666F726D6174733E3C666F726D61743E687474703A2F2F736368656D612E
310
6175746F6465736B2E636F6D2F64657369676E2D7061636B6167652F323030393C2F666F726D61743E3C2F666F726D6174733E504B0304140006080800CC70623BD486FD9CA0000000F4000000130000005B436F6E74656E745F54797065735D2E786D6C7D8EC10E82300C865F65E91D8A1E8C310C0EEA1BF002731658846E
310
D98AC1B77784ABF1D8FE5FBFBF75BBCE937A534CCEB38643598122B6FEE978D0B0485F9C41B54DDD7D022595594E1A469170414C76A4D9A4D207E29CF43ECE46F218070CC6BECC4078ACAA135ACF422C856C0E68EA1BF5669944DDD7BCDE7B1F8E415D77AECB980613C2E4AC91FC167A2B244592486606FC29C8FD7F045B9A
310
EF7053A7E60B504B0304140006080800CC70623B853B8169EB0000007C01000008000000636F72652E786D6C8D90416EC3201045AF62CDB6C206821CC7C244919D9CA01740401C94182C03558F5F9C3852BBEB6A467FFE9B197D7EFC9E1EC5975982F5AE035262288C535E5B377690E21535501C055FBC8FBF6C503839990E
310
5619041F179FE64D52DE45E362569DD7661365082642A11EB9E920A89B99642953CC8E702F67A9EE7234257977194EC9EAE275C4EABCCF5EAD5940D4AC6F0E35A568B8F43562CD7046CD199FD07E60174276A7BE677B5EADB0E0D14EEFFB6A31321A0D82627C4084204C3F096B71DD52F6819B16635EADF63F509AF53FA164
310
5DDCD1EDDD17164090FCC8732078B56691CB33A85CD7DCC40F504B0304140006080800CC70623B55019EA25F0000007C00000007000000636E782E786D6C4DCB3B0E80201045D1AD90E915ED2CF8AC45050C11660C8261F98AB1B07AC9C97D42D718D865D3E909258CFD00CCE24AC6E326A164D74DC0B4128928FF32603847
310
2BA13128B1252AC747C6BAB984FC68F0B87FE8960A5C09FE86CFB69FBA01504B0304140006080800CC70623BDBABAAF470010000D40300000C0000006662782F636F72652E786D6CC553D16E823014FD95A6AF4B694182CC941A83FA05FB810A9511A125A5257EFE2E82712ECEB8A7F100CD39F7F69E734AF9FADC366850B6
310
AF8DCE7018308C942E4C59EB2AC3DE1D498AD15A706B8CFB56869196ADCAF00863C12B6B7C374385D14E6907A836A59A41D9F7CA615434B0C8705F7CAA5606D23BA8E84F41278B93AC54100640439DE0BDB320004D43C63716C7C399D30917DCFBBA9CD9BA8469F5B156168B24CED3F7248AC8769F27244EB73B92EED8862C
310
B7F13E0C179B3C8F979C8ECD82BBBABDAA2BAC924E9558448CBD9330242CFA08E3154B5651FCC6D215639C8EE5774DBE2B5F6CF2B5768B68963BB5F5588420E442FC700B1139D4CB01F450C1E918227C2E09DF070D8140C84E1E9AAB8F1340832A9CB13130A5F1376A908D57309505ECF2A0DF179C4E9D30F5B239B87E3823
310
7A79C6F31DE1A8A5AEC08474B03C7837EAE4938639B44E5932B833D2C6B6B279CDC613877FA26EE21F4A2A4C63EC7F29A2F301D1F9F7A0E37D145F504B0304140006080800CC70623B9C113CC27E0000009D0000000B0000006662782F636E782E786D6C4DCCDF0A83201C86E15B91DFB94BFB330DD428C8FB886521330DA7
310
6397BF1A1DECE883878F57749FCDA1B7892F1BBC047A23808C7F84D9FA55424E0BE6803A256208E9EF06C84F9B91703228B1C690F78B66B34CD9A5439DF5CF0BFBF65E35BCA1B8D6A5C6F540381E886698B5741C695F9503EBA150A2F8958E3DC3EA0B504B0304140006080800CC70623B7DF2F77C2A010000120200003100
310
00006662782F41393633353835312D344632462D344230382D423046372D3739314545314133324237412F636F72652E786D6C8D51DB8EC22014FC15C2939B0D2DB4B45643319AE817EC0F6041255A68B86CFCFC856D4D76DF7CE190393373060EDB3DC707F856CE6B6B7A480A0C81328395DA5C7B18C3057510EC3873D686
310
3F34088C18550F330C39BB3A1BA7051AAC09CA84841A2BD5020AEF55806078A44B0FFD7053A328440C89E1EFC52486BBB8AA8214A99D789CF9E05200300FC927E4FB4D5B375D43103D5527440FB843077C5AA3F5861C8F645F5787F59E95B390B318B55CE45AA638FAA2957BD7248B390B7A7CC51F9C124149C82B8C378810
310
84AB2F42B7B8DD56F413775B8C5999E9FF4471926F8AA236A1AE96B8B3CC434E5839373893369E1FAF30EA395917409EB7F26AF8801C171837A4A6AC9C89E9F9C9B1A58BA30FD6A5EF5DDDCF894B9AD9B6A59C957943A9FCAE2FD5BC4DFE03504B0304140006080800CC70623BAD7543B64E01000033030000300000006662
310
782F41393633353835312D344632462D344230382D423046372D3739314545314133324237412F636E782E786D6CD593CD6EC32010845F0571AD6CE3D48AD20813A9873E410FBD12D82434182C7EAAE6EDBB2424CD25871E7B41D6EC30B3FA84F9E67BB2E40B4234DE8DB46F1925E094D7C6ED479AD3AE5951B2113C789FEE
310
6C943839C1488B4C05DF079FE72A69D8C96C13AAD6B8631503449F83828872B949AC57D26200B826A308D316B4064D6E46FCDA41C05550DC9E483A00797BFD207EFB092A45DE9514C1BBD22178396BD39D891265658C238DEA00936C654E5E433CB65A26D9F6EDB5EBC14EBF49A45CB856E66048291F6939A9A81BB5C89177
310
38143CA680F4AA299D66A042CEB3354A2684DC9D8D178FE0D9B8B41CAAD720F880EE7EF93C0C18769E099ECC04D5A102C8049A8A05632F4DDF376CF1DE0F6BB65C2F8627B65A33C6BB62177CEBBDAD973006829F89F22E814B54F4BC2BE347F8AA8F681390B50FA73F804400B5F542E796F19FF974E7F78DB802FE05E20750
310
4B0304140006080800CC70623BE75B7789680500003C100000340000006662782F41393633353835312D344632462D344230382D423046372D3739314545314133324237412F6F626A656374732E786D6CAD575B8F9B3818FD2B887D06C22499CB8AA1CA655245D5B455A356FB305264C061D8018C6C3393D95FBFC7600890
310
A4CD5EF210B0B1BFEBF98E3F7B1FF6596ABC522E1296DF9BAE3D320D9A872C4AF2F8DE2CE5CEBA358D0FBEC719939D65A691938CDE9B6ADAF4BD98B3B2D05311DD91329583D9D5FC0F438434A7A611A644887B5384CF34233629258BA878B12322891DEFF6B66BD70BFB62634E8AE781D082709A4B588AF91C528CDA28B73F
310
1C998EEF39EABBEFA97FBD6A7C7E9553F9D3D79FE442923C3C523610337627CB87ABE99D359D4CC6D6E4FACAB5E6ABF9D2726FC6A3C5F56271377BB88362213924694B38DD99FE47C48627A1E7D49F5A8BB5E1A74C0A599ED3B0F21F1E56366B89112D681E218F0915D0D6F17AD41FBA2A369DCF6335D62ABBD39779D5DDD1
310
11D4D8DE3CBB96B2E04FB8202E41051754A1AA8E8F76B4C6DFE810B580B1547F4B84911149794252234D024EF8BBE963A95AE27B3D310A9D5C215C7960FAEE415ED75694C6AFB17BCACA5D99A60A9AA65F217B0BFC53292ACB92BF283FAD0D3621576592CB5BED907C2FA8E9DF794E35E97BEA31BED21FEB401ABB94C44839
310
DCACBF0E1C5DA8DA5B2F4DFFD32AD86F543D9E565E7056502E157C00AD2671CD534549AB752FCA9CDA00677A313F04E51B22FF19E57B300579E3C97EB29F682D92935CEC18CF901B7B54FD8C51F362B56FC72FE0B3C1EAE335EDCCBF5AEC39ADB17DC238973F804BA5E6F6BFE7AF1FB32E523BE9F3BD571418E3631DCA4D48
310
5250CF639223210A9446CA30052EDF057BD35F8329C1ECD84552BF0DC8D18BE7BCE23BFE6BD960AB4A7DE79923A103BEBD80F911CBAA2C60DB19B01CF164A5583B772EE6D3FFA56666CBCDA74DC97724A48F9A58967497E489C4D979006FD7A05E227A1EBDD0F737C623387A9C844D3709995625106D157315F8B8392CD4E0
310
A0B9A720C4BE9829CEF37EA1E13111214D53925356365ADA634861B52519DD27A00AEB808EAF0628E6F435519D446F45CF2C9CF5214F0A15B2F6D06B79DA3EE3CBF7F56780D2F4E7EF73A0F5E5B02A38D07DC852C6B7C1FBB6664213E0C39E3EBA7FF4E1AD23EA2829407C85E586727488B751B2DB9502BC7B228A3FD68B6E
310
A65A22397E690AA8D158D7E404EC8CDA235CC3B7D1898680131CEC2CDF2638C65196279577750F15884AEE19F94199155B92B13297978469D4F8D358DF0AEF7631E28DC8F0D9F437D5D39A83B2231A1D52D543813A824EF8D44BCFF2FA6A31BD1E8DAD87F1CCB526B3879935BF59CDADD5C37479BB1CDD4CA7B3556B516589
310
EF352754B706114D9C885EC9131DE6EFEB43D99AFE2391C2F958179413D7CFEF6B1B6DB1E7600F00DE6E5C67454A339A4BA2E0FBA85ED26F045D454F463DBFCE484C2F90F2E5E3666003662ED8F755951A7D1BECD5B30B550B2785C8E7320B7292A4838DDA71BBC863ED7613CAF659337A3354231D4FF4A182A54904C2898C
310
98B28C4AD0CE056CCF332A80986E571EE9DBC305BB5FEB7E509220A58D25CF042D712A806AC0AD0C657FDEF80D2D9CEAA2EE4D1C76F60BFE74219A06527D6F82DF6412526107381E55E353090704D085B52408A8913C4ED159D79BDA71BB4BC506F4831350EB6F975CD22D69BF7AC49B91A2C0A9DDA3D5CA36AD20FC478E37
310
E61844E2352865EBCB61A275A65283CAAA9DD27703B4102F5AF51EF5F573B75CBB5AD38BC845F7A49F82A0966A49C2E3EA5EA0ECD326CD965F1DB402C6FA8B51A4658C5C5E2EC9E214602E55810345408596591009A82E7E7FFACA19EEA299B14A0081A705CB3296EBC14CDF658DCD336EA6D1136881AAEB87B81AB9EE53D5
310
F5EB8BC8362082DA24122F98680A4E7930C01A0079749CEA14382A0783E5EBA5A10F8C098456A03D6A4AEB6BB881E2513747552A5DB22C7EDAF83BD5528081A365F7FF06504B0304140006080000CC70623B000000000000000000000000350000006662782F41393633353835312D344632462D344230382D423046372D37
310
39314545314133324237412F76657274696365732E62696E504B0304140006080800CC70623BF270F1330600000004000000360000006662782F41393633353835312D344632462D344230382D423046372D3739314545314133324237412F747269616E676C65732E62696E636660600000504B0304140006080000CC7062
310
3B000000000000000000000000370000006662782F41393633353835312D344632462D344230382D423046372D3739314545314133324237412F617474726962757465732E62696E504B0304140006080800CC70623B08DA0BD19000000041010000360000006662782F41393633353835312D344632462D344230382D4230
310
46372D3739314545314133324237412F6469726563746F72792E786D6C858F410AC3201045AF22B36F53E9A60B35CBEEBAE80D244E44489C6234F4F835464A48035D0DF398FF9F8AF63D0E6CC63039F212F8F9020C7D47C6792B21C5FE7403D62A1188E2E60C98D7234A5830286103A55745067B9D86B8A3CF9C7F90C11DE6
310
07FB144396D7B6A82D282E9A152AD114D5EF2CB866EEE831B8EEA07A7BB5A8D7D61A2BAAEB7FD5F70921FF497D00504B0304140006080800CC70623BEDD1DC58FD000000A00100003B0000006662782F41393633353835312D344632462D344230382D423046372D3739314545314133324237412F7265736F75726365732F
310
636F72652E786D6C8D504B6E833010BD0A9A6D65B00922041947112427E8052C33A156828DFCA97AFC9A40A576D7CDCCE87D344F8F9FBFE667F689CE6B6B3A6039850C8DB2A336530731DC4903D95970676DF82583CCC8193B5861107C72362E3BA4AC096842428D1D7107A5F7182053CF7474E0D507CE32973124857FE48B
310
540F3961CEF244279DE03EB81420DB9EAC1384436FA353E879B1B182C7A8C75DA3C7F453DF353A1075D537A7BA6464B8F535A99AE14A9A2BBD90E350DD183B5CFABE3AF262350B1EF4FC9351399401471025A527C218A1E53BAB5A5AB765F5469B96525EACF23FA6B88CFF34456DC2A1DCE36E360F82A5202F42F062ED2BAD
310
579969AFDD8A6F504B010214000A0000080000CC70623B3DEE336E79000000790000001B00000000000000000000000000000000006175746F6465736B2D64657369676E2D7061636B6167652E786D6C504B01021400140006080800CC70623BD486FD9CA0000000F40000001300000000000000000000000000B20000005B
310
436F6E74656E745F54797065735D2E786D6C504B01021400140006080800CC70623B853B8169EB0000007C010000080000000000000000000000000083010000636F72652E786D6C504B01021400140006080800CC70623B55019EA25F0000007C000000070000000000000000000000000094020000636E782E786D6C504B
310
01021400140006080800CC70623BDBABAAF470010000D40300000C00000000000000000000000000180300006662782F636F72652E786D6C504B01021400140006080800CC70623B9C113CC27E0000009D0000000B00000000000000000000000000B20400006662782F636E782E786D6C504B01021400140006080800CC70
310
623B7DF2F77C2A010000120200003100000000000000000000000000590500006662782F41393633353835312D344632462D344230382D423046372D3739314545314133324237412F636F72652E786D6C504B01021400140006080800CC70623BAD7543B64E010000330300003000000000000000000000000000D2060000
310
6662782F41393633353835312D344632462D344230382D423046372D3739314545314133324237412F636E782E786D6C504B01021400140006080800CC70623BE75B7789680500003C10000034000000000000000000000000006E0800006662782F41393633353835312D344632462D344230382D423046372D3739314545
310
314133324237412F6F626A656374732E786D6C504B01021400140006080000CC70623B0000000000000000000000003500000000000000000000000000280E00006662782F41393633353835312D344632462D344230382D423046372D3739314545314133324237412F76657274696365732E62696E504B01021400140006
310
080800CC70623BF270F133060000000400000036000000000000000000000000007B0E00006662782F41393633353835312D344632462D344230382D423046372D3739314545314133324237412F747269616E676C65732E62696E504B01021400140006080000CC70623B0000000000000000000000003700000000000000
310
000000000000D50E00006662782F41393633353835312D344632462D344230382D423046372D3739314545314133324237412F617474726962757465732E62696E504B01021400140006080800CC70623B08DA0BD1900000004101000036000000000000000000000000002A0F00006662782F41393633353835312D344632
310
462D344230382D423046372D3739314545314133324237412F6469726563746F72792E786D6C504B01021400140006080800CC70623BEDD1DC58FD000000A00100003B000000000000000000000000000E1000006662782F41393633353835312D344632462D344230382D423046372D3739314545314133324237412F7265
310
736F75726365732F636F72652E786D6C504B0506000000000E000E0080040000641100000000
  0
XRECORD
  5
1F8
102
{ACAD_REACTORS
330
1F7
102
}
330
1F7
100
AcDbXrecord
280
     1
 70
     1
 90
429727718
  1
30362254-06B7-45E0-A893-8CFA70E3D6BC
310
504B03040A0000080000CC70623B3DEE336E79000000790000001B0000006175746F6465736B2D64657369676E2D7061636B6167652E786D6C3C3F786D6C2076657273696F6E3D22312E302220656E636F64696E673D227574662D3822203F3E3C666F726D6174733E3C666F726D61743E687474703A2F2F736368656D612E
310
6175746F6465736B2E636F6D2F64657369676E2D7061636B6167652F323030393C2F666F726D61743E3C2F666F726D6174733E504B0304140006080800CC70623BD486FD9CA0000000F4000000130000005B436F6E74656E745F54797065735D2E786D6C7D8EC10E82300C865F65E91D8A1E8C310C0EEA1BF002731658846E
310
D98AC1B77784ABF1D8FE5FBFBF75BBCE937A534CCEB38643598122B6FEE978D0B0485F9C41B54DDD7D022595594E1A469170414C76A4D9A4D207E29CF43ECE46F218070CC6BECC4078ACAA135ACF422C856C0E68EA1BF5669944DDD7BCDE7B1F8E415D77AECB980613C2E4AC91FC167A2B244592486606FC29C8FD7F045B9A
310
EF7053A7E60B504B0304140006080800CC70623B1EC5D7A3EB0000007C01000008000000636F72652E786D6C8D90416EC3201045AF82665B6103C6756C6122AB4D4ED00B204C5C94182C03558F5F9C3852BBEB6A467FFE9B197D71FC9E6FE8CBACC17AD7032D0820E3B41FAD9B7A48F1820F808E52ACDEC75F36404ECDA687
310
4D0629A6D5A76597B477D1B89855E747B38B2A041301E95B6E7A08FAD3CCAA50296647B8168BD2573599823EBB0CA76447F43862C7BCCF5EAC59410E4DDD9C7973C2755553CCCFA4C603E3040F1565ED3B1FDE4E432BCA0D9622DAF9795FAF464533826484B498524CD807E51D79ED187F21878E10516EF63F505AC67F42C9
310
BA58B1FDDD071640D2FCC87D2045B96591CB3DA85CB7DCE40F504B0304140006080800CC70623B55019EA25F0000007C00000007000000636E782E786D6C4DCB3B0E80201045D1AD90E915ED2CF8AC45050C11660C8261F98AB1B07AC9C97D42D718D865D3E909258CFD00CCE24AC6E326A164D74DC0B4128928FF32603847
310
2BA13128B1252AC747C6BAB984FC68F0B87FE8960A5C09FE86CFB69FBA01504B0304140006080800CC70623B8C9102E971010000D40300000C0000006662782F636F72652E786D6CC5535B6E833010BC8AE5DF0A6C08340F1947A84D4ED00B38C6A128602363A31CBFCB234A53A551FA553EC09AD9F5CE8C31DB9E9B1AF5CA
310
7695D1198E428A91D2D214952E33ECDD315861B4E5CC1AE3BE9561A445A3323CC098B3D21ADFCE9034DA29ED00D5A6503328BA4E398C640D8B0C77F253352214DE4145770A5B214FA2546114020D759C75CE8200340D19DE981F0F6746269C33EFAB6266AB02A655C74A59CCF365BADC27CB5D902ED22848F6340DF238A141
310
BE88E2F57B92BFEDF23523433367AE6A2EEAA455C2A902F398D2751045018D3FA264435F3771F242571B4A1919CA6F9A7C5B3CD9E42BED16F12C776AEB308F40C848FC700B1139D4891EF410CEC810227CC6846F8386402064270EF5C5C709A05E49676C024C61FC95EA45ED154CA5211D1FF4FB8291A913A68E9B83EBBB33
310
E2A7673CDE118E5AE8124C0807CB8377834E366998436B950D7A7746DAD846D4CFD978E0F04FD455FC5D49D2D4C6FE9722321F10997F0F32DC47FE05504B0304140006080800CC70623BFFEA85907E0000009D0000000B0000006662782F636E782E786D6C4DCCD10A83201886E15B91FFDC95D95A811AB6F23E625948A6C3
310
E9D8E5AF46073BFAE0E1E365ED67B3E8ADC3CB78C7815C7240DA3DFC64DCC221C519D7805AC182F7F1EF06C88D9BE6703008B6049F9E274D7A1E938DBB5AE3D6131B2589BA0D3D965551E0B2EA732C9B9A624AAEB41E3A557677029960D9AFB4EF11165F504B0304140006080800CC70623B4FEEA4082C0100001202000031
310
0000006662782F39464131463745442D413632322D343644302D413938332D3331353338454246344243312F636F72652E786D6C8D515B6EC32010BC0AE2AB55850DD871ED0813254D72825EC00192A2C460F1A872FC42ED48ED5F7E00CDCECCCEB26C731F6FE05B39AFADE921293004CA082BB5B9F43086336A21D870E6AC
310
0D7F68109861543DCC30E4ECE26C9C164858139409093556AA051CBC570102714B8F1E7AF1A5C6A11862480C7F2DA6415C878B2A4891CA89C7990F2E050073937C42DE1DB7E4F87ED8A36D4329AA9B3D46DBAEAD504556557BD81DEBDD0761E52CE42C462D17B996298E3E6BE59E35C962CE821E1FF18553435012728A7187
310
0841987E927A8D9B35ADDF70BBC6989599FE4F1427F9A4286A132ABAC49D651EF234CD5CE04CDA78BA3DC2A8FB645D00B9DF8B57E215725C60BCA2A463E54C4CE327C7A65E1C7DB02E7DEFCBF594B864C5CA6CDBD49C957943E9FA5D5FBAF336F90F504B0304140006080800CC70623BAD7543B64E01000033030000300000
310
006662782F39464131463745442D413632322D343644302D413938332D3331353338454246344243312F636E782E786D6CD593CD6EC32010845F0571AD6CE3D48AD20813A9873E410FBD12D82434182C7EAAE6EDBB2424CD25871E7B41D6EC30B3FA84F9E67BB2E40B4234DE8DB46F1925E094D7C6ED479AD3AE5951B2113C
310
789FEE6C943839C1488B4C05DF079FE72A69D8C96C13AAD6B8631503449F83828872B949AC57D26200B826A308D316B4064D6E46FCDA41C05550DC9E483A00797BFD207EFB092A45DE9514C1BBD22178396BD39D891265658C238DEA00936C654E5E433CB65A26D9F6EDB5EBC14EBF49A45CB856E66048291F6939A9A81BB5
310
C8917738143CA680F4AA299D66A042CEB3354A2684DC9D8D178FE0D9B8B41CAAD720F880EE7EF93C0C18769E099ECC04D5A102C8049A8A05632F4DDF376CF1DE0F6BB65C2F8627B65A33C6BB62177CEBBDAD973006829F89F22E814B54F4BC2BE347F8AA8F681390B50FA73F804400B5F542E796F19FF974E7F78DB802FE05
310
E207504B0304140006080800CC70623B16AB87BA640500003C100000340000006662782F39464131463745442D413632322D343644302D413938332D3331353338454246344243312F6F626A656374732E786D6CAD575B6FA33818FD2B887DE6924B3BED8A326A92B68A663B534DD4D13E548A0C38942D60649B369D5FBFC7
310
600890A493BDE42160637FD7F31D7FF63E6FB3D478A55C242CBF3247B66B1A340F5994E4F19559CA8D75611A9F7D8F33263BCB4C232719BD32D5B4E97B316765A1A722BA21652A07B3B7B33F0D11D29C9A46981221AE4C113ED38CD8A4942CA2E2C58E882476BCD9DA23BB5ED8171B73523C0F841684D35CC252CCE79062D4
310
468DFA43D7747CCF51DF7D4FFDEB5593E3AB9CCA9FBEFE241792E4E19EB28198C968BAB8199F5D5A67D3E9C49A9E8F47D6EC76B6B0469F26EEFC7C3EBFBCBEB98462213924694B38DD98FE1D62C393D073EA4FADC5DAF04326852CCF6958F90F0F2B9BB5C48816348F90C7840A68EB78EDF68723159BCEE7891A6B95DDE9D3
310
BCEAEEE8086A6C6F9E5D4B59F0175C10A7A0820BAA5055C7473B5AE3CFDD452D602CD5DF12616444529E90D448938013FE6EFA58AA96F85E4F8C42275708571E98FE6827AF6B2B4AE3D7D83D64E5A64C53054DD3AF90BD06FEA9149565C94FCA0F6B834DC85599E4F2423B24DF0B6AFA979E534DFA9E7A4CC6FA631D486393
310
921829879BF5D781A373557BCB85E97FB90DB62B558F8795179C15944B051F40AB495CF35451D26A4727654E6D8033BD98EF82F21D91FF8AF2DD9982BCF1643BDD4EB516C9492E368C67C88DED563FC36D5EACF66DFF057C3658BDBFA69DF9578B3DA735B64F18C7F20770A9D45CFCF7FCF563D6456A277DBEF78A02637CA2
310
43B90A490AEAB94F72244481D24819A6C0E59B606BFA4B3025981DBB48EAB701D97BF19C577CC77F2D1B6C55A9EF3C732474C0B727303F625995056C3B02963D9EAC146BE78EC5FCEC7FA999EBC5EACBAAE41B12D27B4D2C0BBA49F244E2ECDC81B76B502F113D8F5EE8FB1BE3111CDD4FC2AA9B844CAB1288B68AB90A7CDC
310
1C166AB0D3DC5310625FCC14E779BFD0709F8890A629C9292B1B2DED31A4B0DA928CEE135085754027E3018A397D4D5427D15BD1330B677DC8934285AC3DF45A9EB68FF8F2B8FC0A509AFEECFD0FF2DE25CC6047F7214B195F07EFEB9A094D800F7BFAE8FED187B78EA8A3A400F115961BCAD1215E47C966530AF0EE8128FE
310
58CEBB996A8964FFA529A046635D9353B0336A8F700DDF46271A024E70B0B37C9DE01847591E54DED53D54202AB947E4076556AC49C6CA5C9E1226B7F1A7B1BE15DEED62C41B91E1B3E9AFAAA735036547343A925075041DF0A9979E893B391F8FCFA6967B3EFB644DCF6E5CEBFAE272625DCC6FAF3FB93793C5F90CE1EF57
310
407342756B10D1C489E8953CD1617E5CEECAD6F4EF8914CE5D5D504E5C3F1F9736DA62CFC11E00BCDDB8CC8A9466349744C1F75EBDA4DF09BA8A9E8C7A7E9991989E20E5DBDD6A6003664ED8F7A04A8DBE0DF6EAD9B9AA858342E47399053949D2C146EDB85DE4B176BB0965FBAC19BD19AA918E27FA50C1D22402E144464C
310
59462568E704B6E71915404CB72B8FF4EDE184DDAF753F284990D2C6926782963815403548A70C657FDEF80D2D9CEAA2AE4C1C76F60BFE74219A06527D6582DF6412526107381E55E353090704D085B52408D0933C4ED159D79BDA71BB4BC506F4831350EB6F979CD22D69BF7AC49B91A2C0A9DDA3D5CA36AD20FC478E37E6
310
1844E2352865EBCB6EA275A652E3836BE04EFB400BF1A2556F515F1FBB35B2AB35BD889C744FFA1004B5544B121E57F70215746DD2F5E2C1412B602CBF19455AC6C8E5E9922C4E01E65215385004546899059180EAFCF7A707CE7017CD8CDB0410789AB32C63B91E5CEBBBACB17AC6CD347A022D5075FD106377347AAABA7E
310
7D11590744509B44E205134DC1290F06580320F78E537D3D73540E06CB970B431F185308AD40BBD794D6D77003C5A36E8EAA54BA64597CD8F83BD552A080A365F7FF06504B0304140006080000CC70623B000000000000000000000000350000006662782F39464131463745442D413632322D343644302D413938332D3331
310
353338454246344243312F76657274696365732E62696E504B0304140006080800CC70623BF270F1330600000004000000360000006662782F39464131463745442D413632322D343644302D413938332D3331353338454246344243312F747269616E676C65732E62696E636660600000504B0304140006080000CC70623B
310
000000000000000000000000370000006662782F39464131463745442D413632322D343644302D413938332D3331353338454246344243312F617474726962757465732E62696E504B0304140006080800CC70623B08DA0BD19000000041010000360000006662782F39464131463745442D413632322D343644302D413938
310
332D3331353338454246344243312F6469726563746F72792E786D6C858F410AC3201045AF22B36F53E9A60B35CBEEBAE80D244E44489C6234F4F835464A48035D0DF398FF9F8AF63D0E6CC63039F212F8F9020C7D47C6792B21C5FE7403D62A1188E2E60C98D7234A5830286103A55745067B9D86B8A3CF9C7F90C11DE607
310
FB144396D7B6A82D282E9A152AD114D5EF2CB866EEE831B8EEA07A7BB5A8D7D61A2BAAEB7FD5F70921FF497D00504B0304140006080800CC70623B0D6EF93BFE000000A00100003B0000006662782F39464131463745442D413632322D343644302D413938332D3331353338454246344243312F7265736F75726365732F63
310
6F72652E786D6C8D50596E833010BD0A9ADFCA60B334011947A8694ED00B586642AC041B79A97AFC9A40A5F6AF3F33A3B7689E1E3F7DCD8FEC139DD7D6F4C0720A191A65476DA61E62B892236427C19DB5E1970C322367EC618541F0C9D9B8EC90B226A009093576C41D94DE63804C3DD2D18357379C652E63480A7FCF17A9
310
EE72C29CE5894E3AC17D702940B63D59270887DE46A7D0F36263058F518FBB468FE9A7BE6A7420864373B8D4873369AA8691FA421B3294352543C5CAF65C0F6FEF43CB8BD52C78D0F34F46E550061C419494B6843142CB0F5677F4B52BEB177AEC28E5C52AFF638ACBF84F53D42654E51E77B379102C05791282176B5F693D
310
CB4C7BED567C03504B010214000A0000080000CC70623B3DEE336E79000000790000001B00000000000000000000000000000000006175746F6465736B2D64657369676E2D7061636B6167652E786D6C504B01021400140006080800CC70623BD486FD9CA0000000F40000001300000000000000000000000000B20000005B
310
436F6E74656E745F54797065735D2E786D6C504B01021400140006080800CC70623B1EC5D7A3EB0000007C010000080000000000000000000000000083010000636F72652E786D6C504B01021400140006080800CC70623B55019EA25F0000007C000000070000000000000000000000000094020000636E782E786D6C504B
310
01021400140006080800CC70623B8C9102E971010000D40300000C00000000000000000000000000180300006662782F636F72652E786D6C504B01021400140006080800CC70623BFFEA85907E0000009D0000000B00000000000000000000000000B30400006662782F636E782E786D6C504B01021400140006080800CC70
310
623B4FEEA4082C0100001202000031000000000000000000000000005A0500006662782F39464131463745442D413632322D343644302D413938332D3331353338454246344243312F636F72652E786D6C504B01021400140006080800CC70623BAD7543B64E010000330300003000000000000000000000000000D5060000
310
6662782F39464131463745442D413632322D343644302D413938332D3331353338454246344243312F636E782E786D6C504B01021400140006080800CC70623B16AB87BA640500003C1000003400000000000000000000000000710800006662782F39464131463745442D413632322D343644302D413938332D3331353338
310
454246344243312F6F626A656374732E786D6C504B01021400140006080000CC70623B0000000000000000000000003500000000000000000000000000270E00006662782F39464131463745442D413632322D343644302D413938332D3331353338454246344243312F76657274696365732E62696E504B01021400140006
310
080800CC70623BF270F133060000000400000036000000000000000000000000007A0E00006662782F39464131463745442D413632322D343644302D413938332D3331353338454246344243312F747269616E676C65732E62696E504B01021400140006080000CC70623B0000000000000000000000003700000000000000
310
000000000000D40E00006662782F39464131463745442D413632322D343644302D413938332D3331353338454246344243312F617474726962757465732E62696E504B01021400140006080800CC70623B08DA0BD190000000410100003600000000000000000000000000290F00006662782F39464131463745442D413632
310
322D343644302D413938332D3331353338454246344243312F6469726563746F72792E786D6C504B01021400140006080800CC70623B0D6EF93BFE000000A00100003B000000000000000000000000000D1000006662782F39464131463745442D413632322D343644302D413938332D3331353338454246344243312F7265
310
736F75726365732F636F72652E786D6C504B0506000000000E000E0080040000641100000000
  0
XRECORD
  5
175
102
{ACAD_REACTORS
330
173
102
}
330
173
100
AcDbXrecord
280
     1
270
     1
271
     1
  0
XRECORD
  5
174
102
{ACAD_REACTORS
330
173
102
}
330
173
100
AcDbXrecord
280
     1
270
     1
271
     1
  0
XRECORD
  5
1FB
102
{ACAD_REACTORS
330
173
102
}
330
173
100
AcDbXrecord
280
     1
 70
     0
 90
1673772943
  1
ECE7A1D2-D628-4531-984C-D00F80459256
310
504B03040A0000080000CC70623B3DEE336E79000000790000001B0000006175746F6465736B2D64657369676E2D7061636B6167652E786D6C3C3F786D6C2076657273696F6E3D22312E302220656E636F64696E673D227574662D3822203F3E3C666F726D6174733E3C666F726D61743E687474703A2F2F736368656D612E
310
6175746F6465736B2E636F6D2F64657369676E2D7061636B6167652F323030393C2F666F726D61743E3C2F666F726D6174733E504B0304140006080800CC70623BD486FD9CA0000000F4000000130000005B436F6E74656E745F54797065735D2E786D6C7D8EC10E82300C865F65E91D8A1E8C310C0EEA1BF002731658846E
310
D98AC1B77784ABF1D8FE5FBFBF75BBCE937A534CCEB38643598122B6FEE978D0B0485F9C41B54DDD7D022595594E1A469170414C76A4D9A4D207E29CF43ECE46F218070CC6BECC4078ACAA135ACF422C856C0E68EA1BF5669944DDD7BCDE7B1F8E415D77AECB980613C2E4AC91FC167A2B244592486606FC29C8FD7F045B9A
310
EF7053A7E60B504B0304140006080800CC70623BD9DDAED0EC0000007C01000008000000636F72652E786D6C8D90416EC3201045AF82665B61836D9CD8C2444DD39CA01740405C94182C03558F5F9C3852BBEB6A467FFE9B197D7EF89E6EE8CB2CC17A37002D0820E394D7D68D03A478C17B4007C117EFE32F1B20272733C0
310
2A83E0E3E2D3BC49CABB685CCCAAF3DA6CA20CC14440EA969B0182FA34932C648AD911AEC52CD5558EA6A0CF2EC329598D1E47ACCEFBECC59A050463A7EA5833865FEBDD0E37353BE3EE8DBDE3F6786A48D375FBF6CC78B9C282473B3DEFABC5C86834888A900E538A49F5419B9EB47DD5BC907D4F082F57FB1F28CDFA9F50
310
B22ED6D5F6EE030B20687EE43E10BC5CB3C8E51E54AE6B6EE207504B0304140006080800CC70623B55019EA25F0000007C00000007000000636E782E786D6C4DCB3B0E80201045D1AD90E915ED2CF8AC45050C11660C8261F98AB1B07AC9C97D42D718D865D3E909258CFD00CCE24AC6E326A164D74DC0B4128928FF326038
310
472BA13128B1252AC747C6BAB984FC68F0B87FE8960A5C09FE86CFB69FBA01504B0304140006080800CC70623BA24EB22D72010000D40300000C0000006662782F636F72652E786D6CC5535B6E833010BC8AE5DF0A6C5E49888CA3A6694ED00B38E05014B091B1518EDFE511A5A9D228FD2A1F60CDEC7A67C6986DCE4D8D7A
310
69BA4AAB0C073EC548AA5C17952A33ECECD15B61B4E1CC686DBF9561A44423333CC098B3D268D7CE50AE9595CA02AA74216750749DB418E5352C32DCE59FB211BE70162ABA93DF8AFC244AE9073ED050C759670D0840D390E18DF9F1706664C23973AE2A66B62A605A75ACA4C13C4976E1364A12EF355A2EBD384AF65EFA96
310
BC7B8BED2EA6719AAE16FB8491A199335B351775B991C2CA02F390D2D40B028F861F41BCA68B7518BFD0D59A524686F29B26D7164F36B94AD9289CE54E6D1DE6010819891F6E21228B3AD1831EC219194284CF98F06DD01008846CC5A1BEF83801D4CBDC6A1303536877A57A513B0953A94FC707FDBE6064EA84A9E3E6E0FA
310
EE8CF0E9198F7784A316AA0413C2C2F2E0ECA0934D1AE6D05A69BCDE9E91D2A611F573361E38FC1375157F5752AE6B6DFE4B11990F88CCBF0719EE23FF02504B0304140006080800CC70623B408A7D3B7C0000009D0000000B0000006662782F636E782E786D6C4DCCD10A83201886E15B91FFDC552A92A0064DBC8F581632
310
D3703A76F9ABD1C18E3E78F878E5F0D9027ABBFCF2292AE86E2D20171F69F6715550CB827B40839639A5F2770314A7CD293819B45C73AAFB45B35BA61ACAA1C1C7E7855C58C15BC331339661262CC762340413D68D77DA5B42298546CBE6573AF60CEB2F504B0304140006080800CC70623B449FB9BD290100001202000031
310
0000006662782F36394639363044362D344446342D343946362D394244322D3234314243333846323333332F636F72652E786D6C8D515B6EC32010BC0AE22B55850D98B871848994463E412FE002495162B07854397EA176A4F62F3F2C9A9D991D587EB84F37F0AD7D30CEF6905418026DA553C65E7A98E219ED203808EE9D
310
8B7F6810D871D23D2C3014FCE25D9A57483A1BB58D19B54EE9151C43D0110279CB971E06F9A5A7B11A53CC8C70ADE6515EC78BAE4895DB992778883E0700CB907242D17643D7E2538BD869608875438BBAE38922CAC8F1BDD90DB4691A5E2F42C153326A951B95E398B3D1FE599322163C9AE9115F7A3D46ADA0A018778810
310
84E907617BDCEE297BC5BB3DC6BC2EF47FA234AB2745C9D8D8D035EE220B50105E2F0DC1954B9FB747187D9F9D8FA0CCDB042D5FA0C015C65B42DF78BD10F3F3B363CB56C7109DCFDFBBB97E662ED92EB62D13BC2E1BCAE5777DB9966D8A1F504B0304140006080800CC70623BAD7543B64E01000033030000300000006662
310
782F36394639363044362D344446342D343946362D394244322D3234314243333846323333332F636E782E786D6CD593CD6EC32010845F0571AD6CE3D48AD20813A9873E410FBD12D82434182C7EAAE6EDBB2424CD25871E7B41D6EC30B3FA84F9E67BB2E40B4234DE8DB46F1925E094D7C6ED479AD3AE5951B2113C789FEE
310
6C943839C1488B4C05DF079FE72A69D8C96C13AAD6B8631503449F83828872B949AC57D26200B826A308D316B4064D6E46FCDA41C05550DC9E483A00797BFD207EFB092A45DE9514C1BBD22178396BD39D891265658C238DEA00936C654E5E433CB65A26D9F6EDB5EBC14EBF49A45CB856E66048291F6939A9A81BB5C89177
310
38143CA680F4AA299D66A042CEB3354A2684DC9D8D178FE0D9B8B41CAAD720F880EE7EF93C0C18769E099ECC04D5A102C8049A8A05632F4DDF376CF1DE0F6BB65C2F8627B65A33C6BB62177CEBBDAD973006829F89F22E814B54F4BC2BE347F8AA8F681390B50FA73F804400B5F542E796F19FF974E7F78DB802FE05E20750
310
4B0304140006080800CC70623B8D05915C650500003B100000340000006662782F36394639363044362D344446342D343946362D394244322D3234314243333846323333332F6F626A656374732E786D6CAD575B6FA33814FE2B887D06429276DA1565D4266D158D3A339A6846FB502932E050B66023DB74D2FDF5FB190C01
310
9276B2973C046C8ECFF53B17071F77456EBD502133CEAE6CDF9DD81665314F32965ED995DA3A17B6F5310C04E7AA47665B8C14F4CAD6DB7618A48257A5D94AE89654B91AEDDEDDFC61C998326A5B714EA4BCB265FC440BE2924AF184CA6737218AB8E976E7FA6E4338649B0A523E8D98964450A6A029F619B8588D52FE7039
310
B1BD30F0F4F730D0FF866AF6369557DB33949F31A9088B0F848DD8CCFCF9F2767A76E99CCDE733677E3EF59D9BBB9BA5E37F984D16E78BC5E5F5ED25044B25C0C96822E8D60EEFE11B91C581D77CEA34368A1F5329E68CD1B8B61F16D63A1B8E092D294B10C78C4A48EB593D192E7DED9BDEE7995E1B91FDEDD3ACEA9FE831
310
6A756F9F7D4D79F4274C90A7A04248AA51D5F8C718DAE06FB2F75AC4796EBE65D22A88A22223B995679120E2D50E41AA49C260C046A35368846B0BECD0DFF3EBEB8AD4F835768F69B9ADF25C43D30E6B646F807FAA64AD59F61715C7A54127C4AACA98BA3006A9D792DAE165E0D59B61A01FB3A9F9D838D2DAE62445C86166
310
F37564E842E7DE6A69879FEEA2DD5AE7E371E1A5E025154AC307D06A03D73EB5978C58FFA4C8E9033066E0F3BD53BEC1F39F91BE7B55103791EDE6BBB991A2046172CB4581D8B893FA674DDA17A77B3B7C413D1B511FD2743BFF8A38F03A658705E3ADF8015C3A3417FF3D7E439FF591DA0B5F18BC20C1B8981957AE6392A3
310
F43C640C01D1A0B4728E2DD4F26DB4B3C3152A252A3B4E913CEC1C72F012782FF88EFF8637AA552DBEF76408E8A8DE9E50F9E1CB3A2DA0DB1B6039A893B56063DC5B3E3FFB5F72E67AB9FEB4AEC496C4F4C1149625DD662C53E89D7BF0F6151A046260D1337DFDC94502430F83B0EE07A130A224BCAD7DAE1D9FB6CD422FF6
310
920702629C4BB9AE79C12F243C6432A6794E18E5552BA56B431AAB5D91317302B2B071E86C3A42B1A02F999E24061403B5D0EB639195DA655DD3EBEAB4FB862DDF579F014AD0E73C22F99E28DA57FB98E75C6CA2D74D53086D600F4786E0FE3144B771A8A7B900F03594DB8A633CBC49B2EDB69228BB479CF863B5E807AAAB
310
23872F6DFEB4129B949CA33823F58830E86D65621E10047D9DB34D862E8EAC3C2ABC2F7B2C40D67CDFE01F5545B92105AF983AC54D93D69E56FB8E797F88913F898A9FEC705D3F9D1B54EC8426FB500D40A03BD0119B06E1B95DDC7EB8F6975367793EBD70E66733DFB9BC982F9CE564727731999F5D4ECFCE3B8D6A4DC2A0
310
6D50FD148437D110834A64C6CDDF57FBACB5C307A2A477DFE4939736CFEF2B175371E0E10CF0DD1D5C15654E0BCA14D1E87DD02FF93782A162C0A3D95F1524A52770F972BF1EE9809D13CE7DD599467F8ECE9ADD85CE85A34CD45355448C64F9E8A031DC2D596ACC6E5DD93D9B82DE2EF5CAF81363A8E47996A0DE24564A79
310
4115AACE09C55E14540231FDA13C319787134EBF34E3A022514E5B4D9E0826E25C02D5805B15ABE1BEF51B26383D445DD9E875EE33FE4C22DA16427D65A3BCA92CA6D28DD01DF5DC53330704308475351050232CCD31583787BA75774AFB06E5070DD0C8EF484E19968C5D83BA5B90B244D31E54D55A372320FE4786B7EA58
310
44E135AA5467CB7EA333A61683CC6A8C3257034C10CF46F40EF9F5BE59BE5BD30C3C72D235E95D10345C1D45445A5F0BB47E46A5EBE5570F9380B5FA629579952296A773720405982B9DE04011506178964401AA8BDF1FBF0A8EAB6861DD6580C0E38217056766716DAEB2D6FA0917D3E4116581EADB879C4E7CFFB11EFACD
310
3D641311495D92C8676CB409A72D18610D803CE8A626049E8EC1887CB5B44CC39883690DDA8399B4B9855B481E7D71D4A9D22F96E5BB73BF5793020C02137BF837504B0304140006080000CC70623B000000000000000000000000350000006662782F36394639363044362D344446342D343946362D394244322D32343142
310
43333846323333332F76657274696365732E62696E504B0304140006080800CC70623BF270F1330600000004000000360000006662782F36394639363044362D344446342D343946362D394244322D3234314243333846323333332F747269616E676C65732E62696E636660600000504B0304140006080000CC70623B0000
310
00000000000000000000370000006662782F36394639363044362D344446342D343946362D394244322D3234314243333846323333332F617474726962757465732E62696E504B0304140006080800CC70623B08DA0BD19000000041010000360000006662782F36394639363044362D344446342D343946362D394244322D
310
3234314243333846323333332F6469726563746F72792E786D6C858F410AC3201045AF22B36F53E9A60B35CBEEBAE80D244E44489C6234F4F835464A48035D0DF398FF9F8AF63D0E6CC63039F212F8F9020C7D47C6792B21C5FE7403D62A1188E2E60C98D7234A5830286103A55745067B9D86B8A3CF9C7F90C11DE607FB14
310
4396D7B6A82D282E9A152AD114D5EF2CB866EEE831B8EEA07A7BB5A8D7D61A2BAAEB7FD5F70921FF497D00504B0304140006080800CC70623BCA768048FE000000A00100003B0000006662782F36394639363044362D344446342D343946362D394244322D3234314243333846323333332F7265736F75726365732F636F72
310
652E786D6C8D50596E833010BD0A9ADFCA60D600328E9AA639412F609909B1126CE4A5EAF16B0295DABFFECC8CDEA2797AECF8353F924FB44E193D409E5248504B332A3D0D10FC95B4901C39B3C6F85F3248B49871801506CE266BC2B243D2688FDA47549B11775038871E12F988C7004EDE7016A9083E2ADC3D5D84BC8B09
310
D33C8D74D471E6BC8D0192EDC93A815B742658898E651BCB59086ADC356A8C3FD555A1055ED7E7E254D615792D0F075295F585746FF53B694EE78A565DD736979A65AB9933AFE69F8CD2A2F038022F28ED489E135A7CE4554F9BBEA85E68DB53CAB255FEC71496F19FA6A0B42F8B3DEE6673C0F318E4497096AD7DC5F52C33
310
EEB55BFE0D504B010214000A0000080000CC70623B3DEE336E79000000790000001B00000000000000000000000000000000006175746F6465736B2D64657369676E2D7061636B6167652E786D6C504B01021400140006080800CC70623BD486FD9CA0000000F40000001300000000000000000000000000B20000005B436F
310
6E74656E745F54797065735D2E786D6C504B01021400140006080800CC70623BD9DDAED0EC0000007C010000080000000000000000000000000083010000636F72652E786D6C504B01021400140006080800CC70623B55019EA25F0000007C000000070000000000000000000000000095020000636E782E786D6C504B0102
310
1400140006080800CC70623BA24EB22D72010000D40300000C00000000000000000000000000190300006662782F636F72652E786D6C504B01021400140006080800CC70623B408A7D3B7C0000009D0000000B00000000000000000000000000B50400006662782F636E782E786D6C504B01021400140006080800CC70623B
310
449FB9BD290100001202000031000000000000000000000000005A0500006662782F36394639363044362D344446342D343946362D394244322D3234314243333846323333332F636F72652E786D6C504B01021400140006080800CC70623BAD7543B64E010000330300003000000000000000000000000000D20600006662
310
782F36394639363044362D344446342D343946362D394244322D3234314243333846323333332F636E782E786D6C504B01021400140006080800CC70623B8D05915C650500003B10000034000000000000000000000000006E0800006662782F36394639363044362D344446342D343946362D394244322D32343142433338
310
46323333332F6F626A656374732E786D6C504B01021400140006080000CC70623B0000000000000000000000003500000000000000000000000000250E00006662782F36394639363044362D344446342D343946362D394244322D3234314243333846323333332F76657274696365732E62696E504B010214001400060808
310
00CC70623BF270F13306000000040000003600000000000000000000000000780E00006662782F36394639363044362D344446342D343946362D394244322D3234314243333846323333332F747269616E676C65732E62696E504B01021400140006080000CC70623B00000000000000000000000037000000000000000000
310
00000000D20E00006662782F36394639363044362D344446342D343946362D394244322D3234314243333846323333332F617474726962757465732E62696E504B01021400140006080800CC70623B08DA0BD190000000410100003600000000000000000000000000270F00006662782F36394639363044362D344446342D
310
343946362D394244322D3234314243333846323333332F6469726563746F72792E786D6C504B01021400140006080800CC70623BCA768048FE000000A00100003B000000000000000000000000000B1000006662782F36394639363044362D344446342D343946362D394244322D3234314243333846323333332F7265736F
310
75726365732F636F72652E786D6C504B0506000000000E000E0080040000621100000000
  0
XRECORD
  5
176
102
{ACAD_REACTORS
330
173
102
}
330
173
100
AcDbXrecord
280
     1
270
     1
271
     1
  0
XRECORD
  5
177
102
{ACAD_REACTORS
330
173
102
}
330
173
100
AcDbXrecord
280
     1
270
     1
271
     1
  0
CELLSTYLEMAP
  5
7FE
102
{ACAD_REACTORS
330
162
102
}
330
162
100
AcDbCellStyleMap
 90
        3
300
CELLSTYLE
  1
TABLEFORMAT_BEGIN
 90
        5
170
     1
 91
        0
 92
    32768
 62
   257
 93
        1
300
CONTENTFORMAT
  1
CONTENTFORMAT_BEGIN
 90
        0
 91
        0
 92
      512
 93
        0
300

 40
0.0
140
1.0
 94
        5
 62
     0
340
11
144
6.0
309
CONTENTFORMAT_END
171
     1
301
MARGIN
  1
CELLMARGIN_BEGIN
 40
1.5
 40
1.5
 40
1.5
 40
1.5
 40
4.5
 40
4.5
309
CELLMARGIN_END
 94
        6
 95
        1
302
GRIDFORMAT
  1
GRIDFORMAT_BEGIN
 90
        0
 91
        1
 62
     0
 92
       -2
340
14
 93
        0
 40
1.125
309
GRIDFORMAT_END
 95
        2
302
GRIDFORMAT
  1
GRIDFORMAT_BEGIN
 90
        0
 91
        1
 62
     0
 92
       -2
340
14
 93
        0
 40
1.125
309
GRIDFORMAT_END
 95
        4
302
GRIDFORMAT
  1
GRIDFORMAT_BEGIN
 90
        0
 91
        1
 62
     0
 92
       -2
340
14
 93
        0
 40
1.125
309
GRIDFORMAT_END
 95
        8
302
GRIDFORMAT
  1
GRIDFORMAT_BEGIN
 90
        0
 91
        1
 62
     0
 92
       -2
340
14
 93
        0
 40
1.125
309
GRIDFORMAT_END
 95
       16
302
GRIDFORMAT
  1
GRIDFORMAT_BEGIN
 90
        0
 91
        1
 62
     0
 92
       -2
340
14
 93
        0
 40
1.125
309
GRIDFORMAT_END
 95
       32
302
GRIDFORMAT
  1
GRIDFORMAT_BEGIN
 90
        0
 91
        1
 62
     0
 92
       -2
340
14
 93
        0
 40
1.125
309
GRIDFORMAT_END
309
TABLEFORMAT_END
  1
CELLSTYLE_BEGIN
 90
        1
 91
        1
300
_TITLE
309
CELLSTYLE_END
300
CELLSTYLE
  1
TABLEFORMAT_BEGIN
 90
        5
170
     1
 91
        0
 92
        0
 62
   257
 93
        1
300
CONTENTFORMAT
  1
CONTENTFORMAT_BEGIN
 90
        0
 91
        0
 92
      512
 93
        0
300

 40
0.0
140
1.0
 94
        5
 62
     0
340
11
144
4.5
309
CONTENTFORMAT_END
171
     1
301
MARGIN
  1
CELLMARGIN_BEGIN
 40
1.5
 40
1.5
 40
1.5
 40
1.5
 40
4.5
 40
4.5
309
CELLMARGIN_END
 94
        6
 95
        1
302
GRIDFORMAT
  1
GRIDFORMAT_BEGIN
 90
        0
 91
        1
 62
     0
 92
       -2
340
14
 93
        0
 40
1.125
309
GRIDFORMAT_END
 95
        2
302
GRIDFORMAT
  1
GRIDFORMAT_BEGIN
 90
        0
 91
        1
 62
     0
 92
       -2
340
14
 93
        0
 40
1.125
309
GRIDFORMAT_END
 95
        4
302
GRIDFORMAT
  1
GRIDFORMAT_BEGIN
 90
        0
 91
        1
 62
     0
 92
       -2
340
14
 93
        0
 40
1.125
309
GRIDFORMAT_END
 95
        8
302
GRIDFORMAT
  1
GRIDFORMAT_BEGIN
 90
        0
 91
        1
 62
     0
 92
       -2
340
14
 93
        0
 40
1.125
309
GRIDFORMAT_END
 95
       16
302
GRIDFORMAT
  1
GRIDFORMAT_BEGIN
 90
        0
 91
        1
 62
     0
 92
       -2
340
14
 93
        0
 40
1.125
309
GRIDFORMAT_END
 95
       32
302
GRIDFORMAT
  1
GRIDFORMAT_BEGIN
 90
        0
 91
        1
 62
     0
 92
       -2
340
14
 93
        0
 40
1.125
309
GRIDFORMAT_END
309
TABLEFORMAT_END
  1
CELLSTYLE_BEGIN
 90
        2
 91
        1
300
_HEADER
309
CELLSTYLE_END
300
CELLSTYLE
  1
TABLEFORMAT_BEGIN
 90
        5
170
     1
 91
        0
 92
        0
 62
   257
 93
        1
300
CONTENTFORMAT
  1
CONTENTFORMAT_BEGIN
 90
        0
 91
        0
 92
      512
 93
        0
300

 40
0.0
140
1.0
 94
        2
 62
     0
340
11
144
4.5
309
CONTENTFORMAT_END
171
     1
301
MARGIN
  1
CELLMARGIN_BEGIN
 40
1.5
 40
1.5
 40
1.5
 40
1.5
 40
4.5
 40
4.5
309
CELLMARGIN_END
 94
        6
 95
        1
302
GRIDFORMAT
  1
GRIDFORMAT_BEGIN
 90
        0
 91
        1
 62
     0
 92
       -2
340
14
 93
        0
 40
1.125
309
GRIDFORMAT_END
 95
        2
302
GRIDFORMAT
  1
GRIDFORMAT_BEGIN
 90
        0
 91
        1
 62
     0
 92
       -2
340
14
 93
        0
 40
1.125
309
GRIDFORMAT_END
 95
        4
302
GRIDFORMAT
  1
GRIDFORMAT_BEGIN
 90
        0
 91
        1
 62
     0
 92
       -2
340
14
 93
        0
 40
1.125
309
GRIDFORMAT_END
 95
        8
302
GRIDFORMAT
  1
GRIDFORMAT_BEGIN
 90
        0
 91
        1
 62
     0
 92
       -2
340
14
 93
        0
 40
1.125
309
GRIDFORMAT_END
 95
       16
302
GRIDFORMAT
  1
GRIDFORMAT_BEGIN
 90
        0
 91
        1
 62
     0
 92
       -2
340
14
 93
        0
 40
1.125
309
GRIDFORMAT_END
 95
       32
302
GRIDFORMAT
  1
GRIDFORMAT_BEGIN
 90
        0
 91
        1
 62
     0
 92
       -2
340
14
 93
        0
 40
1.125
309
GRIDFORMAT_END
309
TABLEFORMAT_END
  1
CELLSTYLE_BEGIN
 90
        3
 91
        2
300
_DATA
309
CELLSTYLE_END
  0
ENDSEC
  0
SECTION
  2
ACDSDATA
 70
     2
 71
     8
  0
ACDSSCHEMA
 90
        0
  1
AcDb_Thumbnail_Schema
  2
AcDbDs::ID
280
    10
 91
        8
  2
Thumbnail_Data
280
    15
 91
        0
101
ACDSRECORD
 95
        0
 90
        1
  2
AcDbDs::TreatedAsObjectData
280
     1
291
     1
101
ACDSRECORD
 95
        0
 90
        2
  2
AcDbDs::Legacy
280
     1
291
     1
101
ACDSRECORD
  1
AcDbDs::ID
 90
        3
  2
AcDs:Indexable
280
     1
291
     1
101
ACDSRECORD
  1
AcDbDs::ID
 90
        4
  2
AcDbDs::HandleAttribute
280
     7
282
     1
  0
ACDSSCHEMA
 90
        1
  1
AcDbDs::TreatedAsObjectDataSchema
  2
AcDbDs::TreatedAsObjectData
280
     1
 91
        0
  0
ACDSSCHEMA
 90
        2
  1
AcDbDs::LegacySchema
  2
AcDbDs::Legacy
280
     1
 91
        0
  0
ACDSSCHEMA
 90
        3
  1
AcDbDs::IndexedPropertySchema
  2
AcDs:Indexable
280
     1
 91
        0
  0
ACDSSCHEMA
 90
        4
  1
AcDbDs::HandleAttributeSchema
  2
AcDbDs::HandleAttribute
280
     7
 91
        1
284
     1
  0
ACDSRECORD
 90
        0
  2
AcDbDs::ID
280
    10
320
22
  2
Thumbnail_Data
280
    15
 94
     1885
310
89504E470D0A1A0A0000000D49484452000000CC000001000803000000C8A169BB00000300504C5445212830FFFFFF2128300000000000000000000000000000000000000000000000000000330000660000990000CC0000FF0033000033330033660033990033CC0033FF0066000066330066660066990066CC0066FF0099
310
000099330099660099990099CC0099FF00CC0000CC3300CC6600CC9900CCCC00CCFF00FF0000FF3300FF6600FF9900FFCC00FFFF3300003300333300663300993300CC3300FF3333003333333333663333993333CC3333FF3366003366333366663366993366CC3366FF3399003399333399663399993399CC3399FF33CC00
310
33CC3333CC6633CC9933CCCC33CCFF33FF0033FF3333FF6633FF9933FFCC33FFFF6600006600336600666600996600CC6600FF6633006633336633666633996633CC6633FF6666006666336666666666996666CC6666FF6699006699336699666699996699CC6699FF66CC0066CC3366CC6666CC9966CCCC66CCFF66FF0066
310
FF3366FF6666FF9966FFCC66FFFF9900009900339900669900999900CC9900FF9933009933339933669933999933CC9933FF9966009966339966669966999966CC9966FF9999009999339999669999999999CC9999FF99CC0099CC3399CC6699CC9999CCCC99CCFF99FF0099FF3399FF6699FF9999FFCC99FFFFCC0000CC00
310
33CC0066CC0099CC00CCCC00FFCC3300CC3333CC3366CC3399CC33CCCC33FFCC6600CC6633CC6666CC6699CC66CCCC66FFCC9900CC9933CC9966CC9999CC99CCCC99FFCCCC00CCCC33CCCC66CCCC99CCCCCCCCCCFFCCFF00CCFF33CCFF66CCFF99CCFFCCCCFFFFFF0000FF0033FF0066FF0099FF00CCFF00FFFF3300FF3333
310
FF3366FF3399FF33CCFF33FFFF6600FF6633FF6666FF6699FF66CCFF66FFFF9900FF9933FF9966FF9999FF99CCFF99FFFFCC00FFCC33FFCC66FFCC99FFCCCCFFCCFFFFFF00FFFF33FFFF66FFFF99FFFFCCFFFFFF0000000D0D0D1A1A1A2828283535354343435050505D5D5D6B6B6B787878868686939393A1A1A1AEAEAEBB
310
BBBBC9C9C9D6D6D6E4E4E4F1F1F1FFFFFF0000000000000000000000000000000000000000000000000000000000002E4550F1000004184944415478DAED9C4996A4201040394E6CBCFF8E8DD7E030EDC8A0908966B60459FFBF5A544B9BF23334408632060000000000000000000000000000000000000000000000000000
310
000000000000000000000000000000A02136D04B8D3F95B13ABFFE9BF411998CB5F6C8D41EEC57E6976E337BE5EEEBF136EB229B2183CC338DE578E47CA44C2A23ED4262971FB92F23C7C88848439931F76D56DF3AB27C809AC8E464E6C87426B3B6DE5E2634E7A3D8C9A7AA35542F636791B1AEABA25066742ECE6FE356C5
310
B9D8B9D1953E612A3BCBB8E632C625BDE225A1ADFF72E6858CC9C8AC5F4C6B994CF12D9939622DB3D997651AE854C8D8BB328FEB58FFC8CFF7F9D29C679AF83901949AFF6C0290FD539C041A349A12DECC72495932DD8377A979F39056329387D8DCD545AECB98C632D341C95EFD4E6490F996CC9AC3FE88CCB1C3A64E6618
310
8EAD8B14AF7E9499CE4D6506CF2FC8A4BF482399B579CBC9D8B4F89A8C3CF2329DCAEC57935C369B3A097BB1DC93314FCA48F4C4666E33B1D103DD85CCD689929CCC6CB8159B2B09C09FF49FEFB338358B7F284A32A1F86ADF4CB6F391A97ECDCCCA4CCFFAF473B8F4A1D8F622B35DF855648CF2C82409202FB316DBCB320F
310
24809C4C54EF9C4CDC41BB22F3FF53F351266E3473D78E1A4D7FB25E99F05014AEED8B9369D95A19795826A991BC1D71B37AC600C2B4F70D9928382ADE673E9309C1E940A66219406564C4F4206314C998F3FCCC4599B573A746A69CCDEA579B20830C323F2A5333798ECC833297D62CEA8F8CB5D54F8D3A9978ACF96A0278
310
3B6ED65EA6FEC5F0ED8826329FCB24C31412F58CFB934932D72663EFC8347E66FCF45F34E622F12B4F6FA939ADB784F94BDB633B73184196BABB4CADCC399BF5D99D393692B24C5C7C638DE6F332A7DB693E50B7FBC2EA91B17E65E93CF4BA24D47516C66CC786702C223A789209A93939E589C8983532513DD2BE59BC3CE1
310
50E142648E8B1A1EC22F2E3D3F1CF51D4D6B460D4B81A35D0DF6BC15A07633C069697ACB75CD368AD1BDC86820EEABD870A42C93EF0E28D90914D5AD7F99A821C9EC56EC6D5FA32D7FBDBD3D3300000070B9B339BD073AE7A4807B5DB62F7556D0AF59AB3094F72E6DFB97CA65E36968B771F76CF82432839A2EDA26332C1B
310
E8FC0845340B30840D74FBC0C41484C1ACE3E253D9A053465ECBD8BDB417996815594EC6BFC32894F129E862648CD12F13072B27B3977623B31F2ACB2CFFE19765343499918C732599B9E82CB38DBE4E455A64C2DD51B3E0D4E66FA7DA49A9863299EAF52C230519EBA76E0EBF69E8365F8DCCBAAC661F2934610854C92BC0
310
3ED794CC0DE5FCA213CC61B25DD558603CB525C560651085327E1B85F83D22F509C0E81BA54D271F6BE78C94CA642BF937657EC2A613992AFAFB53BB699CC474CF837F0F070000000000000000000000000000E03BFC0334017720D2EEE9040000000049454E44AE426082
  0
ENDSEC
  0
EOF
