  0
SECTION
  2
HEADER
  9
$ACADVER
  1
AC1032
  9
$ACADMAINTVER
 90
      142
  9
$DWGCODEPAGE
  3
ANSI_1252
  9
$LASTSAVEDBY
  1
markpriestnal
  9
$REQUIREDVERSIONS
160
                 0
  9
$INSBASE
 10
0.0
 20
0.0
 30
0.0
  9
$EXTMIN
 10
2403.663530444719
 20
955.9565817114426
 30
0.0
  9
$EXTMAX
 10
3580.022601200261
 20
1927.680521565156
 30
0.0
  9
$LIMMIN
 10
0.0
 20
0.0
  9
$LIMMAX
 10
420.0
 20
297.0
  9
$ORTHOMODE
 70
     0
  9
$REGENMODE
 70
     1
  9
$FILLMODE
 70
     1
  9
$QTEXTMODE
 70
     0
  9
$MIRRTEXT
 70
     0
  9
$LTSCALE
 40
1.0
  9
$ATTMODE
 70
     1
  9
$TEXTSIZE
 40
2.5
  9
$TRACEWID
 40
1.0
  9
$TEXTSTYLE
  7
Standard
  9
$CLAYER
  8
0
  9
$CELTYPE
  6
ByLayer
  9
$CECOLOR
 62
   256
  9
$CELTSCALE
 40
1.0
  9
$DISPSILH
 70
     0
  9
$DIMSCALE
 40
1.0
  9
$DIMASZ
 40
2.5
  9
$DIMEXO
 40
0.625
  9
$DIMDLI
 40
3.75
  9
$DIMRND
 40
0.0
  9
$DIMDLE
 40
0.0
  9
$DIMEXE
 40
1.25
  9
$DIMTP
 40
0.0
  9
$DIMTM
 40
0.0
  9
$DIMTXT
 40
2.5
  9
$DIMCEN
 40
2.5
  9
$DIMTSZ
 40
0.0
  9
$DIMTOL
 70
     0
  9
$DIMLIM
 70
     0
  9
$DIMTIH
 70
     0
  9
$DIMTOH
 70
     0
  9
$DIMSE1
 70
     0
  9
$DIMSE2
 70
     0
  9
$DIMTAD
 70
     1
  9
$DIMZIN
 70
     8
  9
$DIMBLK
  1

  9
$DIMASO
 70
     1
  9
$DIMSHO
 70
     1
  9
$DIMPOST
  1

  9
$DIMAPOST
  1

  9
$DIMALT
 70
     0
  9
$DIMALTD
 70
     3
  9
$DIMALTF
 40
0.03937007874016
  9
$DIMLFAC
 40
1.0
  9
$DIMTOFL
 70
     1
  9
$DIMTVP
 40
0.0
  9
$DIMTIX
 70
     0
  9
$DIMSOXD
 70
     0
  9
$DIMSAH
 70
     0
  9
$DIMBLK1
  1

  9
$DIMBLK2
  1

  9
$DIMSTYLE
  2
ISO-25
  9
$DIMCLRD
 70
     0
  9
$DIMCLRE
 70
     0
  9
$DIMCLRT
 70
     0
  9
$DIMTFAC
 40
1.0
  9
$DIMGAP
 40
0.625
  9
$DIMJUST
 70
     0
  9
$DIMSD1
 70
     0
  9
$DIMSD2
 70
     0
  9
$DIMTOLJ
 70
     0
  9
$DIMTZIN
 70
     8
  9
$DIMALTZ
 70
     0
  9
$DIMALTTZ
 70
     0
  9
$DIMUPT
 70
     0
  9
$DIMDEC
 70
     2
  9
$DIMTDEC
 70
     2
  9
$DIMALTU
 70
     2
  9
$DIMALTTD
 70
     3
  9
$DIMTXSTY
  7
Standard
  9
$DIMAUNIT
 70
     0
  9
$DIMADEC
 70
     0
  9
$DIMALTRND
 40
0.0
  9
$DIMAZIN
 70
     0
  9
$DIMDSEP
 70
    44
  9
$DIMATFIT
 70
     3
  9
$DIMFRAC
 70
     0
  9
$DIMLDRBLK
  1

  9
$DIMLUNIT
 70
     2
  9
$DIMLWD
 70
    -2
  9
$DIMLWE
 70
    -2
  9
$DIMTMOVE
 70
     0
  9
$DIMFXL
 40
1.0
  9
$DIMFXLON
 70
     0
  9
$DIMJOGANG
 40
0.7853981633974483
  9
$DIMTFILL
 70
     0
  9
$DIMTFILLCLR
 70
     0
  9
$DIMARCSYM
 70
     0
  9
$DIMLTYPE
  6

  9
$DIMLTEX1
  6

  9
$DIMLTEX2
  6

  9
$DIMTXTDIRECTION
 70
     0
  9
$LUNITS
 70
     2
  9
$LUPREC
 70
     4
  9
$SKETCHINC
 40
1.0
  9
$FILLETRAD
 40
0.0
  9
$AUNITS
 70
     0
  9
$AUPREC
 70
     0
  9
$MENU
  1
.
  9
$ELEVATION
 40
0.0
  9
$PELEVATION
 40
0.0
  9
$THICKNESS
 40
0.0
  9
$LIMCHECK
 70
     0
  9
$CHAMFERA
 40
0.0
  9
$CHAMFERB
 40
0.0
  9
$CHAMFERC
 40
0.0
  9
$CHAMFERD
 40
0.0
  9
$SKPOLY
 70
     0
  9
$TDCREATE
 40
2458645.425185185
  9
$TDUCREATE
 40
2458645.341855347
  9
$TDUPDATE
 40
2459653.593483797
  9
$TDUUPDATE
 40
2459653.551817130
  9
$TDINDWG
 40
0.0004571644
  9
$TDUSRTIMER
 40
0.0004571412
  9
$USRTIMER
 70
     1
  9
$ANGBASE
 50
0.0
  9
$ANGDIR
 70
     0
  9
$PDMODE
 70
     0
  9
$PDSIZE
 40
0.0
  9
$PLINEWID
 40
0.0
  9
$SPLFRAME
 70
     0
  9
$SPLINETYPE
 70
     6
  9
$SPLINESEGS
 70
     8
  9
$HANDSEED
  5
80D
  9
$SURFTAB1
 70
     6
  9
$SURFTAB2
 70
     6
  9
$SURFTYPE
 70
     6
  9
$SURFU
 70
     6
  9
$SURFV
 70
     6
  9
$UCSBASE
  2

  9
$UCSNAME
  2

  9
$UCSORG
 10
0.0
 20
0.0
 30
0.0
  9
$UCSXDIR
 10
1.0
 20
0.0
 30
0.0
  9
$UCSYDIR
 10
0.0
 20
1.0
 30
0.0
  9
$UCSORTHOREF
  2

  9
$UCSORTHOVIEW
 70
     0
  9
$UCSORGTOP
 10
0.0
 20
0.0
 30
0.0
  9
$UCSORGBOTTOM
 10
0.0
 20
0.0
 30
0.0
  9
$UCSORGLEFT
 10
0.0
 20
0.0
 30
0.0
  9
$UCSORGRIGHT
 10
0.0
 20
0.0
 30
0.0
  9
$UCSORGFRONT
 10
0.0
 20
0.0
 30
0.0
  9
$UCSORGBACK
 10
0.0
 20
0.0
 30
0.0
  9
$PUCSBASE
  2

  9
$PUCSNAME
  2

  9
$PUCSORG
 10
0.0
 20
0.0
 30
0.0
  9
$PUCSXDIR
 10
1.0
 20
0.0
 30
0.0
  9
$PUCSYDIR
 10
0.0
 20
1.0
 30
0.0
  9
$PUCSORTHOREF
  2

  9
$PUCSORTHOVIEW
 70
     0
  9
$PUCSORGTOP
 10
0.0
 20
0.0
 30
0.0
  9
$PUCSORGBOTTOM
 10
0.0
 20
0.0
 30
0.0
  9
$PUCSORGLEFT
 10
0.0
 20
0.0
 30
0.0
  9
$PUCSORGRIGHT
 10
0.0
 20
0.0
 30
0.0
  9
$PUCSORGFRONT
 10
0.0
 20
0.0
 30
0.0
  9
$PUCSORGBACK
 10
0.0
 20
0.0
 30
0.0
  9
$USERI1
 70
     0
  9
$USERI2
 70
     0
  9
$USERI3
 70
     0
  9
$USERI4
 70
     0
  9
$USERI5
 70
     0
  9
$USERR1
 40
0.0
  9
$USERR2
 40
0.0
  9
$USERR3
 40
0.0
  9
$USERR4
 40
0.0
  9
$USERR5
 40
0.0
  9
$WORLDVIEW
 70
     1
  9
$SHADEDGE
 70
     3
  9
$SHADEDIF
 70
    70
  9
$TILEMODE
 70
     1
  9
$MAXACTVP
 70
    64
  9
$PINSBASE
 10
0.0
 20
0.0
 30
0.0
  9
$PLIMCHECK
 70
     0
  9
$PEXTMIN
 10
0.0
 20
0.0
 30
0.0
  9
$PEXTMAX
 10
0.0
 20
0.0
 30
0.0
  9
$PLIMMIN
 10
0.0
 20
0.0
  9
$PLIMMAX
 10
12.0
 20
9.0
  9
$UNITMODE
 70
     0
  9
$VISRETAIN
 70
     1
  9
$PLINEGEN
 70
     0
  9
$PSLTSCALE
 70
     1
  9
$TREEDEPTH
 70
  3020
  9
$CMLSTYLE
  2
Standard
  9
$CMLJUST
 70
     0
  9
$CMLSCALE
 40
20.0
  9
$PROXYGRAPHICS
 70
     1
  9
$MEASUREMENT
 70
     1
  9
$CELWEIGHT
370
    -1
  9
$ENDCAPS
280
     0
  9
$JOINSTYLE
280
     0
  9
$LWDISPLAY
290
     0
  9
$INSUNITS
 70
     4
  9
$HYPERLINKBASE
  1

  9
$STYLESHEET
  1

  9
$XEDIT
290
     1
  9
$CEPSNTYPE
380
     0
  9
$PSTYLEMODE
290
     1
  9
$FINGERPRINTGUID
  2
{292FED8E-137A-489B-ABBC-73EAFFBCB032}
  9
$VERSIONGUID
  2
{A4097E2D-E18A-0D4B-BE9D-F89D96125C47}
  9
$EXTNAMES
290
     1
  9
$PSVPSCALE
 40
0.0
  9
$OLESTARTUP
290
     0
  9
$SORTENTS
280
   127
  9
$INDEXCTL
280
     0
  9
$HIDETEXT
280
     1
  9
$XCLIPFRAME
280
     2
  9
$HALOGAP
280
     0
  9
$OBSCOLOR
 70
   257
  9
$OBSLTYPE
280
     0
  9
$INTERSECTIONDISPLAY
280
     0
  9
$INTERSECTIONCOLOR
 70
   257
  9
$DIMASSOC
280
     2
  9
$PROJECTNAME
  1

  9
$CAMERADISPLAY
290
     0
  9
$LENSLENGTH
 40
50.0
  9
$CAMERAHEIGHT
 40
0.0
  9
$STEPSPERSEC
 40
2.0
  9
$STEPSIZE
 40
6.0
  9
$3DDWFPREC
 40
2.0
  9
$PSOLWIDTH
 40
5.0
  9
$PSOLHEIGHT
 40
80.0
  9
$LOFTANG1
 40
1.570796326794896
  9
$LOFTANG2
 40
1.570796326794896
  9
$LOFTMAG1
 40
0.0
  9
$LOFTMAG2
 40
0.0
  9
$LOFTPARAM
 70
     7
  9
$LOFTNORMALS
280
     1
  9
$LATITUDE
 40
37.795
  9
$LONGITUDE
 40
-122.394
  9
$NORTHDIRECTION
 40
0.0
  9
$TIMEZONE
 70
 -8000
  9
$LIGHTGLYPHDISPLAY
280
     1
  9
$TILEMODELIGHTSYNCH
280
     1
  9
$CMATERIAL
347
EC
  9
$SOLIDHIST
280
     0
  9
$SHOWHIST
280
     1
  9
$DWFFRAME
280
     2
  9
$DGNFRAME
280
     0
  9
$REALWORLDSCALE
290
     1
  9
$INTERFERECOLOR
 62
     1
  9
$INTERFEREOBJVS
345
F9
  9
$INTERFEREVPVS
346
F6
  9
$CSHADOW
280
     0
  9
$SHADOWPLANELOCATION
 40
0.0
  0
ENDSEC
  0
SECTION
  2
CLASSES
  0
CLASS
  1
ACDBDICTIONARYWDFLT
  2
AcDbDictionaryWithDefault
  3
ObjectDBX Classes
 90
        0
 91
        1
280
     0
281
     0
  0
CLASS
  1
DICTIONARYVAR
  2
AcDbDictionaryVar
  3
ObjectDBX Classes
 90
        0
 91
       16
280
     0
281
     0
  0
CLASS
  1
TABLESTYLE
  2
AcDbTableStyle
  3
ObjectDBX Classes
 90
     4095
 91
        1
280
     0
281
     0
  0
CLASS
  1
MATERIAL
  2
AcDbMaterial
  3
ObjectDBX Classes
 90
     1153
 91
        3
280
     0
281
     0
  0
CLASS
  1
VISUALSTYLE
  2
AcDbVisualStyle
  3
ObjectDBX Classes
 90
     4095
 91
       25
280
     0
281
     0
  0
CLASS
  1
SCALE
  2
AcDbScale
  3
ObjectDBX Classes
 90
     1153
 91
       17
280
     0
281
     0
  0
CLASS
  1
MLEADERSTYLE
  2
AcDbMLeaderStyle
  3
ACDB_MLEADERSTYLE_CLASS
 90
     4095
 91
        2
280
     0
281
     0
  0
CLASS
  1
CELLSTYLEMAP
  2
AcDbCellStyleMap
  3
ObjectDBX Classes
 90
     1152
 91
        2
280
     0
281
     0
  0
CLASS
  1
EXACXREFPANELOBJECT
  2
ExAcXREFPanelObject
  3
EXAC_ESW
 90
     1025
 91
        0
280
     0
281
     0
  0
CLASS
  1
NPOCOLLECTION
  2
AcDbImpNonPersistentObjectsCollection
  3
ObjectDBX Classes
 90
     1153
 91
        0
280
     0
281
     0
  0
CLASS
  1
LAYER_INDEX
  2
AcDbLayerIndex
  3
ObjectDBX Classes
 90
        0
 91
        0
280
     0
281
     0
  0
CLASS
  1
SPATIAL_INDEX
  2
AcDbSpatialIndex
  3
ObjectDBX Classes
 90
        0
 91
        0
280
     0
281
     0
  0
CLASS
  1
IDBUFFER
  2
AcDbIdBuffer
  3
ObjectDBX Classes
 90
        0
 91
        0
280
     0
281
     0
  0
CLASS
  1
ACDBSECTIONVIEWSTYLE
  2
AcDbSectionViewStyle
  3
ObjectDBX Classes
 90
     1025
 91
        1
280
     0
281
     0
  0
CLASS
  1
ACDBDETAILVIEWSTYLE
  2
AcDbDetailViewStyle
  3
ObjectDBX Classes
 90
     1025
 91
        1
280
     0
281
     0
  0
CLASS
  1
SORTENTSTABLE
  2
AcDbSortentsTable
  3
ObjectDBX Classes
 90
        0
 91
        7
280
     0
281
     0
  0
CLASS
  1
DIMASSOC
  2
AcDbDimAssoc
  3
"AcDbDimAssoc|Product Desc:     AcDim ARX App For Dimension|Company:          Autodesk, Inc.|WEB Address:      www.autodesk.com"
 90
        0
 91
       21
280
     0
281
     0
  0
ENDSEC
  0
SECTION
  2
TABLES
  0
TABLE
  2
VPORT
  5
8
102
{ACAD_XDICTIONARY
360
7AE
102
}
330
0
100
AcDbSymbolTable
 70
     1
  0
VPORT
  5
EA
330
8
100
AcDbSymbolTableRecord
100
AcDbViewportTableRecord
  2
*Active
 70
     0
 10
0.0
 20
0.0
 11
1.0
 21
1.0
 12
3123.779724862459
 22
1328.144855533844
 13
0.0
 23
0.0
 14
10.0
 24
10.0
 15
10.0
 25
10.0
 16
0.0
 26
0.0
 36
1.0
 17
0.0
 27
0.0
 37
0.0
 40
1589.755431326629
 41
0.7984496124031008
 42
50.0
 43
0.0
 44
0.0
 50
0.0
 51
0.0
 71
     0
 72
  1000
 73
     1
 74
     3
 75
     0
 76
     0
 77
     0
 78
     0
281
     0
 65
     1
110
0.0
120
0.0
130
0.0
111
1.0
121
0.0
131
0.0
112
0.0
122
1.0
132
0.0
 79
     0
146
0.0
348
F5
 60
     3
 61
     5
292
     1
282
     1
141
0.0
142
0.0
 63
   250
421
  3355443
1001
ACAD_NAV_VCDISPLAY
1070
     3
  0
ENDTAB
  0
TABLE
  2
LTYPE
  5
5
330
0
100
AcDbSymbolTable
 70
     4
  0
LTYPE
  5
14
330
5
100
AcDbSymbolTableRecord
100
AcDbLinetypeTableRecord
  2
ByBlock
 70
     0
  3

 72
    65
 73
     0
 40
0.0
  0
LTYPE
  5
15
330
5
100
AcDbSymbolTableRecord
100
AcDbLinetypeTableRecord
  2
ByLayer
 70
     0
  3

 72
    65
 73
     0
 40
0.0
  0
LTYPE
  5
16
330
5
100
AcDbSymbolTableRecord
100
AcDbLinetypeTableRecord
  2
Continuous
 70
     0
  3
Solid line
 72
    65
 73
     0
 40
0.0
  0
LTYPE
  5
3F5
330
5
100
AcDbSymbolTableRecord
100
AcDbLinetypeTableRecord
  2
CENTER2
 70
     0
  3
Center (.5x) ___ _ ___ _ ___ _ ___ _ ___ _ ___
 72
    65
 73
     4
 40
28.575
 49
19.05
 74
     0
 49
-3.174999999999999
 74
     0
 49
3.174999999999999
 74
     0
 49
-3.174999999999999
 74
     0
  0
LTYPE
  5
3F6
330
5
100
AcDbSymbolTableRecord
100
AcDbLinetypeTableRecord
  2
HIDDENX2
 70
     0
  3
Hidden (2x) ____ ____ ____ ____ ____ ____ ____
 72
    65
 73
     2
 40
19.05
 49
12.7
 74
     0
 49
-6.349999999999999
 74
     0
  0
LTYPE
  5
3F7
330
5
100
AcDbSymbolTableRecord
100
AcDbLinetypeTableRecord
  2
HIDDEN
 70
     0
  3
- - - - - - - - - - - - - - - - - - - -
 72
    65
 73
     2
 40
0.2
 49
0.1
 74
     0
 49
-0.1
 74
     0
  0
ENDTAB
  0
TABLE
  2
LAYER
  5
2
102
{ACAD_XDICTIONARY
360
1FF
102
}
330
0
100
AcDbSymbolTable
 70
     7
  0
LAYER
  5
10
102
{ACAD_XDICTIONARY
360
13C
102
}
330
2
100
AcDbSymbolTableRecord
100
AcDbLayerTableRecord
  2
0
 70
     0
 62
     7
  6
Continuous
370
    -3
390
F
347
EE
348
0
  0
LAYER
  5
3F8
330
2
100
AcDbSymbolTableRecord
100
AcDbLayerTableRecord
  2
外框线1
 70
     0
 62
     3
  6
Continuous
370
    -3
390
F
347
EE
348
0
1001
AcAecLayerStandard
1000

1000

1001
AcadStringInfo
1000
MIFCodePage
1070
     5
  0
LAYER
  5
3F9
330
2
100
AcDbSymbolTableRecord
100
AcDbLayerTableRecord
  2
Defpoints
 70
     0
 62
     7
  6
Continuous
290
     0
370
    -3
390
F
347
EE
348
0
  0
LAYER
  5
3FA
330
2
100
AcDbSymbolTableRecord
100
AcDbLayerTableRecord
  2
外框线2
 70
     0
 62
     6
  6
Continuous
370
    -3
390
F
347
EE
348
0
1001
AcAecLayerStandard
1000

1000

1001
AcadStringInfo
1000
MIFCodePage
1070
     5
  0
LAYER
  5
3FB
330
2
100
AcDbSymbolTableRecord
100
AcDbLayerTableRecord
  2
标注
 70
     0
 62
     1
  6
Continuous
370
     9
390
F
347
EE
348
0
1001
AcAecLayerStandard
1000

1000

1001
AcadStringInfo
1000
MIFCodePage
1070
     5
  0
LAYER
  5
3FC
330
2
100
AcDbSymbolTableRecord
100
AcDbLayerTableRecord
  2
外框线3
 70
     0
 62
   128
  6
CENTER2
370
    15
390
F
347
EE
348
0
1001
AcAecLayerStandard
1000

1000

1001
AcadStringInfo
1000
MIFCodePage
1070
     5
  0
LAYER
  5
3FD
330
2
100
AcDbSymbolTableRecord
100
AcDbLayerTableRecord
  2
外框线5
 70
     0
 62
     2
  6
Continuous
370
     9
390
F
347
EE
348
0
1001
AcAecLayerStandard
1000

1000

1001
AcadStringInfo
1000
MIFCodePage
1070
     5
  0
ENDTAB
  0
TABLE
  2
STYLE
  5
3
330
0
100
AcDbSymbolTable
 70
     2
  0
STYLE
  5
11
330
3
100
AcDbSymbolTableRecord
100
AcDbTextStyleTableRecord
  2
Standard
 70
     0
 40
0.0
 41
1.0
 50
0.0
 71
     0
 42
2.5
  3
arial.ttf
  4

1001
ACAD
1000
Arial
1071
       34
  0
STYLE
  5
132
330
3
100
AcDbSymbolTableRecord
100
AcDbTextStyleTableRecord
  2
Annotative
 70
     0
 40
0.0
 41
1.0
 50
0.0
 71
     0
 42
2.5
  3
arial.ttf
  4

1001
AcadAnnotative
1000
AnnotativeData
1002
{
1070
     1
1070
     1
1002
}
1001
ACAD
1000
Arial
1071
       34
  0
ENDTAB
  0
TABLE
  2
VIEW
  5
6
330
0
100
AcDbSymbolTable
 70
     1
  0
ENDTAB
  0
TABLE
  2
UCS
  5
7
330
0
100
AcDbSymbolTable
 70
     0
  0
ENDTAB
  0
TABLE
  2
APPID
  5
9
330
0
100
AcDbSymbolTable
 70
    14
  0
APPID
  5
12
330
9
100
AcDbSymbolTableRecord
100
AcDbRegAppTableRecord
  2
ACAD
 70
     0
  0
APPID
  5
9E
330
9
100
AcDbSymbolTableRecord
100
AcDbRegAppTableRecord
  2
ACAD_PSEXT
 70
     0
  0
APPID
  5
133
330
9
100
AcDbSymbolTableRecord
100
AcDbRegAppTableRecord
  2
AcadAnnoPO
 70
     0
  0
APPID
  5
134
330
9
100
AcDbSymbolTableRecord
100
AcDbRegAppTableRecord
  2
AcadAnnotative
 70
     0
  0
APPID
  5
135
330
9
100
AcDbSymbolTableRecord
100
AcDbRegAppTableRecord
  2
ACAD_DSTYLE_DIMJAG
 70
     0
  0
APPID
  5
136
330
9
100
AcDbSymbolTableRecord
100
AcDbRegAppTableRecord
  2
ACAD_DSTYLE_DIMTALN
 70
     0
  0
APPID
  5
165
330
9
100
AcDbSymbolTableRecord
100
AcDbRegAppTableRecord
  2
ACAD_MLEADERVER
 70
     0
  0
APPID
  5
217
330
9
100
AcDbSymbolTableRecord
100
AcDbRegAppTableRecord
  2
ACAD_NAV_VCDISPLAY
 70
     0
  0
APPID
  5
403
330
9
100
AcDbSymbolTableRecord
100
AcDbRegAppTableRecord
  2
ACAD_DSTYLE_DIMBREAK
 70
     0
  0
APPID
  5
404
330
9
100
AcDbSymbolTableRecord
100
AcDbRegAppTableRecord
  2
AcAecLayerStandard
 70
     0
  0
APPID
  5
405
330
9
100
AcDbSymbolTableRecord
100
AcDbRegAppTableRecord
  2
AcDbDynamicBlockGUID
 70
     0
  0
APPID
  5
406
330
9
100
AcDbSymbolTableRecord
100
AcDbRegAppTableRecord
  2
ACAD_DSTYLE_DIMRADIAL_EXTENSION
 70
     0
  0
APPID
  5
7FF
330
9
100
AcDbSymbolTableRecord
100
AcDbRegAppTableRecord
  2
AcadStringInfo
 70
     0
  0
APPID
  5
802
330
9
100
AcDbSymbolTableRecord
100
AcDbRegAppTableRecord
  2
Acad_TC
 70
     0
  0
ENDTAB
  0
TABLE
  2
DIMSTYLE
  5
A
330
0
100
AcDbSymbolTable
 70
     8
100
AcDbDimStyleTable
 71
     2
340
27
340
137
  0
DIMSTYLE
105
1B0
330
A
100
AcDbSymbolTableRecord
100
AcDbDimStyleTableRecord
  2
Standard
 70
     0
340
11
  0
DIMSTYLE
105
137
330
A
100
AcDbSymbolTableRecord
100
AcDbDimStyleTableRecord
  2
Annotative
 70
     0
 40
0.0
 41
2.5
 42
0.625
 43
3.75
 44
1.25
 73
     0
 74
     0
 77
     1
 78
     8
140
2.5
141
2.5
143
0.03937007874016
147
0.625
171
     3
172
     1
271
     2
272
     2
274
     3
278
    44
283
     0
284
     8
340
11
1001
AcadAnnotative
1000
AnnotativeData
1002
{
1070
     1
1070
     1
1002
}
1001
ACAD_DSTYLE_DIMJAG
1070
   388
1040
1.5
1001
ACAD_DSTYLE_DIMTALN
1070
   392
1070
     0
  0
DIMSTYLE
105
27
330
A
100
AcDbSymbolTableRecord
100
AcDbDimStyleTableRecord
  2
ISO-25
 70
     0
 41
2.5
 42
0.625
 43
3.75
 44
1.25
 73
     0
 74
     0
 77
     1
 78
     8
140
2.5
141
2.5
143
0.03937007874016
147
0.625
171
     3
172
     1
271
     2
272
     2
274
     3
278
    44
283
     0
284
     8
340
11
  0
DIMSTYLE
105
3FE
102
{ACAD_REACTORS
330
543
330
546
330
549
330
54C
330
54F
330
552
330
565
330
569
330
56C
330
56F
330
587
330
58A
330
58D
330
58E
330
58F
330
592
330
595
330
598
330
59B
330
59E
330
5A1
330
5A4
102
}
330
A
100
AcDbSymbolTableRecord
100
AcDbDimStyleTableRecord
  2
1-8-L
 70
     0
 40
8.0
 41
1.5
 42
0.625
 43
3.75
 44
1.25
 73
     0
 74
     0
 77
     1
 78
     8
140
2.299999999999998
141
2.5
143
0.03937007874016
147
0.625
171
     8
172
     1
271
     2
272
     2
273
     7
274
     8
283
     0
284
     8
340
11
1001
ACAD_DSTYLE_DIMBREAK
1070
   391
1040
3.75
1001
ACAD_DSTYLE_DIMJAG
1070
   388
1040
1.5
1001
ACAD_DSTYLE_DIMTALN
1070
   392
1070
     0
  0
DIMSTYLE
105
3FF
330
A
100
AcDbSymbolTableRecord
100
AcDbDimStyleTableRecord
  2
1-2-L
 70
     0
 40
2.0
 41
1.5
 42
0.625
 43
3.75
 44
1.25
 73
     0
 74
     0
 77
     1
 78
     8
140
2.299999999999999
141
2.5
143
0.03937007874016
147
0.625
171
     8
172
     1
271
     2
272
     2
273
     7
274
     8
283
     0
284
     8
340
11
1001
ACAD_DSTYLE_DIMBREAK
1070
   391
1040
3.75
1001
ACAD_DSTYLE_DIMJAG
1070
   388
1040
1.5
1001
ACAD_DSTYLE_DIMTALN
1070
   392
1070
     0
  0
DIMSTYLE
105
400
102
{ACAD_REACTORS
330
60B
330
63B
102
}
330
A
100
AcDbSymbolTableRecord
100
AcDbDimStyleTableRecord
  2
1-6-L
 70
     0
 40
6.0
 41
1.5
 42
0.625
 43
3.75
 44
1.25
 73
     0
 74
     0
 77
     1
 78
     8
140
2.299999999999999
141
2.5
143
0.03937007874016
147
0.625
171
     8
172
     1
271
     2
272
     2
273
     7
274
     8
283
     0
284
     8
340
11
1001
ACAD_DSTYLE_DIMBREAK
1070
   391
1040
3.75
1001
ACAD_DSTYLE_DIMJAG
1070
   388
1040
1.5
1001
ACAD_DSTYLE_DIMTALN
1070
   392
1070
     0
  0
DIMSTYLE
105
401
330
A
100
AcDbSymbolTableRecord
100
AcDbDimStyleTableRecord
  2
1-4-L
 70
     0
 40
4.0
 41
1.5
 42
0.625
 43
3.75
 44
1.25
 73
     0
 74
     0
 77
     1
 78
     8
140
2.299999999999999
141
2.5
143
0.03937007874016
147
0.625
171
     8
172
     1
271
     2
272
     2
273
     7
274
     8
283
     0
284
     8
340
11
1001
ACAD_DSTYLE_DIMBREAK
1070
   391
1040
3.75
1001
ACAD_DSTYLE_DIMJAG
1070
   388
1040
1.5
1001
ACAD_DSTYLE_DIMTALN
1070
   392
1070
     0
  0
DIMSTYLE
105
402
330
A
100
AcDbSymbolTableRecord
100
AcDbDimStyleTableRecord
  2
1-5-L
 70
     0
 40
5.0
 41
1.5
 42
0.625
 43
3.75
 44
1.25
 73
     0
 74
     0
 77
     1
 78
     8
140
2.299999999999999
141
2.5
143
0.03937007874016
147
0.625
171
     8
172
     1
271
     2
272
     2
273
     7
274
     8
283
     0
284
     8
340
11
1001
ACAD_DSTYLE_DIMBREAK
1070
   391
1040
3.75
1001
ACAD_DSTYLE_DIMJAG
1070
   388
1040
1.5
1001
ACAD_DSTYLE_DIMTALN
1070
   392
1070
     0
  0
ENDTAB
  0
TABLE
  2
BLOCK_RECORD
  5
1
330
0
100
AcDbSymbolTable
 70
    56
  0
BLOCK_RECORD
  5
1F
102
{ACAD_XDICTIONARY
360
1CE
102
}
330
1
100
AcDbSymbolTableRecord
100
AcDbBlockTableRecord
  2
*Model_Space
340
22
 70
     0
280
     1
281
     0
  0
BLOCK_RECORD
  5
D2
330
1
100
AcDbSymbolTableRecord
100
AcDbBlockTableRecord
  2
*Paper_Space
340
D3
 70
     0
280
     1
281
     0
  0
BLOCK_RECORD
  5
D6
330
1
100
AcDbSymbolTableRecord
100
AcDbBlockTableRecord
  2
*Paper_Space0
340
D7
 70
     0
280
     1
281
     0
  0
BLOCK_RECORD
  5
250
102
{ACAD_XDICTIONARY
360
251
102
}
330
1
100
AcDbSymbolTableRecord
100
AcDbBlockTableRecord
  2
A$C52C164B5
340
0
102
{BLKREFS
331
5AE
331
5AF
102
}
 70
     4
280
     1
281
     0
  0
BLOCK_RECORD
  5
25B
102
{ACAD_XDICTIONARY
360
25C
102
}
330
1
100
AcDbSymbolTableRecord
100
AcDbBlockTableRecord
  2
A$C60E228D6
340
0
102
{BLKREFS
331
579
331
57A
331
57B
102
}
 70
     4
280
     1
281
     0
1001
AcDbDynamicBlockGUID
1000
{0877BE4C-14AE-472C-9281-6B35D48E098C}
  0
BLOCK_RECORD
  5
268
102
{ACAD_XDICTIONARY
360
269
102
}
330
1
100
AcDbSymbolTableRecord
100
AcDbBlockTableRecord
  2
A$C67E91360
340
0
102
{BLKREFS
331
578
331
573
331
577
102
}
 70
     4
280
     1
281
     0
  0
BLOCK_RECORD
  5
273
102
{ACAD_XDICTIONARY
360
274
102
}
330
1
100
AcDbSymbolTableRecord
100
AcDbBlockTableRecord
  2
A$C61936786
340
0
102
{BLKREFS
331
570
331
572
102
}
 70
     4
280
     1
281
     0
1001
AcDbDynamicBlockGUID
1000
{5330DB34-61A1-4929-805C-940E635FC5D2}
  0
BLOCK_RECORD
  5
279
102
{ACAD_XDICTIONARY
360
27A
102
}
330
1
100
AcDbSymbolTableRecord
100
AcDbBlockTableRecord
  2
A$C538D63E5
340
0
102
{BLKREFS
331
575
331
576
102
}
 70
     4
280
     1
281
     0
  0
BLOCK_RECORD
  5
286
102
{ACAD_XDICTIONARY
360
287
102
}
330
1
100
AcDbSymbolTableRecord
100
AcDbBlockTableRecord
  2
A$C0DCB3B93
340
0
102
{BLKREFS
331
574
102
}
 70
     4
280
     1
281
     0
  0
BLOCK_RECORD
  5
2CE
102
{ACAD_XDICTIONARY
360
2CF
102
}
330
1
100
AcDbSymbolTableRecord
100
AcDbBlockTableRecord
  2
A$C6C715BF9
340
0
102
{BLKREFS
331
57C
102
}
 70
     4
280
     1
281
     0
  0
BLOCK_RECORD
  5
63E
330
1
100
AcDbSymbolTableRecord
100
AcDbBlockTableRecord
  2
*D32
340
0
 70
     0
280
     1
281
     0
  0
BLOCK_RECORD
  5
64B
330
1
100
AcDbSymbolTableRecord
100
AcDbBlockTableRecord
  2
*D33
340
0
 70
     0
280
     1
281
     0
  0
BLOCK_RECORD
  5
658
330
1
100
AcDbSymbolTableRecord
100
AcDbBlockTableRecord
  2
*D34
340
0
 70
     0
280
     1
281
     0
  0
BLOCK_RECORD
  5
665
330
1
100
AcDbSymbolTableRecord
100
AcDbBlockTableRecord
  2
*D35
340
0
 70
     0
280
     1
281
     0
  0
BLOCK_RECORD
  5
671
330
1
100
AcDbSymbolTableRecord
100
AcDbBlockTableRecord
  2
*D36
340
0
 70
     0
280
     1
281
     0
  0
BLOCK_RECORD
  5
67D
330
1
100
AcDbSymbolTableRecord
100
AcDbBlockTableRecord
  2
*D37
340
0
 70
     0
280
     1
281
     0
  0
BLOCK_RECORD
  5
689
330
1
100
AcDbSymbolTableRecord
100
AcDbBlockTableRecord
  2
*D38
340
0
 70
     0
280
     1
281
     0
  0
BLOCK_RECORD
  5
695
330
1
100
AcDbSymbolTableRecord
100
AcDbBlockTableRecord
  2
*D39
340
0
 70
     0
280
     1
281
     0
  0
BLOCK_RECORD
  5
69F
330
1
100
AcDbSymbolTableRecord
100
AcDbBlockTableRecord
  2
*D40
340
0
 70
     0
280
     1
281
     0
  0
BLOCK_RECORD
  5
6A9
330
1
100
AcDbSymbolTableRecord
100
AcDbBlockTableRecord
  2
*D41
340
0
 70
     0
280
     1
281
     0
  0
BLOCK_RECORD
  5
6B5
330
1
100
AcDbSymbolTableRecord
100
AcDbBlockTableRecord
  2
*D42
340
0
 70
     0
280
     1
281
     0
  0
BLOCK_RECORD
  5
6C1
330
1
100
AcDbSymbolTableRecord
100
AcDbBlockTableRecord
  2
*D43
340
0
 70
     0
280
     1
281
     0
  0
BLOCK_RECORD
  5
6D6
330
1
100
AcDbSymbolTableRecord
100
AcDbBlockTableRecord
  2
*D44
340
0
 70
     0
280
     1
281
     0
  0
BLOCK_RECORD
  5
6E4
330
1
100
AcDbSymbolTableRecord
100
AcDbBlockTableRecord
  2
*D45
340
0
 70
     0
280
     1
281
     0
  0
BLOCK_RECORD
  5
704
330
1
100
AcDbSymbolTableRecord
100
AcDbBlockTableRecord
  2
*D46
340
0
 70
     0
280
     1
281
     0
  0
BLOCK_RECORD
  5
710
330
1
100
AcDbSymbolTableRecord
100
AcDbBlockTableRecord
  2
*D47
340
0
 70
     0
280
     1
281
     0
  0
BLOCK_RECORD
  5
71C
330
1
100
AcDbSymbolTableRecord
100
AcDbBlockTableRecord
  2
*D48
340
0
 70
     0
280
     1
281
     0
  0
BLOCK_RECORD
  5
728
330
1
100
AcDbSymbolTableRecord
100
AcDbBlockTableRecord
  2
*D49
340
0
 70
     0
280
     1
281
     0
  0
BLOCK_RECORD
  5
734
330
1
100
AcDbSymbolTableRecord
100
AcDbBlockTableRecord
  2
*D50
340
0
 70
     0
280
     1
281
     0
  0
BLOCK_RECORD
  5
740
330
1
100
AcDbSymbolTableRecord
100
AcDbBlockTableRecord
  2
*D51
340
0
 70
     0
280
     1
281
     0
  0
BLOCK_RECORD
  5
74C
330
1
100
AcDbSymbolTableRecord
100
AcDbBlockTableRecord
  2
*D52
340
0
 70
     0
280
     1
281
     0
  0
BLOCK_RECORD
  5
758
330
1
100
AcDbSymbolTableRecord
100
AcDbBlockTableRecord
  2
*D53
340
0
 70
     0
280
     1
281
     0
  0
BLOCK_RECORD
  5
761
330
1
100
AcDbSymbolTableRecord
100
AcDbBlockTableRecord
  2
*D54
340
0
 70
     0
280
     1
281
     0
  0
BLOCK_RECORD
  5
76C
330
1
100
AcDbSymbolTableRecord
100
AcDbBlockTableRecord
  2
*D55
340
0
 70
     0
280
     1
281
     0
  0
ENDTAB
  0
ENDSEC
  0
SECTION
  2
BLOCKS
  0
BLOCK
  5
20
330
1F
100
AcDbEntity
  8
0
100
AcDbBlockBegin
  2
*Model_Space
 70
     0
 10
0.0
 20
0.0
 30
0.0
  3
*Model_Space
  1

  0
ENDBLK
  5
21
330
1F
100
AcDbEntity
  8
0
100
AcDbBlockEnd
  0
BLOCK
  5
D4
330
D2
100
AcDbEntity
 67
     1
  8
0
100
AcDbBlockBegin
  2
*Paper_Space
 70
     0
 10
0.0
 20
0.0
 30
0.0
  3
*Paper_Space
  1

  0
ENDBLK
  5
D5
330
D2
100
AcDbEntity
 67
     1
  8
0
100
AcDbBlockEnd
  0
BLOCK
  5
D8
330
D6
100
AcDbEntity
 67
     1
  8
0
100
AcDbBlockBegin
  2
*Paper_Space0
 70
     0
 10
0.0
 20
0.0
 30
0.0
  3
*Paper_Space0
  1

  0
ENDBLK
  5
D9
330
D6
100
AcDbEntity
 67
     1
  8
0
100
AcDbBlockEnd
  0
BLOCK
  5
253
330
250
100
AcDbEntity
  8
0
100
AcDbBlockBegin
  2
A$C52C164B5
 70
     0
 10
0.0
 20
0.0
 30
0.0
  3
A$C52C164B5
  1

  0
LINE
  5
254
330
250
100
AcDbEntity
  8
标注
100
AcDbLine
 10
0.7070691492408514
 20
0.0
 30
0.0
 11
12.02077764822388
 21
11.31370849898303
 31
0.0
  0
LINE
  5
255
330
250
100
AcDbEntity
  8
标注
100
AcDbLine
 10
12.02077764822388
 20
11.31370849898303
 30
0.0
 11
23.33448614720692
 21
0.0
 31
0.0
  0
LINE
  5
256
330
250
100
AcDbEntity
  8
标注
100
AcDbLine
 10
23.33448614720692
 20
0.0
 30
0.0
 11
24.04159292839177
 21
0.707106781184848
 31
0.0
  0
LINE
  5
257
330
250
100
AcDbEntity
  8
标注
100
AcDbLine
 10
24.04159292839177
 20
0.707106781184848
 30
0.0
 11
12.02077764822388
 21
12.72792206135273
 31
0.0
  0
LINE
  5
258
330
250
100
AcDbEntity
  8
标注
100
AcDbLine
 10
0.7070691492408514
 20
0.0
 30
0.0
 11
-0.0000376319439965
 21
0.707106781184848
 31
0.0
  0
LINE
  5
259
330
250
100
AcDbEntity
  8
标注
100
AcDbLine
 10
-0.0000376319439965
 20
0.707106781184848
 30
0.0
 11
12.02077764822388
 21
12.72792206135273
 31
0.0
  0
ENDBLK
  5
25A
330
250
100
AcDbEntity
  8
0
100
AcDbBlockEnd
  0
BLOCK
  5
25E
330
25B
100
AcDbEntity
  8
0
100
AcDbBlockBegin
  2
A$C60E228D6
 70
     0
 10
0.0
 20
0.0
 30
0.0
  3
A$C60E228D6
  1

  0
LINE
  5
25F
330
25B
100
AcDbEntity
  8
外框线5
100
AcDbLine
 10
0.0
 20
83.00000027549685
 30
0.0
 11
20.0
 21
83.00000027549685
 31
0.0
  0
LINE
  5
260
330
25B
100
AcDbEntity
  8
外框线5
100
AcDbLine
 10
0.0
 20
81.50000027549685
 30
0.0
 11
18.49999999999818
 21
81.50000027549685
 31
0.0
  0
LINE
  5
261
330
25B
100
AcDbEntity
  8
外框线5
100
AcDbLine
 10
20.0
 20
83.00000027549685
 30
0.0
 11
20.0
 21
0.0000002754968591
 31
0.0
  0
LINE
  5
262
330
25B
100
AcDbEntity
  8
外框线5
100
AcDbLine
 10
18.49999999999909
 20
81.50000027549685
 30
0.0
 11
18.5
 21
0.0000002754968591
 31
0.0
  0
LINE
  5
263
330
25B
100
AcDbEntity
  8
外框线5
100
AcDbLine
 10
0.0
 20
0.0000002754968591
 30
0.0
 11
20.0
 21
0.0000002754968591
 31
0.0
  0
LINE
  5
264
330
25B
100
AcDbEntity
  8
外框线5
100
AcDbLine
 10
0.0
 20
0.0000002754968591
 30
0.0
 11
0.0
 21
70.00000027549686
 31
0.0
  0
LINE
  5
265
330
25B
100
AcDbEntity
  8
外框线5
100
AcDbLine
 10
0.0
 20
70.00000027549686
 30
0.0
 11
18.49999999999909
 21
70.00000027549686
 31
0.0
  0
LINE
  5
266
330
25B
100
AcDbEntity
  8
外框线5
100
AcDbLine
 10
0.0
 20
83.00000027549685
 30
0.0
 11
0.0
 21
81.50000027549685
 31
0.0
  0
ENDBLK
  5
267
330
25B
100
AcDbEntity
  8
0
100
AcDbBlockEnd
  0
BLOCK
  5
26B
330
268
100
AcDbEntity
  8
0
100
AcDbBlockBegin
  2
A$C67E91360
 70
     0
 10
0.0
 20
0.0
 30
0.0
  3
A$C67E91360
  1

  0
LWPOLYLINE
  5
26C
330
268
100
AcDbEntity
  8
标注
100
AcDbPolyline
 90
        4
 70
     1
 43
0.0
 10
0.0
 20
48.00000741714757
 10
20.0
 20
48.00000741714757
 10
20.0
 20
3.000007417147571
 10
0.0
 20
3.000007417147571
  0
LINE
  5
26D
330
268
100
AcDbEntity
  8
标注
100
AcDbLine
 10
0.0
 20
3.000007417147571
 30
0.0
 11
0.0
 21
0.0000074171475717
 31
0.0
  0
LINE
  5
26E
330
268
100
AcDbEntity
  8
标注
100
AcDbLine
 10
0.0
 20
0.0000074171475717
 30
0.0
 11
20.0
 21
0.0000074171480264
 31
0.0
  0
LINE
  5
26F
330
268
100
AcDbEntity
  8
标注
100
AcDbLine
 10
0.0
 20
1.500007417147571
 30
0.0
 11
18.5
 21
1.500007417148026
 31
0.0
  0
LINE
  5
270
330
268
100
AcDbEntity
  8
标注
100
AcDbLine
 10
20.0
 20
0.0000074171480264
 30
0.0
 11
20.0
 21
3.000007417147571
 31
0.0
  0
LINE
  5
271
330
268
100
AcDbEntity
  8
标注
100
AcDbLine
 10
18.49999999999988
 20
1.500007417148026
 30
0.0
 11
18.5
 21
3.000007417147571
 31
0.0
  0
ENDBLK
  5
272
330
268
100
AcDbEntity
  8
0
100
AcDbBlockEnd
  0
BLOCK
  5
276
330
273
100
AcDbEntity
  8
0
100
AcDbBlockBegin
  2
A$C61936786
 70
     0
 10
0.0
 20
0.0
 30
0.0
  3
A$C61936786
  1

  0
LWPOLYLINE
  5
277
330
273
100
AcDbEntity
  8
外框线2
 48
0.2
100
AcDbPolyline
 90
        4
 70
     1
 43
0.0
 10
0.0
 20
12.00000601095598
 10
460.0
 20
12.00000601095598
 10
460.0
 20
-0.9999939890440145
 10
-0.0000000000000002
 20
-0.9999939890440145
  0
ENDBLK
  5
278
330
273
100
AcDbEntity
  8
0
100
AcDbBlockEnd
  0
BLOCK
  5
27C
330
279
100
AcDbEntity
  8
0
100
AcDbBlockBegin
  2
A$C538D63E5
 70
     0
 10
0.0
 20
0.0
 30
0.0
  3
A$C538D63E5
  1

  0
LINE
  5
27D
330
279
100
AcDbEntity
  8
外框线2
 48
0.2
100
AcDbLine
 10
0.0000048318247536
 20
14.00000236733649
 30
0.0
 11
0.0000048318247536
 21
24.00000236733649
 31
0.0
  0
LINE
  5
27E
330
279
100
AcDbEntity
  8
外框线2
 48
0.2
100
AcDbLine
 10
1.200004831824571
 20
14.00000236733649
 30
0.0
 11
1.200004831825026
 21
22.80000236733668
 31
0.0
  0
LINE
  5
27F
330
279
100
AcDbEntity
  8
外框线2
 48
0.2
100
AcDbLine
 10
0.0000048318247536
 20
24.00000236733649
 30
0.0
 11
13.00000483182475
 21
24.00000236733649
 31
0.0
  0
LINE
  5
280
330
279
100
AcDbEntity
  8
外框线2
 48
0.2
100
AcDbLine
 10
1.200004831825026
 20
22.80000236733668
 30
0.0
 11
11.80000483182493
 21
22.80000236733668
 31
0.0
  0
LINE
  5
281
330
279
100
AcDbEntity
  8
外框线2
 48
0.2
100
AcDbLine
 10
13.00000483182475
 20
24.00000236733649
 30
0.0
 11
13.00000483182475
 21
0.0000023673364922
 31
0.0
  0
LINE
  5
282
330
279
100
AcDbEntity
  8
外框线2
 48
0.2
100
AcDbLine
 10
11.80000483182493
 20
22.80000236733668
 30
0.0
 11
11.80000483182493
 21
0.0000023673364922
 31
0.0
  0
LINE
  5
283
330
279
100
AcDbEntity
  8
外框线2
 48
0.2
100
AcDbLine
 10
0.0000048318247536
 20
14.00000236733649
 30
0.0
 11
1.200004831824571
 21
14.00000236733649
 31
0.0
  0
LINE
  5
284
330
279
100
AcDbEntity
  8
外框线2
 48
0.2
100
AcDbLine
 10
11.80000483182493
 20
0.0000023673364922
 30
0.0
 11
13.00000483182475
 21
0.0000023673364922
 31
0.0
  0
ENDBLK
  5
285
330
279
100
AcDbEntity
  8
0
100
AcDbBlockEnd
  0
BLOCK
  5
289
330
286
100
AcDbEntity
  8
0
100
AcDbBlockBegin
  2
A$C0DCB3B93
 70
     0
 10
0.0
 20
0.0
 30
0.0
  3
A$C0DCB3B93
  1

  0
LINE
  5
28A
330
286
100
AcDbEntity
  8
外框线2
100
AcDbLine
 10
-0.0000003262339305
 20
24.00000088883826
 30
0.0
 11
929.9999996737701
 21
24.00000088883735
 31
0.0
  0
LINE
  5
28B
330
286
100
AcDbEntity
  8
外框线2
  6
HIDDENX2
 48
0.2
100
AcDbLine
 10
3.999999673766069
 20
14.00000088883826
 30
0.0
 11
925.9999996737702
 21
14.00000088883735
 31
0.0
  0
LINE
  5
28C
330
286
100
AcDbEntity
  8
外框线2
100
AcDbLine
 10
9.999999673766069
 20
0.0000008888382581
 30
0.0
 11
919.9999996737702
 21
0.0000008888373486
 31
0.0
  0
ARC
  5
28D
330
286
100
AcDbEntity
  8
外框线2
100
AcDbCircle
 10
9.999999673766069
 20
10.00000088883826
 30
0.0
 40
10.0
100
AcDbArc
 50
180.0
 51
270.0
  0
LINE
  5
28E
330
286
100
AcDbEntity
  8
外框线2
100
AcDbLine
 10
-0.0000003262339305
 20
24.00000088883826
 30
0.0
 11
-0.0000003262339305
 21
18.00000088883826
 31
0.0
  0
ARC
  5
28F
330
286
100
AcDbEntity
  8
外框线2
  6
HIDDENX2
 48
0.2
100
AcDbCircle
 10
3.999999673766069
 20
18.00000088883826
 30
0.0
 40
4.0
100
AcDbArc
 50
180.0
 51
270.0
  0
LINE
  5
290
330
286
100
AcDbEntity
  8
外框线2
100
AcDbLine
 10
-0.0000003262339305
 20
18.00000088883826
 30
0.0
 11
-0.0000003262339305
 21
10.00000088883826
 31
0.0
  0
ARC
  5
291
330
286
100
AcDbEntity
  8
外框线2
100
AcDbCircle
 10
919.9999996737702
 20
10.00000088883735
 30
0.0
 40
10.0
100
AcDbArc
 50
270.0
 51
0.0
  0
LINE
  5
292
330
286
100
AcDbEntity
  8
外框线2
100
AcDbLine
 10
929.9999996737701
 20
24.00000088883735
 30
0.0
 11
929.9999996737701
 21
18.00000088883735
 31
0.0
  0
ARC
  5
293
330
286
100
AcDbEntity
  8
外框线2
  6
HIDDENX2
 48
0.2
100
AcDbCircle
 10
925.9999996737702
 20
18.00000088883735
 30
0.0
 40
4.0
100
AcDbArc
 50
270.0
 51
0.0
  0
LINE
  5
294
330
286
100
AcDbEntity
  8
外框线2
100
AcDbLine
 10
929.9999996737701
 20
18.00000088883735
 30
0.0
 11
929.9999996737701
 21
10.00000088883735
 31
0.0
  0
LINE
  5
295
330
286
100
AcDbEntity
  8
外框线2
 48
0.2
100
AcDbLine
 10
887.4999984481906
 20
8.000000888837348
 30
0.0
 11
901.8999984481903
 21
8.000000888837348
 31
0.0
  0
ARC
  5
296
330
286
100
AcDbEntity
  8
外框线2
 48
0.2
100
AcDbCircle
 10
901.8999984481903
 20
8.30000088883753
 30
0.0
 40
0.3
100
AcDbArc
 50
270.0
 51
0.0
  0
LINE
  5
297
330
286
100
AcDbEntity
  8
外框线2
 48
0.2
100
AcDbLine
 10
887.4999984481906
 20
12.00000088883735
 30
0.0
 11
901.8999984481903
 21
12.00000088883735
 31
0.0
  0
ARC
  5
298
330
286
100
AcDbEntity
  8
外框线2
 48
0.2
100
AcDbCircle
 10
887.4999984481906
 20
11.70000088883716
 30
0.0
 40
0.3
100
AcDbArc
 50
90.0
 51
180.0
  0
LINE
  5
299
330
286
100
AcDbEntity
  8
外框线2
 48
0.2
100
AcDbLine
 10
887.1999984481904
 20
11.70000088883716
 30
0.0
 11
887.1999984481904
 21
8.30000088883753
 31
0.0
  0
ARC
  5
29A
330
286
100
AcDbEntity
  8
外框线2
 48
0.2
100
AcDbCircle
 10
887.4999984481906
 20
8.30000088883753
 30
0.0
 40
0.3
100
AcDbArc
 50
180.0
 51
270.0
  0
LINE
  5
29B
330
286
100
AcDbEntity
  8
外框线2
 48
0.2
100
AcDbLine
 10
902.1999984481904
 20
11.70000088883716
 30
0.0
 11
902.1999984481904
 21
8.30000088883753
 31
0.0
  0
ARC
  5
29C
330
286
100
AcDbEntity
  8
外框线2
 48
0.2
100
AcDbCircle
 10
901.8999984481903
 20
11.70000088883716
 30
0.0
 40
0.3
100
AcDbArc
 50
0.0
 51
90.0
  0
LINE
  5
29D
330
286
100
AcDbEntity
  8
外框线2
 48
0.2
100
AcDbLine
 10
747.4999984481906
 20
8.000000888837803
 30
0.0
 11
761.8999984481902
 21
8.000000888837803
 31
0.0
  0
ARC
  5
29E
330
286
100
AcDbEntity
  8
外框线2
 48
0.2
100
AcDbCircle
 10
761.8999984481902
 20
8.300000888837985
 30
0.0
 40
0.3
100
AcDbArc
 50
270.0
 51
0.0
  0
LINE
  5
29F
330
286
100
AcDbEntity
  8
外框线2
 48
0.2
100
AcDbLine
 10
747.4999984481906
 20
12.0000008888378
 30
0.0
 11
761.8999984481902
 21
12.0000008888378
 31
0.0
  0
ARC
  5
2A0
330
286
100
AcDbEntity
  8
外框线2
 48
0.2
100
AcDbCircle
 10
747.4999984481906
 20
11.70000088883762
 30
0.0
 40
0.3
100
AcDbArc
 50
90.0
 51
180.0
  0
LINE
  5
2A1
330
286
100
AcDbEntity
  8
外框线2
 48
0.2
100
AcDbLine
 10
747.1999984481904
 20
11.70000088883762
 30
0.0
 11
747.1999984481904
 21
8.300000888837985
 31
0.0
  0
ARC
  5
2A2
330
286
100
AcDbEntity
  8
外框线2
 48
0.2
100
AcDbCircle
 10
747.4999984481906
 20
8.300000888837985
 30
0.0
 40
0.3
100
AcDbArc
 50
180.0
 51
270.0
  0
LINE
  5
2A3
330
286
100
AcDbEntity
  8
外框线2
 48
0.2
100
AcDbLine
 10
762.1999984481903
 20
11.70000088883762
 30
0.0
 11
762.1999984481903
 21
8.300000888837985
 31
0.0
  0
ARC
  5
2A4
330
286
100
AcDbEntity
  8
外框线2
 48
0.2
100
AcDbCircle
 10
761.8999984481902
 20
11.70000088883762
 30
0.0
 40
0.3
100
AcDbArc
 50
0.0
 51
90.0
  0
LINE
  5
2A5
330
286
100
AcDbEntity
  8
外框线2
 48
0.2
100
AcDbLine
 10
597.4999984481906
 20
8.000000888837803
 30
0.0
 11
611.8999984481902
 21
8.000000888837803
 31
0.0
  0
ARC
  5
2A6
330
286
100
AcDbEntity
  8
外框线2
 48
0.2
100
AcDbCircle
 10
611.8999984481902
 20
8.300000888837985
 30
0.0
 40
0.3
100
AcDbArc
 50
270.0
 51
0.0
  0
LINE
  5
2A7
330
286
100
AcDbEntity
  8
外框线2
 48
0.2
100
AcDbLine
 10
597.4999984481906
 20
12.0000008888378
 30
0.0
 11
611.8999984481902
 21
12.0000008888378
 31
0.0
  0
ARC
  5
2A8
330
286
100
AcDbEntity
  8
外框线2
 48
0.2
100
AcDbCircle
 10
597.4999984481906
 20
11.70000088883762
 30
0.0
 40
0.3
100
AcDbArc
 50
90.0
 51
180.0
  0
LINE
  5
2A9
330
286
100
AcDbEntity
  8
外框线2
 48
0.2
100
AcDbLine
 10
597.1999984481904
 20
11.70000088883762
 30
0.0
 11
597.1999984481904
 21
8.300000888837985
 31
0.0
  0
ARC
  5
2AA
330
286
100
AcDbEntity
  8
外框线2
 48
0.2
100
AcDbCircle
 10
597.4999984481906
 20
8.300000888837985
 30
0.0
 40
0.3
100
AcDbArc
 50
180.0
 51
270.0
  0
LINE
  5
2AB
330
286
100
AcDbEntity
  8
外框线2
 48
0.2
100
AcDbLine
 10
612.1999984481903
 20
11.70000088883762
 30
0.0
 11
612.1999984481903
 21
8.300000888837985
 31
0.0
  0
ARC
  5
2AC
330
286
100
AcDbEntity
  8
外框线2
 48
0.2
100
AcDbCircle
 10
611.8999984481902
 20
11.70000088883762
 30
0.0
 40
0.3
100
AcDbArc
 50
0.0
 51
90.0
  0
LINE
  5
2AD
330
286
100
AcDbEntity
  8
外框线2
 48
0.2
100
AcDbLine
 10
471.8999984481902
 20
8.000000888837803
 30
0.0
 11
457.4999984481905
 21
8.000000888837803
 31
0.0
  0
ARC
  5
2AE
330
286
100
AcDbEntity
  8
外框线2
 48
0.2
100
AcDbCircle
 10
457.4999984481905
 20
8.300000888837985
 30
0.0
 40
0.3
100
AcDbArc
 50
180.0
 51
270.0
  0
LINE
  5
2AF
330
286
100
AcDbEntity
  8
外框线2
 48
0.2
100
AcDbLine
 10
471.8999984481902
 20
12.0000008888378
 30
0.0
 11
457.4999984481905
 21
12.0000008888378
 31
0.0
  0
ARC
  5
2B0
330
286
100
AcDbEntity
  8
外框线2
 48
0.2
100
AcDbCircle
 10
471.8999984481902
 20
11.70000088883762
 30
0.0
 40
0.3
100
AcDbArc
 50
0.0
 51
90.0
  0
LINE
  5
2B1
330
286
100
AcDbEntity
  8
外框线2
 48
0.2
100
AcDbLine
 10
472.1999984481904
 20
11.70000088883762
 30
0.0
 11
472.1999984481904
 21
8.300000888837985
 31
0.0
  0
ARC
  5
2B2
330
286
100
AcDbEntity
  8
外框线2
 48
0.2
100
AcDbCircle
 10
471.8999984481902
 20
8.300000888837985
 30
0.0
 40
0.3
100
AcDbArc
 50
270.0
 51
0.0
  0
LINE
  5
2B3
330
286
100
AcDbEntity
  8
外框线2
 48
0.2
100
AcDbLine
 10
457.1999984481903
 20
11.70000088883762
 30
0.0
 11
457.1999984481903
 21
8.300000888837985
 31
0.0
  0
ARC
  5
2B4
330
286
100
AcDbEntity
  8
外框线2
 48
0.2
100
AcDbCircle
 10
457.4999984481905
 20
11.70000088883762
 30
0.0
 40
0.3
100
AcDbArc
 50
90.0
 51
180.0
  0
LINE
  5
2B5
330
286
100
AcDbEntity
  8
外框线2
 48
0.2
100
AcDbLine
 10
41.89999844819067
 20
8.000000888838258
 30
0.0
 11
27.49999844819104
 21
8.000000888838258
 31
0.0
  0
ARC
  5
2B6
330
286
100
AcDbEntity
  8
外框线2
 48
0.2
100
AcDbCircle
 10
27.49999844819104
 20
8.30000088883844
 30
0.0
 40
0.3
100
AcDbArc
 50
180.0
 51
270.0
  0
LINE
  5
2B7
330
286
100
AcDbEntity
  8
外框线2
 48
0.2
100
AcDbLine
 10
41.89999844819067
 20
12.00000088883826
 30
0.0
 11
27.49999844819104
 21
12.00000088883826
 31
0.0
  0
ARC
  5
2B8
330
286
100
AcDbEntity
  8
外框线2
 48
0.2
100
AcDbCircle
 10
41.89999844819067
 20
11.70000088883807
 30
0.0
 40
0.3
100
AcDbArc
 50
0.0
 51
90.0
  0
LINE
  5
2B9
330
286
100
AcDbEntity
  8
外框线2
 48
0.2
100
AcDbLine
 10
42.19999844818994
 20
11.70000088883807
 30
0.0
 11
42.19999844818994
 21
8.30000088883844
 31
0.0
  0
ARC
  5
2BA
330
286
100
AcDbEntity
  8
外框线2
 48
0.2
100
AcDbCircle
 10
41.89999844819067
 20
8.30000088883844
 30
0.0
 40
0.3
100
AcDbArc
 50
270.0
 51
0.0
  0
LINE
  5
2BB
330
286
100
AcDbEntity
  8
外框线2
 48
0.2
100
AcDbLine
 10
27.19999844818995
 20
11.70000088883807
 30
0.0
 11
27.19999844818995
 21
8.30000088883844
 31
0.0
  0
ARC
  5
2BC
330
286
100
AcDbEntity
  8
外框线2
 48
0.2
100
AcDbCircle
 10
27.49999844819104
 20
11.70000088883807
 30
0.0
 40
0.3
100
AcDbArc
 50
90.0
 51
180.0
  0
LINE
  5
2BD
330
286
100
AcDbEntity
  8
外框线2
 48
0.2
100
AcDbLine
 10
181.8999984481902
 20
8.000000888838258
 30
0.0
 11
167.4999984481906
 21
8.000000888838258
 31
0.0
  0
ARC
  5
2BE
330
286
100
AcDbEntity
  8
外框线2
 48
0.2
100
AcDbCircle
 10
167.4999984481906
 20
8.30000088883844
 30
0.0
 40
0.3
100
AcDbArc
 50
180.0
 51
270.0
  0
LINE
  5
2BF
330
286
100
AcDbEntity
  8
外框线2
 48
0.2
100
AcDbLine
 10
181.8999984481902
 20
12.00000088883826
 30
0.0
 11
167.4999984481906
 21
12.00000088883826
 31
0.0
  0
ARC
  5
2C0
330
286
100
AcDbEntity
  8
外框线2
 48
0.2
100
AcDbCircle
 10
181.8999984481902
 20
11.70000088883807
 30
0.0
 40
0.3
100
AcDbArc
 50
0.0
 51
90.0
  0
LINE
  5
2C1
330
286
100
AcDbEntity
  8
外框线2
 48
0.2
100
AcDbLine
 10
182.1999984481904
 20
11.70000088883807
 30
0.0
 11
182.1999984481904
 21
8.30000088883844
 31
0.0
  0
ARC
  5
2C2
330
286
100
AcDbEntity
  8
外框线2
 48
0.2
100
AcDbCircle
 10
181.8999984481902
 20
8.30000088883844
 30
0.0
 40
0.3
100
AcDbArc
 50
270.0
 51
0.0
  0
LINE
  5
2C3
330
286
100
AcDbEntity
  8
外框线2
 48
0.2
100
AcDbLine
 10
167.1999984481904
 20
11.70000088883807
 30
0.0
 11
167.1999984481904
 21
8.30000088883844
 31
0.0
  0
ARC
  5
2C4
330
286
100
AcDbEntity
  8
外框线2
 48
0.2
100
AcDbCircle
 10
167.4999984481906
 20
11.70000088883807
 30
0.0
 40
0.3
100
AcDbArc
 50
90.0
 51
180.0
  0
LINE
  5
2C5
330
286
100
AcDbEntity
  8
外框线2
 48
0.2
100
AcDbLine
 10
331.8999984481902
 20
8.000000888837803
 30
0.0
 11
317.4999984481906
 21
8.000000888837803
 31
0.0
  0
ARC
  5
2C6
330
286
100
AcDbEntity
  8
外框线2
 48
0.2
100
AcDbCircle
 10
317.4999984481906
 20
8.300000888837985
 30
0.0
 40
0.3
100
AcDbArc
 50
180.0
 51
270.0
  0
LINE
  5
2C7
330
286
100
AcDbEntity
  8
外框线2
 48
0.2
100
AcDbLine
 10
331.8999984481902
 20
12.0000008888378
 30
0.0
 11
317.4999984481906
 21
12.0000008888378
 31
0.0
  0
ARC
  5
2C8
330
286
100
AcDbEntity
  8
外框线2
 48
0.2
100
AcDbCircle
 10
331.8999984481902
 20
11.70000088883762
 30
0.0
 40
0.3
100
AcDbArc
 50
0.0
 51
90.0
  0
LINE
  5
2C9
330
286
100
AcDbEntity
  8
外框线2
 48
0.2
100
AcDbLine
 10
332.1999984481904
 20
11.70000088883762
 30
0.0
 11
332.1999984481904
 21
8.300000888837985
 31
0.0
  0
ARC
  5
2CA
330
286
100
AcDbEntity
  8
外框线2
 48
0.2
100
AcDbCircle
 10
331.8999984481902
 20
8.300000888837985
 30
0.0
 40
0.3
100
AcDbArc
 50
270.0
 51
0.0
  0
LINE
  5
2CB
330
286
100
AcDbEntity
  8
外框线2
 48
0.2
100
AcDbLine
 10
317.1999984481904
 20
11.70000088883762
 30
0.0
 11
317.1999984481904
 21
8.300000888837985
 31
0.0
  0
ARC
  5
2CC
330
286
100
AcDbEntity
  8
外框线2
 48
0.2
100
AcDbCircle
 10
317.4999984481906
 20
11.70000088883762
 30
0.0
 40
0.3
100
AcDbArc
 50
90.0
 51
180.0
  0
ENDBLK
  5
2CD
330
286
100
AcDbEntity
  8
0
100
AcDbBlockEnd
  0
BLOCK
  5
2D1
330
2CE
100
AcDbEntity
  8
0
100
AcDbBlockBegin
  2
A$C6C715BF9
 70
     0
 10
0.0
 20
0.0
 30
0.0
  3
A$C6C715BF9
  1

  0
LWPOLYLINE
  5
2D2
330
2CE
100
AcDbEntity
  8
外框线2
 48
0.2
100
AcDbPolyline
 90
        4
 70
     1
 43
0.0
 10
0.0000176178873517
 20
73.79999555880567
 10
930.0000176178873
 20
73.79999555880567
 10
930.0000176178873
 20
-0.000004441195415
 10
0.0000176178873517
 20
-0.000004441193596
  0
LINE
  5
2D3
330
2CE
100
AcDbEntity
  8
外框线2
 48
0.2
100
AcDbLine
 10
0.0000176178873517
 20
1.199995558805312
 30
0.0
 11
930.0000176178873
 21
1.199995558805312
 31
0.0
  0
LINE
  5
2D4
330
2CE
100
AcDbEntity
  8
外框线2
 48
0.2
100
AcDbLine
 10
0.0000176178873517
 20
72.59999555880677
 30
0.0
 11
930.0000176178873
 21
72.59999555880495
 31
0.0
  0
CIRCLE
  5
2D5
330
2CE
100
AcDbEntity
  8
外框线2
 48
0.2
100
AcDbCircle
 10
590.0000176178873
 20
43.79999555880567
 30
0.0
 40
20.0
  0
ENDBLK
  5
2D6
330
2CE
100
AcDbEntity
  8
0
100
AcDbBlockEnd
  0
BLOCK
  5
63F
330
63E
100
AcDbEntity
  8
0
100
AcDbBlockBegin
  2
*D32
 70
     1
 10
0.0
 20
0.0
 30
0.0
  3
*D32
  1

  0
LINE
  5
6CC
330
63E
100
AcDbEntity
  8
标注
 62
     0
440
 16777216
370
    -2
100
AcDbLine
 10
3243.429830852074
 20
1164.956581711442
 30
0.0
 11
3227.908007821644
 21
1164.956581711442
 31
0.0
  0
LINE
  5
6CD
330
63E
100
AcDbEntity
  8
标注
 62
     0
440
 16777216
370
    -2
100
AcDbLine
 10
3275.924669759574
 20
1124.953540724215
 30
0.0
 11
3227.908007821644
 21
1124.953540724215
 31
0.0
  0
LINE
  5
6CE
330
63E
100
AcDbEntity
  8
标注
 62
     0
440
 16777216
370
    -2
100
AcDbLine
 10
3237.908007821643
 20
1152.956581711442
 30
0.0
 11
3237.908007821643
 21
1136.953540724215
 31
0.0
  0
LINE
  5
6CF
330
63E
100
AcDbEntity
  8
标注
 62
     0
440
 16777216
370
    -2
100
AcDbLine
 10
3237.908007821643
 20
1124.953540724215
 30
0.0
 11
3237.908007821643
 21
1074.540703720424
 31
0.0
  0
SOLID
  5
6D0
330
63E
100
AcDbEntity
  8
标注
 62
     0
440
 16777216
100
AcDbTrace
 10
3235.908007821644
 20
1152.956581711442
 30
0.0
 11
3239.908007821644
 21
1152.956581711442
 31
0.0
 12
3237.908007821643
 22
1164.956581711442
 32
0.0
 13
3237.908007821643
 23
1164.956581711442
 33
0.0
  0
SOLID
  5
6D1
330
63E
100
AcDbEntity
  8
标注
 62
     0
440
 16777216
100
AcDbTrace
 10
3235.908007821644
 20
1136.953540724215
 30
0.0
 11
3239.908007821644
 21
1136.953540724215
 31
0.0
 12
3237.908007821643
 22
1124.953540724215
 32
0.0
 13
3237.908007821643
 23
1124.953540724215
 33
0.0
  0
MTEXT
  5
6D2
330
63E
100
AcDbEntity
  8
标注
 62
     0
440
 16777216
100
AcDbMText
 10
3223.513464847564
 20
1093.058302629019
 30
0.0
 40
18.39999999999998
 41
0.0
 46
0.0
 71
     5
 72
     1
  1
40
 11
0.0000000000000001
 21
1.0
 31
0.0
 73
     1
 44
1.0
  0
POINT
  5
6D3
330
63E
100
AcDbEntity
  8
Defpoints
 62
     0
440
 16777216
100
AcDbPoint
 10
3248.429830852074
 20
1164.956581711442
 30
0.0
  0
POINT
  5
6D4
330
63E
100
AcDbEntity
  8
Defpoints
 62
     0
440
 16777216
100
AcDbPoint
 10
3280.924669759574
 20
1124.953540724215
 30
0.0
  0
POINT
  5
6D5
330
63E
100
AcDbEntity
  8
Defpoints
 62
     0
440
 16777216
100
AcDbPoint
 10
3237.908007821643
 20
1124.953540724215
 30
0.0
  0
ENDBLK
  5
640
330
63E
100
AcDbEntity
  8
0
100
AcDbBlockEnd
  0
BLOCK
  5
64C
330
64B
100
AcDbEntity
  8
0
100
AcDbBlockBegin
  2
*D33
 70
     1
 10
0.0
 20
0.0
 30
0.0
  3
*D33
  1

  0
LINE
  5
6F0
330
64B
100
AcDbEntity
  8
标注
 62
     0
440
 16777216
370
    -2
100
AcDbLine
 10
2989.15962267841
 20
1120.904216796604
 30
0.0
 11
2989.15962267841
 21
1063.601379063862
 31
0.0
  0
LINE
  5
6F1
330
64B
100
AcDbEntity
  8
标注
 62
     0
440
 16777216
370
    -2
100
AcDbLine
 10
3041.059622677967
 20
1120.904216796604
 30
0.0
 11
3041.059622677967
 21
1063.601379063862
 31
0.0
  0
LINE
  5
6F2
330
64B
100
AcDbEntity
  8
标注
 62
     0
440
 16777216
370
    -2
100
AcDbLine
 10
3029.059622677968
 20
1073.601379063862
 30
0.0
 11
3001.15962267841
 21
1073.601379063862
 31
0.0
  0
LINE
  5
6F3
330
64B
100
AcDbEntity
  8
标注
 62
     0
440
 16777216
370
    -2
100
AcDbLine
 10
2989.15962267841
 20
1073.601379063862
 30
0.0
 11
2805.465767929804
 21
1073.601379063862
 31
0.0
  0
SOLID
  5
6F4
330
64B
100
AcDbEntity
  8
标注
 62
     0
440
 16777216
100
AcDbTrace
 10
3029.059622677968
 20
1075.601379063861
 30
0.0
 11
3029.059622677968
 21
1071.601379063862
 31
0.0
 12
3041.059622677967
 22
1073.601379063862
 32
0.0
 13
3041.059622677967
 23
1073.601379063862
 33
0.0
  0
SOLID
  5
6F5
330
64B
100
AcDbEntity
  8
标注
 62
     0
440
 16777216
100
AcDbTrace
 10
3001.15962267841
 20
1075.601379063861
 30
0.0
 11
3001.15962267841
 21
1071.601379063862
 31
0.0
 12
2989.15962267841
 22
1073.601379063862
 32
0.0
 13
2989.15962267841
 23
1073.601379063862
 33
0.0
  0
MTEXT
  5
6F6
330
64B
100
AcDbEntity
  8
标注
 62
     0
440
 16777216
100
AcDbMText
 10
2868.235600332038
 20
1087.801379063861
 30
0.0
 40
18.39999999999998
 41
0.0
 46
0.0
 71
     5
 72
     1
  1
{\fSimSun|b0|i0|c134|p2;53.5-53.6}
 73
     1
 44
1.0
  0
POINT
  5
6F7
330
64B
100
AcDbEntity
  8
Defpoints
 62
     0
440
 16777216
100
AcDbPoint
 10
2989.15962267841
 20
1125.904216796604
 30
0.0
  0
POINT
  5
6F8
330
64B
100
AcDbEntity
  8
Defpoints
 62
     0
440
 16777216
100
AcDbPoint
 10
3041.059622677967
 20
1125.904216796604
 30
0.0
  0
POINT
  5
6F9
330
64B
100
AcDbEntity
  8
Defpoints
 62
     0
440
 16777216
100
AcDbPoint
 10
3041.059622677967
 20
1073.601379063862
 30
0.0
  0
ENDBLK
  5
64D
330
64B
100
AcDbEntity
  8
0
100
AcDbBlockEnd
  0
BLOCK
  5
659
330
658
100
AcDbEntity
  8
0
100
AcDbBlockBegin
  2
*D34
 70
     1
 10
0.0
 20
0.0
 30
0.0
  3
*D34
  1

  0
LINE
  5
6FA
330
658
100
AcDbEntity
  8
标注
 62
     0
440
 16777216
370
    -2
100
AcDbLine
 10
3254.876290394103
 20
1110.969916811992
 30
0.0
 11
3254.876290394103
 21
1037.034556209918
 31
0.0
  0
LINE
  5
6FB
330
658
100
AcDbEntity
  8
标注
 62
     0
440
 16777216
370
    -2
100
AcDbLine
 10
3306.77629039366
 20
1109.567872449429
 30
0.0
 11
3306.77629039366
 21
1037.034556209918
 31
0.0
  0
LINE
  5
6FC
330
658
100
AcDbEntity
  8
标注
 62
     0
440
 16777216
370
    -2
100
AcDbLine
 10
3266.876290394102
 20
1047.034556209918
 30
0.0
 11
3294.77629039366
 21
1047.034556209918
 31
0.0
  0
LINE
  5
6FD
330
658
100
AcDbEntity
  8
标注
 62
     0
440
 16777216
370
    -2
100
AcDbLine
 10
3306.77629039366
 20
1047.034556209918
 30
0.0
 11
3444.31595519813
 21
1047.034556209918
 31
0.0
  0
SOLID
  5
6FE
330
658
100
AcDbEntity
  8
标注
 62
     0
440
 16777216
100
AcDbTrace
 10
3266.876290394102
 20
1049.034556209918
 30
0.0
 11
3266.876290394102
 21
1045.034556209918
 31
0.0
 12
3254.876290394103
 22
1047.034556209918
 32
0.0
 13
3254.876290394103
 23
1047.034556209918
 33
0.0
  0
SOLID
  5
6FF
330
658
100
AcDbEntity
  8
标注
 62
     0
440
 16777216
100
AcDbTrace
 10
3294.77629039366
 20
1049.034556209918
 30
0.0
 11
3294.77629039366
 21
1045.034556209918
 31
0.0
 12
3306.77629039366
 22
1047.034556209918
 32
0.0
 13
3306.77629039366
 23
1047.034556209918
 33
0.0
  0
MTEXT
  5
700
330
658
100
AcDbEntity
  8
标注
 62
     0
440
 16777216
100
AcDbMText
 10
3381.546122795895
 20
1061.234556209918
 30
0.0
 40
18.39999999999998
 41
0.0
 46
0.0
 71
     5
 72
     1
  1
{\fSimSun|b0|i0|c134|p2;53.5-53.6}
 73
     1
 44
1.0
  0
POINT
  5
701
330
658
100
AcDbEntity
  8
Defpoints
 62
     0
440
 16777216
100
AcDbPoint
 10
3254.876290394103
 20
1115.969916811992
 30
0.0
  0
POINT
  5
702
330
658
100
AcDbEntity
  8
Defpoints
 62
     0
440
 16777216
100
AcDbPoint
 10
3306.77629039366
 20
1114.567872449429
 30
0.0
  0
POINT
  5
703
330
658
100
AcDbEntity
  8
Defpoints
 62
     0
440
 16777216
100
AcDbPoint
 10
3306.77629039366
 20
1047.034556209918
 30
0.0
  0
ENDBLK
  5
65A
330
658
100
AcDbEntity
  8
0
100
AcDbBlockEnd
  0
BLOCK
  5
666
330
665
100
AcDbEntity
  8
0
100
AcDbBlockBegin
  2
*D35
 70
     1
 10
0.0
 20
0.0
 30
0.0
  3
*D35
  1

  0
LINE
  5
668
330
665
100
AcDbEntity
  8
标注
 62
     0
440
 16777216
370
    -2
100
AcDbLine
 10
3445.924669759574
 20
1779.917825107063
 30
0.0
 11
3533.146852270228
 21
1779.917825107063
 31
0.0
  0
LINE
  5
669
330
665
100
AcDbEntity
  8
标注
 62
     0
440
 16777216
370
    -2
100
AcDbLine
 10
3445.924669759574
 20
1379.917825107063
 30
0.0
 11
3533.146852270228
 21
1379.917825107063
 31
0.0
  0
LINE
  5
66A
330
665
100
AcDbEntity
  8
标注
 62
     0
440
 16777216
370
    -2
100
AcDbLine
 10
3523.146852270228
 20
1767.917825107063
 30
0.0
 11
3523.146852270228
 21
1391.917825107063
 31
0.0
  0
SOLID
  5
66B
330
665
100
AcDbEntity
  8
标注
 62
     0
440
 16777216
100
AcDbTrace
 10
3521.146852270228
 20
1767.917825107063
 30
0.0
 11
3525.146852270228
 21
1767.917825107063
 31
0.0
 12
3523.146852270228
 22
1779.917825107063
 32
0.0
 13
3523.146852270228
 23
1779.917825107063
 33
0.0
  0
SOLID
  5
66C
330
665
100
AcDbEntity
  8
标注
 62
     0
440
 16777216
100
AcDbTrace
 10
3521.146852270228
 20
1391.917825107063
 30
0.0
 11
3525.146852270228
 21
1391.917825107063
 31
0.0
 12
3523.146852270228
 22
1379.917825107063
 32
0.0
 13
3523.146852270228
 23
1379.917825107063
 33
0.0
  0
MTEXT
  5
66D
330
665
100
AcDbEntity
  8
标注
 62
     0
440
 16777216
100
AcDbMText
 10
3508.752309296148
 20
1579.917825107078
 30
0.0
 40
18.39999999999998
 41
0.0
 46
0.0
 71
     5
 72
     1
  1
400
 11
0.0000000000000001
 21
1.0
 31
0.0
 73
     1
 44
1.0
  0
POINT
  5
66E
330
665
100
AcDbEntity
  8
Defpoints
 62
     0
440
 16777216
100
AcDbPoint
 10
3440.924669759573
 20
1779.917825107063
 30
0.0
  0
POINT
  5
66F
330
665
100
AcDbEntity
  8
Defpoints
 62
     0
440
 16777216
100
AcDbPoint
 10
3440.924669759573
 20
1379.917825107063
 30
0.0
  0
POINT
  5
670
330
665
100
AcDbEntity
  8
Defpoints
 62
     0
440
 16777216
100
AcDbPoint
 10
3523.146852270228
 20
1379.917825107063
 30
0.0
  0
ENDBLK
  5
667
330
665
100
AcDbEntity
  8
0
100
AcDbBlockEnd
  0
BLOCK
  5
672
330
671
100
AcDbEntity
  8
0
100
AcDbBlockBegin
  2
*D36
 70
     1
 10
0.0
 20
0.0
 30
0.0
  3
*D36
  1

  0
LINE
  5
674
330
671
100
AcDbEntity
  8
标注
 62
     0
440
 16777216
370
    -2
100
AcDbLine
 10
3485.924669759574
 20
1164.956581711442
 30
0.0
 11
3580.022601200261
 21
1164.956581711442
 31
0.0
  0
LINE
  5
675
330
671
100
AcDbEntity
  8
标注
 62
     0
440
 16777216
370
    -2
100
AcDbLine
 10
3445.924669759574
 20
979.9565817114425
 30
0.0
 11
3580.022601200261
 21
979.9565817114425
 31
0.0
  0
LINE
  5
676
330
671
100
AcDbEntity
  8
标注
 62
     0
440
 16777216
370
    -2
100
AcDbLine
 10
3570.022601200261
 20
1152.956581711442
 30
0.0
 11
3570.02260120026
 21
991.9565817114426
 31
0.0
  0
SOLID
  5
677
330
671
100
AcDbEntity
  8
标注
 62
     0
440
 16777216
100
AcDbTrace
 10
3568.022601200261
 20
1152.956581711442
 30
0.0
 11
3572.022601200262
 21
1152.956581711442
 31
0.0
 12
3570.022601200261
 22
1164.956581711442
 32
0.0
 13
3570.022601200261
 23
1164.956581711442
 33
0.0
  0
SOLID
  5
678
330
671
100
AcDbEntity
  8
标注
 62
     0
440
 16777216
100
AcDbTrace
 10
3568.022601200261
 20
991.9565817114426
 30
0.0
 11
3572.022601200261
 21
991.9565817114426
 31
0.0
 12
3570.02260120026
 22
979.9565817114425
 32
0.0
 13
3570.02260120026
 23
979.9565817114425
 33
0.0
  0
MTEXT
  5
679
330
671
100
AcDbEntity
  8
标注
 62
     0
440
 16777216
100
AcDbMText
 10
3555.628058226182
 20
1084.349781056612
 30
0.0
 40
18.39999999999998
 41
0.0
 46
0.0
 71
     5
 72
     1
  1
185
 11
0.0000000000000001
 21
1.0
 31
0.0
 73
     1
 44
1.0
  0
POINT
  5
67A
330
671
100
AcDbEntity
  8
Defpoints
 62
     0
440
 16777216
100
AcDbPoint
 10
3480.924669759574
 20
1164.956581711442
 30
0.0
  0
POINT
  5
67B
330
671
100
AcDbEntity
  8
Defpoints
 62
     0
440
 16777216
100
AcDbPoint
 10
3440.924669759573
 20
979.9565817114425
 30
0.0
  0
POINT
  5
67C
330
671
100
AcDbEntity
  8
Defpoints
 62
     0
440
 16777216
100
AcDbPoint
 10
3570.02260120026
 20
979.9565817114425
 30
0.0
  0
ENDBLK
  5
673
330
671
100
AcDbEntity
  8
0
100
AcDbBlockEnd
  0
BLOCK
  5
67E
330
67D
100
AcDbEntity
  8
0
100
AcDbBlockBegin
  2
*D37
 70
     1
 10
0.0
 20
0.0
 30
0.0
  3
*D37
  1

  0
LINE
  5
680
330
67D
100
AcDbEntity
  8
标注
 62
     0
440
 16777216
370
    -2
100
AcDbLine
 10
2915.924669759574
 20
1164.956581711442
 30
0.0
 11
2714.787676042638
 21
1164.956581711442
 31
0.0
  0
LINE
  5
681
330
67D
100
AcDbEntity
  8
标注
 62
     0
440
 16777216
370
    -2
100
AcDbLine
 10
2945.924669759574
 20
1034.956581711442
 30
0.0
 11
2714.787676042638
 21
1034.956581711442
 31
0.0
  0
LINE
  5
682
330
67D
100
AcDbEntity
  8
标注
 62
     0
440
 16777216
370
    -2
100
AcDbLine
 10
2724.787676042638
 20
1152.956581711442
 30
0.0
 11
2724.787676042638
 21
1046.956581711443
 31
0.0
  0
SOLID
  5
683
330
67D
100
AcDbEntity
  8
标注
 62
     0
440
 16777216
100
AcDbTrace
 10
2722.787676042638
 20
1152.956581711442
 30
0.0
 11
2726.787676042638
 21
1152.956581711442
 31
0.0
 12
2724.787676042638
 22
1164.956581711442
 32
0.0
 13
2724.787676042638
 23
1164.956581711442
 33
0.0
  0
SOLID
  5
684
330
67D
100
AcDbEntity
  8
标注
 62
     0
440
 16777216
100
AcDbTrace
 10
2722.787676042638
 20
1046.956581711443
 30
0.0
 11
2726.787676042638
 21
1046.956581711443
 31
0.0
 12
2724.787676042638
 22
1034.956581711442
 32
0.0
 13
2724.787676042638
 23
1034.956581711442
 33
0.0
  0
MTEXT
  5
685
330
67D
100
AcDbEntity
  8
标注
 62
     0
440
 16777216
100
AcDbMText
 10
2710.386857488749
 20
1088.069575681345
 30
0.0
 40
18.39999999999998
 41
0.0
 46
0.0
 71
     5
 72
     1
  1
130
 11
0.0000000000000001
 21
1.0
 31
0.0
 73
     1
 44
1.0
  0
POINT
  5
686
330
67D
100
AcDbEntity
  8
Defpoints
 62
     0
440
 16777216
100
AcDbPoint
 10
2920.924669759574
 20
1164.956581711442
 30
0.0
  0
POINT
  5
687
330
67D
100
AcDbEntity
  8
Defpoints
 62
     0
440
 16777216
100
AcDbPoint
 10
2950.924669759574
 20
1034.956581711442
 30
0.0
  0
POINT
  5
688
330
67D
100
AcDbEntity
  8
Defpoints
 62
     0
440
 16777216
100
AcDbPoint
 10
2724.787676042638
 20
1034.956581711442
 30
0.0
  0
ENDBLK
  5
67F
330
67D
100
AcDbEntity
  8
0
100
AcDbBlockEnd
  0
BLOCK
  5
68A
330
689
100
AcDbEntity
  8
0
100
AcDbBlockBegin
  2
*D38
 70
     1
 10
0.0
 20
0.0
 30
0.0
  3
*D38
  1

  0
LINE
  5
68C
330
689
100
AcDbEntity
  8
标注
 62
     0
440
 16777216
370
    -2
100
AcDbLine
 10
3285.924669759574
 20
1659.917825107078
 30
0.0
 11
3366.86924568726
 21
1659.917825107078
 31
0.0
  0
LINE
  5
68D
330
689
100
AcDbEntity
  8
标注
 62
     0
440
 16777216
370
    -2
100
AcDbLine
 10
3285.924669759574
 20
1779.917825107063
 30
0.0
 11
3366.86924568726
 21
1779.917825107063
 31
0.0
  0
LINE
  5
68E
330
689
100
AcDbEntity
  8
标注
 62
     0
440
 16777216
370
    -2
100
AcDbLine
 10
3356.86924568726
 20
1671.917825107078
 30
0.0
 11
3356.86924568726
 21
1767.917825107063
 31
0.0
  0
SOLID
  5
68F
330
689
100
AcDbEntity
  8
标注
 62
     0
440
 16777216
100
AcDbTrace
 10
3354.86924568726
 20
1671.917825107078
 30
0.0
 11
3358.86924568726
 21
1671.917825107078
 31
0.0
 12
3356.86924568726
 22
1659.917825107078
 32
0.0
 13
3356.86924568726
 23
1659.917825107078
 33
0.0
  0
SOLID
  5
690
330
689
100
AcDbEntity
  8
标注
 62
     0
440
 16777216
100
AcDbTrace
 10
3354.86924568726
 20
1767.917825107063
 30
0.0
 11
3358.86924568726
 21
1767.917825107063
 31
0.0
 12
3356.86924568726
 22
1779.917825107063
 32
0.0
 13
3356.86924568726
 23
1779.917825107063
 33
0.0
  0
MTEXT
  5
691
330
689
100
AcDbEntity
  8
标注
 62
     0
440
 16777216
100
AcDbMText
 10
3342.47470271318
 20
1719.917825107122
 30
0.0
 40
18.39999999999998
 41
0.0
 46
0.0
 71
     5
 72
     1
  1
120
 11
0.0000000000000001
 21
1.0
 31
0.0
 73
     1
 44
1.0
  0
POINT
  5
692
330
689
100
AcDbEntity
  8
Defpoints
 62
     0
440
 16777216
100
AcDbPoint
 10
3280.924669759574
 20
1659.917825107078
 30
0.0
  0
POINT
  5
693
330
689
100
AcDbEntity
  8
Defpoints
 62
     0
440
 16777216
100
AcDbPoint
 10
3280.924669759574
 20
1779.917825107063
 30
0.0
  0
POINT
  5
694
330
689
100
AcDbEntity
  8
Defpoints
 62
     0
440
 16777216
100
AcDbPoint
 10
3356.86924568726
 20
1779.917825107063
 30
0.0
  0
ENDBLK
  5
68B
330
689
100
AcDbEntity
  8
0
100
AcDbBlockEnd
  0
BLOCK
  5
696
330
695
100
AcDbEntity
  8
0
100
AcDbBlockBegin
  2
*D39
 70
     1
 10
0.0
 20
0.0
 30
0.0
  3
*D39
  1

  0
LINE
  5
77E
330
695
100
AcDbEntity
  8
标注
 62
     0
440
 16777216
370
    -2
100
AcDbLine
 10
3366.581812273897
 20
1436.824595212836
 30
0.0
 11
3422.318648680292
 21
1401.657330190214
 31
0.0
  0
MTEXT
  5
77F
330
695
100
AcDbEntity
  8
标注
 62
     0
440
 16777216
100
AcDbMText
 10
3397.056988837919
 20
1434.616517269764
 30
0.0
 40
18.39999999999998
 41
0.0
 46
0.0
 71
     5
 72
     1
  1
R10
 11
0.8457282308764533
 21
-0.5336138674159289
 31
0.0
 73
     1
 44
1.0
  0
LINE
  5
780
330
695
100
AcDbEntity
  8
标注
 62
     0
440
 16777216
370
    -2
100
AcDbLine
 10
3440.924669759573
 20
1389.917825107064
 30
0.0
 11
3432.46738745081
 21
1395.253963781223
 31
0.0
  0
SOLID
  5
781
330
695
100
AcDbEntity
  8
标注
 62
     0
440
 16777216
100
AcDbTrace
 10
3423.385876415124
 20
1403.348786651967
 30
0.0
 11
3421.25142094546
 21
1399.965873728461
 31
0.0
 12
3432.46738745081
 22
1395.253963781223
 32
0.0
 13
3432.46738745081
 23
1395.253963781223
 33
0.0
  0
ARC
  5
782
330
695
100
AcDbEntity
  8
标注
 62
     0
440
 16777216
370
    -2
100
AcDbCircle
 10
3440.924669759573
 20
1389.917825107064
 30
0.0
 40
10.00000000000045
100
AcDbArc
 50
90.45426442101428
 51
241.3521102434601
  0
POINT
  5
783
330
695
100
AcDbEntity
  8
Defpoints
 62
     0
440
 16777216
100
AcDbPoint
 10
3432.46738745081
 20
1395.253963781223
 30
0.0
  0
POINT
  5
784
330
695
100
AcDbEntity
  8
Defpoints
 62
     0
440
 16777216
100
AcDbPoint
 10
3440.924669759573
 20
1389.917825107064
 30
0.0
  0
ENDBLK
  5
697
330
695
100
AcDbEntity
  8
0
100
AcDbBlockEnd
  0
BLOCK
  5
6A0
330
69F
100
AcDbEntity
  8
0
100
AcDbBlockBegin
  2
*D40
 70
     1
 10
0.0
 20
0.0
 30
0.0
  3
*D40
  1

  0
LINE
  5
777
330
69F
100
AcDbEntity
  8
标注
 62
     0
440
 16777216
370
    -2
100
AcDbLine
 10
3007.748669863945
 20
1438.624894205541
 30
0.0
 11
3062.610681804278
 21
1402.107896688997
 31
0.0
  0
MTEXT
  5
778
330
69F
100
AcDbEntity
  8
标注
 62
     0
440
 16777216
100
AcDbMText
 10
3038.160884084635
 20
1435.673755271864
 30
0.0
 40
18.39999999999998
 41
0.0
 46
0.0
 71
     5
 72
     1
  1
R10
 11
0.8324539979685193
 21
-0.5540941628155168
 31
0.0
 73
     1
 44
1.0
  0
LINE
  5
779
330
69F
100
AcDbEntity
  8
标注
 62
     0
440
 16777216
370
    -2
100
AcDbLine
 10
3080.924669759574
 20
1389.917825107063
 30
0.0
 11
3072.600129779901
 21
1395.45876673521
 31
0.0
  0
SOLID
  5
77A
330
69F
100
AcDbEntity
  8
标注
 62
     0
440
 16777216
100
AcDbTrace
 10
3063.718870129909
 20
1403.772804684933
 30
0.0
 11
3061.502493478647
 21
1400.44298869306
 31
0.0
 12
3072.600129779901
 22
1395.45876673521
 32
0.0
 13
3072.600129779901
 23
1395.45876673521
 33
0.0
  0
ARC
  5
77B
330
69F
100
AcDbEntity
  8
标注
 62
     0
440
 16777216
370
    -2
100
AcDbCircle
 10
3080.924669759574
 20
1389.917825107063
 30
0.0
 40
9.999999999985902
100
AcDbArc
 50
89.05587487800161
 51
241.3521102434184
  0
POINT
  5
77C
330
69F
100
AcDbEntity
  8
Defpoints
 62
     0
440
 16777216
100
AcDbPoint
 10
3072.600129779901
 20
1395.45876673521
 30
0.0
  0
POINT
  5
77D
330
69F
100
AcDbEntity
  8
Defpoints
 62
     0
440
 16777216
100
AcDbPoint
 10
3080.924669759574
 20
1389.917825107063
 30
0.0
  0
ENDBLK
  5
6A1
330
69F
100
AcDbEntity
  8
0
100
AcDbBlockEnd
  0
BLOCK
  5
6AA
330
6A9
100
AcDbEntity
  8
0
100
AcDbBlockBegin
  2
*D41
 70
     1
 10
0.0
 20
0.0
 30
0.0
  3
*D41
  1

  0
LINE
  5
6AC
330
6A9
100
AcDbEntity
  8
标注
 62
     0
440
 16777216
370
    -2
100
AcDbLine
 10
3475.924669759574
 20
1349.917825107078
 30
0.0
 11
3575.744559438135
 21
1349.917825107078
 31
0.0
  0
LINE
  5
6AD
330
6A9
100
AcDbEntity
  8
标注
 62
     0
440
 16777216
370
    -2
100
AcDbLine
 10
3485.924669759574
 20
1869.917825107063
 30
0.0
 11
3575.744559438135
 21
1869.917825107063
 31
0.0
  0
LINE
  5
6AE
330
6A9
100
AcDbEntity
  8
标注
 62
     0
440
 16777216
370
    -2
100
AcDbLine
 10
3565.744559438135
 20
1361.917825107078
 30
0.0
 11
3565.744559438135
 21
1857.917825107063
 31
0.0
  0
SOLID
  5
6AF
330
6A9
100
AcDbEntity
  8
标注
 62
     0
440
 16777216
100
AcDbTrace
 10
3563.744559438136
 20
1361.917825107078
 30
0.0
 11
3567.744559438136
 21
1361.917825107078
 31
0.0
 12
3565.744559438135
 22
1349.917825107078
 32
0.0
 13
3565.744559438135
 23
1349.917825107078
 33
0.0
  0
SOLID
  5
6B0
330
6A9
100
AcDbEntity
  8
标注
 62
     0
440
 16777216
100
AcDbTrace
 10
3563.744559438136
 20
1857.917825107063
 30
0.0
 11
3567.744559438136
 21
1857.917825107063
 31
0.0
 12
3565.744559438135
 22
1869.917825107063
 32
0.0
 13
3565.744559438135
 23
1869.917825107063
 33
0.0
  0
MTEXT
  5
6B1
330
6A9
100
AcDbEntity
  8
标注
 62
     0
440
 16777216
100
AcDbMText
 10
3551.350016464056
 20
1609.917825107071
 30
0.0
 40
18.39999999999998
 41
0.0
 46
0.0
 71
     5
 72
     1
  1
520
 11
0.0000000000000001
 21
1.0
 31
0.0
 73
     1
 44
1.0
  0
POINT
  5
6B2
330
6A9
100
AcDbEntity
  8
Defpoints
 62
     0
440
 16777216
100
AcDbPoint
 10
3470.924669759574
 20
1349.917825107078
 30
0.0
  0
POINT
  5
6B3
330
6A9
100
AcDbEntity
  8
Defpoints
 62
     0
440
 16777216
100
AcDbPoint
 10
3480.924669759574
 20
1869.917825107063
 30
0.0
  0
POINT
  5
6B4
330
6A9
100
AcDbEntity
  8
Defpoints
 62
     0
440
 16777216
100
AcDbPoint
 10
3565.744559438135
 20
1869.917825107063
 30
0.0
  0
ENDBLK
  5
6AB
330
6A9
100
AcDbEntity
  8
0
100
AcDbBlockEnd
  0
BLOCK
  5
6B6
330
6B5
100
AcDbEntity
  8
0
100
AcDbBlockBegin
  2
*D42
 70
     1
 10
0.0
 20
0.0
 30
0.0
  3
*D42
  1

  0
LINE
  5
6B8
330
6B5
100
AcDbEntity
  8
标注
 62
     0
440
 16777216
370
    -2
100
AcDbLine
 10
3105.924669759574
 20
1824.917825107063
 30
0.0
 11
3148.900388361181
 21
1824.917825107063
 31
0.0
  0
LINE
  5
6B9
330
6B5
100
AcDbEntity
  8
标注
 62
     0
440
 16777216
370
    -2
100
AcDbLine
 10
3125.924669759573
 20
1779.917825107063
 30
0.0
 11
3148.900388361181
 21
1779.917825107063
 31
0.0
  0
LINE
  5
6BA
330
6B5
100
AcDbEntity
  8
标注
 62
     0
440
 16777216
370
    -2
100
AcDbLine
 10
3138.900388361181
 20
1812.917825107063
 30
0.0
 11
3138.900388361181
 21
1791.917825107063
 31
0.0
  0
SOLID
  5
6BB
330
6B5
100
AcDbEntity
  8
标注
 62
     0
440
 16777216
100
AcDbTrace
 10
3136.900388361181
 20
1812.917825107063
 30
0.0
 11
3140.900388361181
 21
1812.917825107063
 31
0.0
 12
3138.900388361181
 22
1824.917825107063
 32
0.0
 13
3138.900388361181
 23
1824.917825107063
 33
0.0
  0
SOLID
  5
6BC
330
6B5
100
AcDbEntity
  8
标注
 62
     0
440
 16777216
100
AcDbTrace
 10
3136.900388361181
 20
1791.917825107063
 30
0.0
 11
3140.900388361181
 21
1791.917825107063
 31
0.0
 12
3138.900388361181
 22
1779.917825107063
 32
0.0
 13
3138.900388361181
 23
1779.917825107063
 33
0.0
  0
MTEXT
  5
6BD
330
6B5
100
AcDbEntity
  8
标注
 62
     0
440
 16777216
100
AcDbMText
 10
3124.543498865956
 20
1802.417825107078
 30
0.0
 40
18.39999999999998
 41
0.0
 46
0.0
 71
     5
 72
     1
  1
45
 11
0.0000000000000001
 21
1.0
 31
0.0
 73
     1
 44
1.0
  0
POINT
  5
6BE
330
6B5
100
AcDbEntity
  8
Defpoints
 62
     0
440
 16777216
100
AcDbPoint
 10
3100.924669759574
 20
1824.917825107063
 30
0.0
  0
POINT
  5
6BF
330
6B5
100
AcDbEntity
  8
Defpoints
 62
     0
440
 16777216
100
AcDbPoint
 10
3120.924669759574
 20
1779.917825107063
 30
0.0
  0
POINT
  5
6C0
330
6B5
100
AcDbEntity
  8
Defpoints
 62
     0
440
 16777216
100
AcDbPoint
 10
3138.900388361181
 20
1779.917825107063
 30
0.0
  0
ENDBLK
  5
6B7
330
6B5
100
AcDbEntity
  8
0
100
AcDbBlockEnd
  0
BLOCK
  5
6C2
330
6C1
100
AcDbEntity
  8
0
100
AcDbBlockBegin
  2
*D43
 70
     1
 10
0.0
 20
0.0
 30
0.0
  3
*D43
  1

  0
LINE
  5
78B
330
6C1
100
AcDbEntity
  8
标注
 62
     0
440
 16777216
370
    -2
100
AcDbLine
 10
3005.359752430874
 20
1803.141509814128
 30
0.0
 11
3072.161963674683
 21
1818.36368605802
 31
0.0
  0
LINE
  5
78C
330
6C1
100
AcDbEntity
  8
标注
 62
     0
440
 16777216
370
    -2
100
AcDbLine
 10
3129.68737584446
 20
1831.471964156106
 30
0.0
 11
3141.387459675602
 21
1834.138054616733
 31
0.0
  0
MTEXT
  5
78D
102
{ACAD_XDICTIONARY
360
7F1
102
}
330
6C1
100
AcDbEntity
  8
标注
 62
     0
440
 16777216
100
AcDbMText
 10
3029.598389694515
 20
1823.956068865407
 30
0.0
 40
18.39999999999998
 41
0.0
 46
0.0
 71
     5
 72
     1
  1
∅35
 11
0.9750069859284979
 21
0.2221742050523102
 31
0.0
 73
     1
 44
1.0
  0
LINE
  5
78E
330
6C1
100
AcDbEntity
  8
标注
 62
     0
440
 16777216
370
    -2
100
AcDbLine
 10
3117.987292013318
 20
1828.805873695478
 30
0.0
 11
3083.862047505826
 21
1821.029776518648
 31
0.0
  0
SOLID
  5
78F
330
6C1
100
AcDbEntity
  8
标注
 62
     0
440
 16777216
100
AcDbTrace
 10
3129.243027434356
 20
1833.421978127963
 30
0.0
 11
3130.131724254565
 21
1829.521950184249
 31
0.0
 12
3117.987292013318
 22
1828.805873695478
 32
0.0
 13
3117.987292013318
 23
1828.805873695478
 33
0.0
  0
SOLID
  5
790
330
6C1
100
AcDbEntity
  8
标注
 62
     0
440
 16777216
100
AcDbTrace
 10
3071.717615264578
 20
1820.313700029877
 30
0.0
 11
3072.606312084788
 21
1816.413672086163
 31
0.0
 12
3083.862047505826
 22
1821.029776518648
 32
0.0
 13
3083.862047505826
 23
1821.029776518648
 33
0.0
  0
POINT
  5
791
330
6C1
100
AcDbEntity
  8
Defpoints
 62
     0
440
 16777216
100
AcDbPoint
 10
3083.862047505826
 20
1821.029776518648
 30
0.0
  0
POINT
  5
792
330
6C1
100
AcDbEntity
  8
Defpoints
 62
     0
440
 16777216
100
AcDbPoint
 10
3117.987292013318
 20
1828.805873695478
 30
0.0
  0
ENDBLK
  5
6C3
330
6C1
100
AcDbEntity
  8
0
100
AcDbBlockEnd
  0
BLOCK
  5
6D7
330
6D6
100
AcDbEntity
  8
0
100
AcDbBlockBegin
  2
*D44
 70
     1
 10
0.0
 20
0.0
 30
0.0
  3
*D44
  1

  0
LINE
  5
6D9
330
6D6
100
AcDbEntity
  8
标注
 62
     0
440
 16777216
370
    -2
100
AcDbLine
 10
3090.924669759574
 20
1574.917825107063
 30
0.0
 11
3090.924669759574
 21
1514.815164513967
 31
0.0
  0
LINE
  5
6DA
330
6D6
100
AcDbEntity
  8
标注
 62
     0
440
 16777216
370
    -2
100
AcDbLine
 10
3110.924669759574
 20
1574.917825107063
 30
0.0
 11
3110.924669759574
 21
1514.815164513967
 31
0.0
  0
LINE
  5
6DB
330
6D6
100
AcDbEntity
  8
标注
 62
     0
440
 16777216
370
    -2
100
AcDbLine
 10
3122.924669759574
 20
1524.815164513967
 30
0.0
 11
3134.924669759574
 21
1524.815164513967
 31
0.0
  0
LINE
  5
6DC
330
6D6
100
AcDbEntity
  8
标注
 62
     0
440
 16777216
370
    -2
100
AcDbLine
 10
3078.924669759574
 20
1524.815164513967
 30
0.0
 11
3028.725202469231
 21
1524.815164513967
 31
0.0
  0
LINE
  5
6DD
330
6D6
100
AcDbEntity
  8
标注
 62
     0
440
 16777216
370
    -2
100
AcDbLine
 10
3110.924669759574
 20
1524.815164513967
 30
0.0
 11
3090.924669759574
 21
1524.815164513967
 31
0.0
  0
SOLID
  5
6DE
330
6D6
100
AcDbEntity
  8
标注
 62
     0
440
 16777216
100
AcDbTrace
 10
3122.924669759574
 20
1526.815164513967
 30
0.0
 11
3122.924669759574
 21
1522.815164513967
 31
0.0
 12
3110.924669759574
 22
1524.815164513967
 32
0.0
 13
3110.924669759574
 23
1524.815164513967
 33
0.0
  0
SOLID
  5
6DF
330
6D6
100
AcDbEntity
  8
标注
 62
     0
440
 16777216
100
AcDbTrace
 10
3078.924669759574
 20
1526.815164513967
 30
0.0
 11
3078.924669759574
 21
1522.815164513967
 31
0.0
 12
3090.924669759574
 22
1524.815164513967
 32
0.0
 13
3090.924669759574
 23
1524.815164513967
 33
0.0
  0
MTEXT
  5
6E0
330
6D6
100
AcDbEntity
  8
标注
 62
     0
440
 16777216
100
AcDbMText
 10
3047.02943166432
 20
1539.209707488046
 30
0.0
 40
18.39999999999998
 41
0.0
 46
0.0
 71
     5
 72
     1
  1
20
 73
     1
 44
1.0
  0
POINT
  5
6E1
330
6D6
100
AcDbEntity
  8
Defpoints
 62
     0
440
 16777216
100
AcDbPoint
 10
3090.924669759574
 20
1579.917825107063
 30
0.0
  0
POINT
  5
6E2
330
6D6
100
AcDbEntity
  8
Defpoints
 62
     0
440
 16777216
100
AcDbPoint
 10
3110.924669759574
 20
1579.917825107063
 30
0.0
  0
POINT
  5
6E3
330
6D6
100
AcDbEntity
  8
Defpoints
 62
     0
440
 16777216
100
AcDbPoint
 10
3110.924669759574
 20
1524.815164513967
 30
0.0
  0
ENDBLK
  5
6D8
330
6D6
100
AcDbEntity
  8
0
100
AcDbBlockEnd
  0
BLOCK
  5
6E5
330
6E4
100
AcDbEntity
  8
0
100
AcDbBlockBegin
  2
*D45
 70
     1
 10
0.0
 20
0.0
 30
0.0
  3
*D45
  1

  0
LINE
  5
6E7
330
6E4
100
AcDbEntity
  8
标注
 62
     0
440
 16777216
370
    -2
100
AcDbLine
 10
3010.924669759574
 20
1659.917825107092
 30
0.0
 11
2970.254503444762
 21
1659.917825107092
 31
0.0
  0
LINE
  5
6E8
330
6E4
100
AcDbEntity
  8
标注
 62
     0
440
 16777216
370
    -2
100
AcDbLine
 10
3010.924669759574
 20
1779.917825107063
 30
0.0
 11
2970.254503444762
 21
1779.917825107063
 31
0.0
  0
LINE
  5
6E9
330
6E4
100
AcDbEntity
  8
标注
 62
     0
440
 16777216
370
    -2
100
AcDbLine
 10
2980.254503444761
 20
1671.917825107092
 30
0.0
 11
2980.254503444761
 21
1767.917825107063
 31
0.0
  0
SOLID
  5
6EA
330
6E4
100
AcDbEntity
  8
标注
 62
     0
440
 16777216
100
AcDbTrace
 10
2978.254503444761
 20
1671.917825107092
 30
0.0
 11
2982.254503444762
 21
1671.917825107092
 31
0.0
 12
2980.254503444761
 22
1659.917825107092
 32
0.0
 13
2980.254503444761
 23
1659.917825107092
 33
0.0
  0
SOLID
  5
6EB
330
6E4
100
AcDbEntity
  8
标注
 62
     0
440
 16777216
100
AcDbTrace
 10
2978.254503444761
 20
1767.917825107063
 30
0.0
 11
2982.254503444762
 21
1767.917825107063
 31
0.0
 12
2980.254503444761
 22
1779.917825107063
 32
0.0
 13
2980.254503444761
 23
1779.917825107063
 33
0.0
  0
MTEXT
  5
6EC
330
6E4
100
AcDbEntity
  8
标注
 62
     0
440
 16777216
100
AcDbMText
 10
2965.859960470682
 20
1719.917825107078
 30
0.0
 40
18.39999999999998
 41
0.0
 46
0.0
 71
     5
 72
     1
  1
120
 11
0.0000000000000001
 21
1.0
 31
0.0
 73
     1
 44
1.0
  0
POINT
  5
6ED
330
6E4
100
AcDbEntity
  8
Defpoints
 62
     0
440
 16777216
100
AcDbPoint
 10
3015.924669759574
 20
1659.917825107092
 30
0.0
  0
POINT
  5
6EE
330
6E4
100
AcDbEntity
  8
Defpoints
 62
     0
440
 16777216
100
AcDbPoint
 10
3015.924669759574
 20
1779.917825107063
 30
0.0
  0
POINT
  5
6EF
330
6E4
100
AcDbEntity
  8
Defpoints
 62
     0
440
 16777216
100
AcDbPoint
 10
2980.254503444761
 20
1779.917825107063
 30
0.0
  0
ENDBLK
  5
6E6
330
6E4
100
AcDbEntity
  8
0
100
AcDbBlockEnd
  0
BLOCK
  5
705
330
704
100
AcDbEntity
  8
0
100
AcDbBlockBegin
  2
*D46
 70
     1
 10
0.0
 20
0.0
 30
0.0
  3
*D46
  1

  0
LINE
  5
707
330
704
100
AcDbEntity
  8
标注
 62
     0
440
 16777216
370
    -2
100
AcDbLine
 10
3020.924669759516
 20
1124.956581711442
 30
0.0
 11
3075.655623480671
 21
1124.956581711442
 31
0.0
  0
LINE
  5
708
330
704
100
AcDbEntity
  8
标注
 62
     0
440
 16777216
370
    -2
100
AcDbLine
 10
3020.924669759516
 20
1164.956581711442
 30
0.0
 11
3075.655623480671
 21
1164.956581711442
 31
0.0
  0
LINE
  5
709
330
704
100
AcDbEntity
  8
标注
 62
     0
440
 16777216
370
    -2
100
AcDbLine
 10
3065.655623480671
 20
1136.956581711442
 30
0.0
 11
3065.655623480671
 21
1152.956581711442
 31
0.0
  0
SOLID
  5
70A
330
704
100
AcDbEntity
  8
标注
 62
     0
440
 16777216
100
AcDbTrace
 10
3063.65562348067
 20
1136.956581711442
 30
0.0
 11
3067.65562348067
 21
1136.956581711442
 31
0.0
 12
3065.655623480671
 22
1124.956581711442
 32
0.0
 13
3065.655623480671
 23
1124.956581711442
 33
0.0
  0
SOLID
  5
70B
330
704
100
AcDbEntity
  8
标注
 62
     0
440
 16777216
100
AcDbTrace
 10
3063.65562348067
 20
1152.956581711442
 30
0.0
 11
3067.65562348067
 21
1152.956581711442
 31
0.0
 12
3065.655623480671
 22
1164.956581711442
 32
0.0
 13
3065.655623480671
 23
1164.956581711442
 33
0.0
  0
MTEXT
  5
70C
330
704
100
AcDbEntity
  8
标注
 62
     0
440
 16777216
100
AcDbMText
 10
3051.261080506591
 20
1144.956581711443
 30
0.0
 40
18.39999999999998
 41
0.0
 46
0.0
 71
     5
 72
     1
  1
40
 11
0.0000000000000001
 21
1.0
 31
0.0
 73
     1
 44
1.0
  0
POINT
  5
70D
330
704
100
AcDbEntity
  8
Defpoints
 62
     0
440
 16777216
100
AcDbPoint
 10
3015.924669759515
 20
1124.956581711442
 30
0.0
  0
POINT
  5
70E
330
704
100
AcDbEntity
  8
Defpoints
 62
     0
440
 16777216
100
AcDbPoint
 10
3015.924669759515
 20
1164.956581711442
 30
0.0
  0
POINT
  5
70F
330
704
100
AcDbEntity
  8
Defpoints
 62
     0
440
 16777216
100
AcDbPoint
 10
3065.655623480671
 20
1164.956581711442
 30
0.0
  0
ENDBLK
  5
706
330
704
100
AcDbEntity
  8
0
100
AcDbBlockEnd
  0
BLOCK
  5
711
330
710
100
AcDbEntity
  8
0
100
AcDbBlockBegin
  2
*D47
 70
     1
 10
0.0
 20
0.0
 30
0.0
  3
*D47
  1

  0
LINE
  5
713
330
710
100
AcDbEntity
  8
标注
 62
     0
440
 16777216
370
    -2
100
AcDbLine
 10
2470.924669759574
 20
1354.917825107078
 30
0.0
 11
2470.924669759574
 21
1256.025109925476
 31
0.0
  0
LINE
  5
714
330
710
100
AcDbEntity
  8
标注
 62
     0
440
 16777216
370
    -2
100
AcDbLine
 10
3480.924669759574
 20
1354.917884204079
 30
0.0
 11
3480.924669759574
 21
1256.025109925476
 31
0.0
  0
LINE
  5
715
330
710
100
AcDbEntity
  8
标注
 62
     0
440
 16777216
370
    -2
100
AcDbLine
 10
2482.924669759574
 20
1266.025109925476
 30
0.0
 11
3468.924669759573
 21
1266.025109925476
 31
0.0
  0
SOLID
  5
716
330
710
100
AcDbEntity
  8
标注
 62
     0
440
 16777216
100
AcDbTrace
 10
2482.924669759574
 20
1268.025109925475
 30
0.0
 11
2482.924669759574
 21
1264.025109925476
 31
0.0
 12
2470.924669759574
 22
1266.025109925476
 32
0.0
 13
2470.924669759574
 23
1266.025109925476
 33
0.0
  0
SOLID
  5
717
330
710
100
AcDbEntity
  8
标注
 62
     0
440
 16777216
100
AcDbTrace
 10
3468.924669759573
 20
1268.025109925475
 30
0.0
 11
3468.924669759573
 21
1264.025109925476
 31
0.0
 12
3480.924669759574
 22
1266.025109925476
 32
0.0
 13
3480.924669759574
 23
1266.025109925476
 33
0.0
  0
MTEXT
  5
718
330
710
100
AcDbEntity
  8
标注
 62
     0
440
 16777216
100
AcDbMText
 10
2975.924669759574
 20
1280.419652899555
 30
0.0
 40
18.39999999999998
 41
0.0
 46
0.0
 71
     5
 72
     1
  1
1010
 73
     1
 44
1.0
  0
POINT
  5
719
330
710
100
AcDbEntity
  8
Defpoints
 62
     0
440
 16777216
100
AcDbPoint
 10
2470.924669759574
 20
1359.917825107078
 30
0.0
  0
POINT
  5
71A
330
710
100
AcDbEntity
  8
Defpoints
 62
     0
440
 16777216
100
AcDbPoint
 10
3480.924669759574
 20
1359.917884204079
 30
0.0
  0
POINT
  5
71B
330
710
100
AcDbEntity
  8
Defpoints
 62
     0
440
 16777216
100
AcDbPoint
 10
3480.924669759574
 20
1266.025109925476
 30
0.0
  0
ENDBLK
  5
712
330
710
100
AcDbEntity
  8
0
100
AcDbBlockEnd
  0
BLOCK
  5
71D
330
71C
100
AcDbEntity
  8
0
100
AcDbBlockBegin
  2
*D48
 70
     1
 10
0.0
 20
0.0
 30
0.0
  3
*D48
  1

  0
LINE
  5
71F
330
71C
100
AcDbEntity
  8
标注
 62
     0
440
 16777216
370
    -2
100
AcDbLine
 10
2470.924669759574
 20
1354.917825107078
 30
0.0
 11
2470.924669759574
 21
1293.537028940505
 31
0.0
  0
LINE
  5
720
330
71C
100
AcDbEntity
  8
标注
 62
     0
440
 16777216
370
    -2
100
AcDbLine
 10
2940.924669759574
 20
1384.917825107063
 30
0.0
 11
2940.924669759574
 21
1293.537028940505
 31
0.0
  0
LINE
  5
721
330
71C
100
AcDbEntity
  8
标注
 62
     0
440
 16777216
370
    -2
100
AcDbLine
 10
2482.924669759574
 20
1303.537028940504
 30
0.0
 11
2928.924669759574
 21
1303.537028940504
 31
0.0
  0
SOLID
  5
722
330
71C
100
AcDbEntity
  8
标注
 62
     0
440
 16777216
100
AcDbTrace
 10
2482.924669759574
 20
1305.537028940504
 30
0.0
 11
2482.924669759574
 21
1301.537028940505
 31
0.0
 12
2470.924669759574
 22
1303.537028940504
 32
0.0
 13
2470.924669759574
 23
1303.537028940504
 33
0.0
  0
SOLID
  5
723
330
71C
100
AcDbEntity
  8
标注
 62
     0
440
 16777216
100
AcDbTrace
 10
2928.924669759574
 20
1305.537028940504
 30
0.0
 11
2928.924669759574
 21
1301.537028940505
 31
0.0
 12
2940.924669759574
 22
1303.537028940504
 32
0.0
 13
2940.924669759574
 23
1303.537028940504
 33
0.0
  0
MTEXT
  5
724
330
71C
100
AcDbEntity
  8
标注
 62
     0
440
 16777216
100
AcDbMText
 10
2705.924669759574
 20
1317.931571914584
 30
0.0
 40
18.39999999999998
 41
0.0
 46
0.0
 71
     5
 72
     1
  1
470
 73
     1
 44
1.0
  0
POINT
  5
725
330
71C
100
AcDbEntity
  8
Defpoints
 62
     0
440
 16777216
100
AcDbPoint
 10
2470.924669759574
 20
1359.917825107078
 30
0.0
  0
POINT
  5
726
330
71C
100
AcDbEntity
  8
Defpoints
 62
     0
440
 16777216
100
AcDbPoint
 10
2940.924669759574
 20
1389.917825107063
 30
0.0
  0
POINT
  5
727
330
71C
100
AcDbEntity
  8
Defpoints
 62
     0
440
 16777216
100
AcDbPoint
 10
2940.924669759574
 20
1303.537028940504
 30
0.0
  0
ENDBLK
  5
71E
330
71C
100
AcDbEntity
  8
0
100
AcDbBlockEnd
  0
BLOCK
  5
729
330
728
100
AcDbEntity
  8
0
100
AcDbBlockBegin
  2
*D49
 70
     1
 10
0.0
 20
0.0
 30
0.0
  3
*D49
  1

  0
LINE
  5
72B
330
728
100
AcDbEntity
  8
标注
 62
     0
440
 16777216
370
    -2
100
AcDbLine
 10
2940.924669759574
 20
1384.917825107063
 30
0.0
 11
2940.924669759574
 21
1294.83907371328
 31
0.0
  0
LINE
  5
72C
330
728
100
AcDbEntity
  8
标注
 62
     0
440
 16777216
370
    -2
100
AcDbLine
 10
3090.924669759574
 20
1384.917825107063
 30
0.0
 11
3090.924669759574
 21
1294.83907371328
 31
0.0
  0
LINE
  5
72D
330
728
100
AcDbEntity
  8
标注
 62
     0
440
 16777216
370
    -2
100
AcDbLine
 10
2952.924669759574
 20
1304.83907371328
 30
0.0
 11
3078.924669759574
 21
1304.83907371328
 31
0.0
  0
SOLID
  5
72E
330
728
100
AcDbEntity
  8
标注
 62
     0
440
 16777216
100
AcDbTrace
 10
2952.924669759574
 20
1306.83907371328
 30
0.0
 11
2952.924669759574
 21
1302.83907371328
 31
0.0
 12
2940.924669759574
 22
1304.83907371328
 32
0.0
 13
2940.924669759574
 23
1304.83907371328
 33
0.0
  0
SOLID
  5
72F
330
728
100
AcDbEntity
  8
标注
 62
     0
440
 16777216
100
AcDbTrace
 10
3078.924669759574
 20
1306.83907371328
 30
0.0
 11
3078.924669759574
 21
1302.83907371328
 31
0.0
 12
3090.924669759574
 22
1304.83907371328
 32
0.0
 13
3090.924669759574
 23
1304.83907371328
 33
0.0
  0
MTEXT
  5
730
330
728
100
AcDbEntity
  8
标注
 62
     0
440
 16777216
100
AcDbMText
 10
3015.924669759574
 20
1319.233616687359
 30
0.0
 40
18.39999999999998
 41
0.0
 46
0.0
 71
     5
 72
     1
  1
150
 73
     1
 44
1.0
  0
POINT
  5
731
330
728
100
AcDbEntity
  8
Defpoints
 62
     0
440
 16777216
100
AcDbPoint
 10
2940.924669759574
 20
1389.917825107063
 30
0.0
  0
POINT
  5
732
330
728
100
AcDbEntity
  8
Defpoints
 62
     0
440
 16777216
100
AcDbPoint
 10
3090.924669759574
 20
1389.917825107063
 30
0.0
  0
POINT
  5
733
330
728
100
AcDbEntity
  8
Defpoints
 62
     0
440
 16777216
100
AcDbPoint
 10
3090.924669759574
 20
1304.83907371328
 30
0.0
  0
ENDBLK
  5
72A
330
728
100
AcDbEntity
  8
0
100
AcDbBlockEnd
  0
BLOCK
  5
735
330
734
100
AcDbEntity
  8
0
100
AcDbBlockBegin
  2
*D50
 70
     1
 10
0.0
 20
0.0
 30
0.0
  3
*D50
  1

  0
LINE
  5
737
330
734
100
AcDbEntity
  8
标注
 62
     0
440
 16777216
370
    -2
100
AcDbLine
 10
3110.924669759574
 20
1384.917825107063
 30
0.0
 11
3110.924669759574
 21
1295.421171870585
 31
0.0
  0
LINE
  5
738
330
734
100
AcDbEntity
  8
标注
 62
     0
440
 16777216
370
    -2
100
AcDbLine
 10
3450.924669759574
 20
1384.917825107063
 30
0.0
 11
3450.924669759574
 21
1295.421171870585
 31
0.0
  0
LINE
  5
739
330
734
100
AcDbEntity
  8
标注
 62
     0
440
 16777216
370
    -2
100
AcDbLine
 10
3122.924669759574
 20
1305.421171870585
 30
0.0
 11
3438.924669759574
 21
1305.421171870585
 31
0.0
  0
SOLID
  5
73A
330
734
100
AcDbEntity
  8
标注
 62
     0
440
 16777216
100
AcDbTrace
 10
3122.924669759574
 20
1307.421171870585
 30
0.0
 11
3122.924669759574
 21
1303.421171870585
 31
0.0
 12
3110.924669759574
 22
1305.421171870585
 32
0.0
 13
3110.924669759574
 23
1305.421171870585
 33
0.0
  0
SOLID
  5
73B
330
734
100
AcDbEntity
  8
标注
 62
     0
440
 16777216
100
AcDbTrace
 10
3438.924669759574
 20
1307.421171870585
 30
0.0
 11
3438.924669759574
 21
1303.421171870585
 31
0.0
 12
3450.924669759574
 22
1305.421171870585
 32
0.0
 13
3450.924669759574
 23
1305.421171870585
 33
0.0
  0
MTEXT
  5
73C
330
734
100
AcDbEntity
  8
标注
 62
     0
440
 16777216
100
AcDbMText
 10
3280.924669759574
 20
1319.821990424473
 30
0.0
 40
18.39999999999998
 41
0.0
 46
0.0
 71
     5
 72
     1
  1
340
 73
     1
 44
1.0
  0
POINT
  5
73D
330
734
100
AcDbEntity
  8
Defpoints
 62
     0
440
 16777216
100
AcDbPoint
 10
3110.924669759574
 20
1389.917825107063
 30
0.0
  0
POINT
  5
73E
330
734
100
AcDbEntity
  8
Defpoints
 62
     0
440
 16777216
100
AcDbPoint
 10
3450.924669759574
 20
1389.917825107063
 30
0.0
  0
POINT
  5
73F
330
734
100
AcDbEntity
  8
Defpoints
 62
     0
440
 16777216
100
AcDbPoint
 10
3450.924669759574
 20
1305.421171870585
 30
0.0
  0
ENDBLK
  5
736
330
734
100
AcDbEntity
  8
0
100
AcDbBlockEnd
  0
BLOCK
  5
741
330
740
100
AcDbEntity
  8
0
100
AcDbBlockBegin
  2
*D51
 70
     1
 10
0.0
 20
0.0
 30
0.0
  3
*D51
  1

  0
LINE
  5
743
330
740
100
AcDbEntity
  8
标注
 62
     0
440
 16777216
370
    -2
100
AcDbLine
 10
3100.924669759574
 20
1829.917825107078
 30
0.0
 11
3100.924669759574
 21
1909.084341483301
 31
0.0
  0
LINE
  5
744
330
740
100
AcDbEntity
  8
标注
 62
     0
440
 16777216
370
    -2
100
AcDbLine
 10
3450.924669759574
 20
1774.917825107063
 30
0.0
 11
3450.924669759574
 21
1909.084341483301
 31
0.0
  0
LINE
  5
745
330
740
100
AcDbEntity
  8
标注
 62
     0
440
 16777216
370
    -2
100
AcDbLine
 10
3112.924669759574
 20
1899.084341483301
 30
0.0
 11
3438.924669759574
 21
1899.084341483301
 31
0.0
  0
SOLID
  5
746
330
740
100
AcDbEntity
  8
标注
 62
     0
440
 16777216
100
AcDbTrace
 10
3112.924669759574
 20
1901.084341483301
 30
0.0
 11
3112.924669759574
 21
1897.084341483301
 31
0.0
 12
3100.924669759574
 22
1899.084341483301
 32
0.0
 13
3100.924669759574
 23
1899.084341483301
 33
0.0
  0
SOLID
  5
747
330
740
100
AcDbEntity
  8
标注
 62
     0
440
 16777216
100
AcDbTrace
 10
3438.924669759574
 20
1901.084341483301
 30
0.0
 11
3438.924669759574
 21
1897.084341483301
 31
0.0
 12
3450.924669759574
 22
1899.084341483301
 32
0.0
 13
3450.924669759574
 23
1899.084341483301
 33
0.0
  0
MTEXT
  5
748
330
740
100
AcDbEntity
  8
标注
 62
     0
440
 16777216
100
AcDbMText
 10
3275.924669759574
 20
1913.485160037189
 30
0.0
 40
18.39999999999998
 41
0.0
 46
0.0
 71
     5
 72
     1
  1
350
 73
     1
 44
1.0
  0
POINT
  5
749
330
740
100
AcDbEntity
  8
Defpoints
 62
     0
440
 16777216
100
AcDbPoint
 10
3100.924669759574
 20
1824.917825107078
 30
0.0
  0
POINT
  5
74A
330
740
100
AcDbEntity
  8
Defpoints
 62
     0
440
 16777216
100
AcDbPoint
 10
3450.924669759574
 20
1769.917825107063
 30
0.0
  0
POINT
  5
74B
330
740
100
AcDbEntity
  8
Defpoints
 62
     0
440
 16777216
100
AcDbPoint
 10
3450.924669759574
 20
1899.084341483301
 30
0.0
  0
ENDBLK
  5
742
330
740
100
AcDbEntity
  8
0
100
AcDbBlockEnd
  0
BLOCK
  5
74D
330
74C
100
AcDbEntity
  8
0
100
AcDbBlockBegin
  2
*D52
 70
     1
 10
0.0
 20
0.0
 30
0.0
  3
*D52
  1

  0
LINE
  5
74F
330
74C
100
AcDbEntity
  8
标注
 62
     0
440
 16777216
370
    -2
100
AcDbLine
 10
3445.924669759574
 20
1779.917825107063
 30
0.0
 11
3533.482519665144
 21
1779.917825107063
 31
0.0
  0
LINE
  5
750
330
74C
100
AcDbEntity
  8
标注
 62
     0
440
 16777216
370
    -2
100
AcDbLine
 10
3475.924669759574
 20
1869.917825107063
 30
0.0
 11
3533.482519665144
 21
1869.917825107063
 31
0.0
  0
LINE
  5
751
330
74C
100
AcDbEntity
  8
标注
 62
     0
440
 16777216
370
    -2
100
AcDbLine
 10
3523.482519665144
 20
1791.917825107063
 30
0.0
 11
3523.482519665144
 21
1857.917825107063
 31
0.0
  0
SOLID
  5
752
330
74C
100
AcDbEntity
  8
标注
 62
     0
440
 16777216
100
AcDbTrace
 10
3521.482519665144
 20
1791.917825107063
 30
0.0
 11
3525.482519665144
 21
1791.917825107063
 31
0.0
 12
3523.482519665144
 22
1779.917825107063
 32
0.0
 13
3523.482519665144
 23
1779.917825107063
 33
0.0
  0
SOLID
  5
753
330
74C
100
AcDbEntity
  8
标注
 62
     0
440
 16777216
100
AcDbTrace
 10
3521.482519665144
 20
1857.917825107063
 30
0.0
 11
3525.482519665144
 21
1857.917825107063
 31
0.0
 12
3523.482519665144
 22
1869.917825107063
 32
0.0
 13
3523.482519665144
 23
1869.917825107063
 33
0.0
  0
MTEXT
  5
754
330
74C
100
AcDbEntity
  8
标注
 62
     0
440
 16777216
100
AcDbMText
 10
3509.087976691064
 20
1824.917825107064
 30
0.0
 40
18.39999999999998
 41
0.0
 46
0.0
 71
     5
 72
     1
  1
90
 11
0.0000000000000001
 21
1.0
 31
0.0
 73
     1
 44
1.0
  0
POINT
  5
755
330
74C
100
AcDbEntity
  8
Defpoints
 62
     0
440
 16777216
100
AcDbPoint
 10
3440.924669759573
 20
1779.917825107063
 30
0.0
  0
POINT
  5
756
330
74C
100
AcDbEntity
  8
Defpoints
 62
     0
440
 16777216
100
AcDbPoint
 10
3470.924669759574
 20
1869.917825107063
 30
0.0
  0
POINT
  5
757
330
74C
100
AcDbEntity
  8
Defpoints
 62
     0
440
 16777216
100
AcDbPoint
 10
3523.482519665144
 20
1869.917825107063
 30
0.0
  0
ENDBLK
  5
74E
330
74C
100
AcDbEntity
  8
0
100
AcDbBlockEnd
  0
BLOCK
  5
759
330
758
100
AcDbEntity
  8
0
100
AcDbBlockBegin
  2
*D53
 70
     1
 10
0.0
 20
0.0
 30
0.0
  3
*D53
  1

  0
LINE
  5
785
330
758
100
AcDbEntity
  8
标注
 62
     0
440
 16777216
370
    -2
100
AcDbLine
 10
2403.663530444719
 20
1901.84421169894
 30
0.0
 11
2461.58828109607
 21
1870.410873922886
 31
0.0
  0
MTEXT
  5
786
330
758
100
AcDbEntity
  8
标注
 62
     0
440
 16777216
100
AcDbMText
 10
2434.217919867101
 20
1901.641032378012
 30
0.0
 40
18.39999999999998
 41
0.0
 46
0.0
 71
     5
 72
     1
  1
R10
 11
0.878926757434427
 21
-0.4769567643569003
 31
0.0
 73
     1
 44
1.0
  0
LINE
  5
787
330
758
100
AcDbEntity
  8
标注
 62
     0
440
 16777216
370
    -2
100
AcDbLine
 10
2480.924669759574
 20
1859.917825107064
 30
0.0
 11
2472.135402185282
 21
1864.687392750603
 31
0.0
  0
SOLID
  5
788
330
758
100
AcDbEntity
  8
标注
 62
     0
440
 16777216
100
AcDbTrace
 10
2462.542194624783
 20
1872.168727437754
 30
0.0
 11
2460.634367567355
 21
1868.653020408017
 31
0.0
 12
2472.135402185282
 22
1864.687392750603
 32
0.0
 13
2472.135402185282
 23
1864.687392750603
 33
0.0
  0
POINT
  5
789
330
758
100
AcDbEntity
  8
Defpoints
 62
     0
440
 16777216
100
AcDbPoint
 10
2472.135402185282
 20
1864.687392750603
 30
0.0
  0
POINT
  5
78A
330
758
100
AcDbEntity
  8
Defpoints
 62
     0
440
 16777216
100
AcDbPoint
 10
2480.924669759574
 20
1859.917825107064
 30
0.0
  0
ENDBLK
  5
75A
330
758
100
AcDbEntity
  8
0
100
AcDbBlockEnd
  0
BLOCK
  5
762
330
761
100
AcDbEntity
  8
0
100
AcDbBlockBegin
  2
*D54
 70
     1
 10
0.0
 20
0.0
 30
0.0
  3
*D54
  1

  0
LINE
  5
793
330
761
100
AcDbEntity
  8
标注
 62
     0
440
 16777216
370
    -2
100
AcDbLine
 10
2961.499589512982
 20
1533.173204714396
 30
0.0
 11
2992.349221847339
 21
1605.01554140469
 31
0.0
  0
LINE
  5
794
330
761
100
AcDbEntity
  8
标注
 62
     0
440
 16777216
370
    -2
100
AcDbLine
 10
3039.50011767182
 20
1714.820108809493
 30
0.0
 11
3043.051231164876
 21
1723.089908865083
 31
0.0
  0
MTEXT
  5
795
102
{ACAD_XDICTIONARY
360
7F3
102
}
330
761
100
AcDbEntity
  8
标注
 62
     0
440
 16777216
100
AcDbMText
 10
2964.874214676299
 20
1569.371477203816
 30
0.0
 40
13.8
 41
0.0
 46
0.0
 71
     5
 72
     1
  1
∅101.5
 11
0.394568165895135
 21
0.9188666728433179
 31
0.0
 73
     1
 44
1.0
  0
LINE
  5
796
330
761
100
AcDbEntity
  8
标注
 62
     0
440
 16777216
370
    -2
100
AcDbLine
 10
3035.949004178763
 20
1706.550308753903
 30
0.0
 11
2995.900335340395
 21
1613.285341460279
 31
0.0
  0
SOLID
  5
797
330
761
100
AcDbEntity
  8
标注
 62
     0
440
 16777216
100
AcDbTrace
 10
3038.121817662555
 20
1715.411961058336
 30
0.0
 11
3040.878417681084
 21
1714.228256560651
 31
0.0
 12
3035.949004178763
 22
1706.550308753903
 32
0.0
 13
3035.949004178763
 23
1706.550308753903
 33
0.0
  0
SOLID
  5
798
330
761
100
AcDbEntity
  8
标注
 62
     0
440
 16777216
100
AcDbTrace
 10
2990.970921838074
 20
1605.607393653532
 30
0.0
 11
2993.727521856604
 21
1604.423689155847
 31
0.0
 12
2995.900335340395
 22
1613.285341460279
 32
0.0
 13
2995.900335340395
 23
1613.285341460279
 33
0.0
  0
POINT
  5
799
330
761
100
AcDbEntity
  8
Defpoints
 62
     0
440
 16777216
100
AcDbPoint
 10
2995.900335340395
 20
1613.285341460279
 30
0.0
  0
POINT
  5
79A
330
761
100
AcDbEntity
  8
Defpoints
 62
     0
440
 16777216
100
AcDbPoint
 10
3035.949004178763
 20
1706.550308753903
 30
0.0
  0
ENDBLK
  5
763
330
761
100
AcDbEntity
  8
0
100
AcDbBlockEnd
  0
BLOCK
  5
76D
330
76C
100
AcDbEntity
  8
0
100
AcDbBlockBegin
  2
*D55
 70
     1
 10
0.0
 20
0.0
 30
0.0
  3
*D55
  1

  0
LINE
  5
79B
330
76C
100
AcDbEntity
  8
标注
 62
     0
440
 16777216
370
    -2
100
AcDbLine
 10
3381.791659342797
 20
1565.832020807222
 30
0.0
 11
3324.617475506647
 21
1619.162442322119
 31
0.0
  0
LINE
  5
79C
330
76C
100
AcDbEntity
  8
标注
 62
     0
440
 16777216
370
    -2
100
AcDbLine
 10
3237.231864012553
 20
1700.673207891987
 30
0.0
 11
3230.650520887472
 21
1706.812094001855
 31
0.0
  0
MTEXT
  5
79D
102
{ACAD_XDICTIONARY
360
7F5
102
}
330
76C
100
AcDbEntity
  8
标注
 62
     0
440
 16777216
100
AcDbMText
 10
3364.122365290479
 20
1597.60463596405
 30
0.0
 40
13.8
 41
0.0
 46
0.0
 71
     5
 72
     1
  1
∅101.5
 11
0.7312603472313504
 21
-0.6820984566520327
 31
0.0
 73
     1
 44
1.0
  0
LINE
  5
79E
330
76C
100
AcDbEntity
  8
标注
 62
     0
440
 16777216
370
    -2
100
AcDbLine
 10
3243.813207137636
 20
1694.534321782118
 30
0.0
 11
3318.036132381565
 21
1625.301328431987
 31
0.0
  0
SOLID
  5
79F
330
76C
100
AcDbEntity
  8
标注
 62
     0
440
 16777216
100
AcDbTrace
 10
3238.255011697532
 20
1701.770098412833
 30
0.0
 11
3236.208716327575
 21
1699.57631737114
 31
0.0
 12
3243.813207137636
 22
1694.534321782118
 32
0.0
 13
3243.813207137636
 23
1694.534321782118
 33
0.0
  0
SOLID
  5
7A0
330
76C
100
AcDbEntity
  8
标注
 62
     0
440
 16777216
100
AcDbTrace
 10
3325.640623191624
 20
1620.259332842965
 30
0.0
 11
3323.594327821668
 21
1618.065551801272
 31
0.0
 12
3318.036132381565
 22
1625.301328431987
 32
0.0
 13
3318.036132381565
 23
1625.301328431987
 33
0.0
  0
POINT
  5
7A1
330
76C
100
AcDbEntity
  8
Defpoints
 62
     0
440
 16777216
100
AcDbPoint
 10
3318.036132381565
 20
1625.301328431987
 30
0.0
  0
POINT
  5
7A2
330
76C
100
AcDbEntity
  8
Defpoints
 62
     0
440
 16777216
100
AcDbPoint
 10
3243.813207137636
 20
1694.534321782118
 30
0.0
  0
ENDBLK
  5
76E
330
76C
100
AcDbEntity
  8
0
100
AcDbBlockEnd
  0
ENDSEC
  0
SECTION
  2
ENTITIES
  0
LINE
  5
527
330
1F
100
AcDbEntity
  8
外框线1
100
AcDbLine
 10
3450.924669759574
 20
989.9565817114426
 30
0.0
 11
3450.924669759574
 21
1164.956581711442
 31
0.0
  0
LINE
  5
528
330
1F
100
AcDbEntity
  8
外框线1
100
AcDbLine
 10
3120.924669759574
 20
979.9565817114425
 30
0.0
 11
3440.924669759573
 21
979.9565817114425
 31
0.0
  0
LINE
  5
529
330
1F
100
AcDbEntity
  8
外框线1
100
AcDbLine
 10
3110.924669759574
 20
1164.956581711442
 30
0.0
 11
3110.924669759574
 21
989.9565817114426
 31
0.0
  0
LINE
  5
52A
330
1F
100
AcDbEntity
  8
外框线1
100
AcDbLine
 10
3090.924669759574
 20
1044.956581711442
 30
0.0
 11
3090.924669759574
 21
1164.956581711442
 31
0.0
  0
LINE
  5
52B
330
1F
100
AcDbEntity
  8
外框线1
100
AcDbLine
 10
2950.924669759574
 20
1034.956581711442
 30
0.0
 11
3080.924669759574
 21
1034.956581711442
 31
0.0
  0
LINE
  5
52C
330
1F
100
AcDbEntity
  8
外框线1
100
AcDbLine
 10
2940.924669759574
 20
1154.956581711442
 30
0.0
 11
2940.924669759574
 21
1044.956581711442
 31
0.0
  0
LINE
  5
52D
330
1F
100
AcDbEntity
  8
外框线1
100
AcDbLine
 10
3080.924669759574
 20
1379.917825107063
 30
0.0
 11
2950.924669759574
 21
1379.917825107063
 31
0.0
  0
LINE
  5
52E
102
{ACAD_REACTORS
330
545
330
54E
102
}
330
1F
100
AcDbEntity
  8
外框线1
100
AcDbLine
 10
3120.924669759574
 20
1779.917825107063
 30
0.0
 11
3440.924669759573
 21
1779.917825107063
 31
0.0
  0
LINE
  5
52F
102
{ACAD_REACTORS
330
589
102
}
330
1F
100
AcDbEntity
  8
外框线1
100
AcDbLine
 10
3110.924669759574
 20
1389.917825107063
 30
0.0
 11
3110.924669759574
 21
1769.917825107063
 31
0.0
  0
LINE
  5
530
102
{ACAD_REACTORS
330
589
102
}
330
1F
100
AcDbEntity
  8
外框线1
100
AcDbLine
 10
3090.924669759574
 20
1389.917825107063
 30
0.0
 11
3090.924669759574
 21
1769.917825107063
 31
0.0
  0
LINE
  5
531
330
1F
100
AcDbEntity
  8
外框线1
100
AcDbLine
 10
2940.924669759574
 20
1389.917825107063
 30
0.0
 11
2940.924669759574
 21
1769.917825107063
 31
0.0
  0
LINE
  5
532
102
{ACAD_REACTORS
330
545
102
}
330
1F
100
AcDbEntity
  8
外框线1
100
AcDbLine
 10
3440.924669759573
 20
1379.917825107063
 30
0.0
 11
3120.924669759574
 21
1379.917825107063
 31
0.0
  0
LINE
  5
533
330
1F
100
AcDbEntity
  8
外框线1
100
AcDbLine
 10
3450.924669759574
 20
1769.917825107063
 30
0.0
 11
3450.924669759574
 21
1389.917825107063
 31
0.0
  0
LINE
  5
534
102
{ACAD_REACTORS
330
58C
102
}
330
1F
100
AcDbEntity
  8
外框线1
100
AcDbLine
 10
2950.924669759574
 20
1779.917825107063
 30
0.0
 11
3080.924669759574
 21
1779.917825107063
 31
0.0
  0
ARC
  5
535
102
{ACAD_REACTORS
330
597
330
59A
102
}
330
1F
100
AcDbEntity
  8
外框线1
100
AcDbCircle
 10
2950.924669759574
 20
1389.917825107063
 30
0.0
 40
10.0
100
AcDbArc
 50
180.0
 51
270.0
  0
ARC
  5
536
330
1F
100
AcDbEntity
  8
外框线1
100
AcDbCircle
 10
2950.924669759574
 20
1769.917825107063
 30
0.0
 40
10.0
100
AcDbArc
 50
90.0
 51
180.0
  0
ARC
  5
537
330
1F
100
AcDbEntity
  8
外框线1
100
AcDbCircle
 10
3080.924669759574
 20
1769.917825107063
 30
0.0
 40
10.0
100
AcDbArc
 50
0.0
 51
90.0
  0
ARC
  5
538
330
1F
100
AcDbEntity
  8
外框线1
100
AcDbCircle
 10
3120.924669759574
 20
1769.917825107063
 30
0.0
 40
10.0
100
AcDbArc
 50
90.0
 51
180.0
  0
ARC
  5
539
102
{ACAD_REACTORS
330
554
330
59A
102
}
330
1F
100
AcDbEntity
  8
外框线1
100
AcDbCircle
 10
3080.924669759574
 20
1389.917825107063
 30
0.0
 40
10.0
100
AcDbArc
 50
270.0
 51
0.0
  0
ARC
  5
53A
102
{ACAD_REACTORS
330
59D
102
}
330
1F
100
AcDbEntity
  8
外框线1
100
AcDbCircle
 10
3120.924669759574
 20
1389.917825107063
 30
0.0
 40
10.0
100
AcDbArc
 50
180.0
 51
270.0
  0
ARC
  5
53B
102
{ACAD_REACTORS
330
551
330
59D
102
}
330
1F
100
AcDbEntity
  8
外框线1
100
AcDbCircle
 10
3440.924669759573
 20
1389.917825107063
 30
0.0
 40
10.0
100
AcDbArc
 50
270.0
 51
0.0
  0
ARC
  5
53C
102
{ACAD_REACTORS
330
5A0
330
5A3
102
}
330
1F
100
AcDbEntity
  8
外框线1
100
AcDbCircle
 10
3440.924669759573
 20
1769.917825107063
 30
0.0
 40
10.0
100
AcDbArc
 50
0.0
 51
90.0
  0
ARC
  5
53D
102
{ACAD_REACTORS
330
54B
102
}
330
1F
100
AcDbEntity
  8
外框线1
100
AcDbCircle
 10
2950.924669759574
 20
1044.956581711442
 30
0.0
 40
10.0
100
AcDbArc
 50
180.0
 51
270.0
  0
ARC
  5
53E
330
1F
100
AcDbEntity
  8
外框线1
100
AcDbCircle
 10
3080.924669759574
 20
1044.956581711442
 30
0.0
 40
10.0
100
AcDbArc
 50
270.0
 51
0.0
  0
ARC
  5
53F
330
1F
100
AcDbEntity
  8
外框线1
100
AcDbCircle
 10
3120.924669759574
 20
989.9565817114426
 30
0.0
 40
10.0
100
AcDbArc
 50
180.0
 51
270.0
  0
ARC
  5
540
102
{ACAD_REACTORS
330
548
102
}
330
1F
100
AcDbEntity
  8
外框线1
100
AcDbCircle
 10
3440.924669759573
 20
989.9565817114426
 30
0.0
 40
10.0
100
AcDbArc
 50
270.0
 51
0.0
  0
LINE
  5
541
330
1F
100
AcDbEntity
  8
外框线1
100
AcDbLine
 10
3229.924669759574
 20
979.9565817114425
 30
0.0
 11
3331.924669759574
 21
979.9565817114425
 31
0.0
  0
LINE
  5
542
330
1F
100
AcDbEntity
  8
外框线1
100
AcDbLine
 10
2964.924669759574
 20
1034.956581711442
 30
0.0
 11
3066.924669759574
 21
1034.956581711442
 31
0.0
  0
DIMENSION
  5
543
102
{ACAD_XDICTIONARY
360
544
102
}
102
{ACAD_REACTORS
330
545
102
}
330
1F
100
AcDbEntity
  8
标注
100
AcDbDimension
280
     0
  2
*D35
 10
3523.146852270228
 20
1379.917825107063
 30
0.0
 11
3523.146852270227
 21
1579.917825107078
 31
0.0
 70
   160
 71
     5
 42
400.0
 73
     0
 74
     0
 75
     0
  3
1-8-L
100
AcDbAlignedDimension
 13
3440.924669759573
 23
1779.917825107063
 33
0.0
 14
3440.924669759573
 24
1379.917825107063
 34
0.0
 50
90.0
100
AcDbRotatedDimension
  0
DIMENSION
  5
546
102
{ACAD_XDICTIONARY
360
547
102
}
102
{ACAD_REACTORS
330
548
102
}
330
1F
100
AcDbEntity
  8
标注
100
AcDbDimension
280
     0
  2
*D36
 10
3570.02260120026
 20
979.9565817114425
 30
0.0
 11
3570.02260120026
 21
1084.349781056612
 31
0.0
 70
   160
 71
     5
 42
184.9999999999999
 73
     0
 74
     0
 75
     0
  3
1-8-L
100
AcDbAlignedDimension
 13
3480.924669759574
 23
1164.956581711442
 33
0.0
 14
3440.924669759573
 24
979.9565817114425
 34
0.0
 50
90.0
100
AcDbRotatedDimension
  0
DIMENSION
  5
549
102
{ACAD_XDICTIONARY
360
54A
102
}
102
{ACAD_REACTORS
330
54B
102
}
330
1F
100
AcDbEntity
  8
标注
100
AcDbDimension
280
     0
  2
*D37
 10
2724.787676042638
 20
1034.956581711442
 30
0.0
 11
2724.787676042637
 21
1088.069575681345
 31
0.0
 70
   160
 71
     5
 42
130.0
 73
     0
 74
     0
 75
     0
  3
1-8-L
100
AcDbAlignedDimension
 13
2920.924669759574
 23
1164.956581711442
 33
0.0
 14
2950.924669759574
 24
1034.956581711442
 34
0.0
 50
90.0
100
AcDbRotatedDimension
  0
DIMENSION
  5
54C
102
{ACAD_XDICTIONARY
360
54D
102
}
102
{ACAD_REACTORS
330
54E
102
}
330
1F
100
AcDbEntity
  8
标注
100
AcDbDimension
280
     0
  2
*D38
 10
3356.86924568726
 20
1779.917825107063
 30
0.0
 11
3356.86924568726
 21
1719.917825107122
 31
0.0
 70
   160
 71
     5
 42
119.9999999999854
 73
     0
 74
     0
 75
     0
  3
1-8-L
100
AcDbAlignedDimension
 13
3280.924669759574
 23
1659.917825107078
 33
0.0
 14
3280.924669759574
 24
1779.917825107063
 34
0.0
 50
90.0
100
AcDbRotatedDimension
  0
DIMENSION
  5
54F
102
{ACAD_XDICTIONARY
360
550
102
}
102
{ACAD_REACTORS
330
551
102
}
330
1F
100
AcDbEntity
  8
标注
100
AcDbDimension
280
     0
  2
*D39
 10
3440.924669759573
 20
1389.917825107064
 30
0.0
 11
3397.056988837919
 21
1434.616517269764
 31
0.0
 70
    36
 71
     5
 42
10.00000000000045
 73
     0
 74
     0
 75
     0
  3
1-8-L
100
AcDbRadialDimension
 15
3432.46738745081
 25
1395.253963781223
 35
0.0
 40
0.0
1001
ACAD_DSTYLE_DIMRADIAL_EXTENSION
1070
   387
1070
     1
1070
   388
1040
4.712388980384689
1070
   390
1040
0.0
  0
DIMENSION
  5
552
102
{ACAD_XDICTIONARY
360
553
102
}
102
{ACAD_REACTORS
330
554
102
}
330
1F
100
AcDbEntity
  8
标注
100
AcDbDimension
280
     0
  2
*D40
 10
3080.924669759574
 20
1389.917825107063
 30
0.0
 11
3038.160884084635
 21
1435.673755271864
 31
0.0
 70
    36
 71
     5
 42
9.999999999985902
 73
     0
 74
     0
 75
     0
  3
1-8-L
100
AcDbRadialDimension
 15
3072.600129779901
 25
1395.45876673521
 35
0.0
 40
0.0
1001
ACAD_DSTYLE_DIMRADIAL_EXTENSION
1070
   387
1070
     1
1070
   388
1040
4.712388980384689
1070
   390
1040
0.0
  0
LINE
  5
555
102
{ACAD_REACTORS
330
567
102
}
330
1F
100
AcDbEntity
  8
外框线2
  6
HIDDEN
 48
0.2
100
AcDbLine
 10
2480.924669759574
 20
1869.917825107063
 30
0.0
 11
3470.924669759574
 21
1869.917825107063
 31
0.0
  0
LINE
  5
556
330
1F
100
AcDbEntity
  8
外框线2
  6
HIDDEN
 48
0.2
100
AcDbLine
 10
3470.924669759574
 20
1349.917825107078
 30
0.0
 11
2480.924669759574
 21
1349.917825107078
 31
0.0
  0
LINE
  5
557
330
1F
100
AcDbEntity
  8
外框线2
  6
HIDDEN
 48
0.2
100
AcDbLine
 10
2470.924669759574
 20
1359.917825107078
 30
0.0
 11
2470.924669759574
 21
1859.917825107064
 31
0.0
  0
ARC
  5
558
102
{ACAD_REACTORS
330
594
330
597
102
}
330
1F
100
AcDbEntity
  8
外框线2
  6
HIDDEN
 48
0.2
100
AcDbCircle
 10
2480.924669759574
 20
1359.917825107078
 30
0.0
 40
10.0
100
AcDbArc
 50
180.0
 51
270.0
  0
ARC
  5
559
102
{ACAD_REACTORS
330
5A6
102
}
330
1F
100
AcDbEntity
  8
外框线2
  6
HIDDEN
 48
0.2
100
AcDbCircle
 10
2480.924669759574
 20
1859.917825107064
 30
0.0
 40
10.0
100
AcDbArc
 50
90.0
 51
180.0
  0
LINE
  5
55A
330
1F
100
AcDbEntity
  8
外框线1
100
AcDbLine
 10
2500.924669759573
 20
1779.917825107063
 30
0.0
 11
2950.924669759574
 21
1779.917825107063
 31
0.0
  0
LINE
  5
55B
330
1F
100
AcDbEntity
  8
外框线1
100
AcDbLine
 10
2500.924669759573
 20
1379.917825107078
 30
0.0
 11
2950.924669759574
 21
1379.917825107063
 31
0.0
  0
LINE
  5
55C
330
1F
100
AcDbEntity
  8
外框线1
100
AcDbLine
 10
2940.924669759574
 20
1704.917825107063
 30
0.0
 11
2500.924669759573
 21
1704.917825107063
 31
0.0
  0
LINE
  5
55D
330
1F
100
AcDbEntity
  8
外框线1
100
AcDbLine
 10
2940.924669759574
 20
1696.917825107063
 30
0.0
 11
2500.924669759573
 21
1696.917825107063
 31
0.0
  0
LINE
  5
55E
330
1F
100
AcDbEntity
  8
外框线1
100
AcDbLine
 10
2470.924669759574
 20
1164.956581711442
 30
0.0
 11
3480.924669759574
 21
1164.956581711442
 31
0.0
  0
LINE
  5
55F
330
1F
100
AcDbEntity
  8
外框线1
100
AcDbLine
 10
2940.924669759574
 20
1154.956581711442
 30
0.0
 11
2500.924669759573
 21
1164.956581711442
 31
0.0
  0
LINE
  5
560
330
1F
100
AcDbEntity
  8
外框线1
100
AcDbLine
 10
2940.924669759574
 20
1454.917825107078
 30
0.0
 11
2500.924669759573
 21
1454.917825107078
 31
0.0
  0
LINE
  5
561
330
1F
100
AcDbEntity
  8
外框线1
100
AcDbLine
 10
2940.924669759574
 20
1462.917825107078
 30
0.0
 11
2500.924669759573
 21
1462.917825107078
 31
0.0
  0
ARC
  5
562
102
{ACAD_REACTORS
330
5A3
102
}
330
1F
100
AcDbEntity
  8
外框线2
  6
HIDDEN
 48
0.2
100
AcDbCircle
 10
3470.924669759574
 20
1859.917825107064
 30
0.0
 40
10.0
100
AcDbArc
 50
0.0
 51
90.0
  0
LINE
  5
563
330
1F
100
AcDbEntity
  8
外框线2
  6
HIDDEN
 48
0.2
100
AcDbLine
 10
3480.924669759574
 20
1859.917825107064
 30
0.0
 11
3480.924669759574
 21
1359.917825107078
 31
0.0
  0
ARC
  5
564
102
{ACAD_REACTORS
330
567
102
}
330
1F
100
AcDbEntity
  8
外框线2
  6
HIDDEN
 48
0.2
100
AcDbCircle
 10
3470.924669759574
 20
1359.917825107078
 30
0.0
 40
10.0
100
AcDbArc
 50
270.0
 51
0.0
  0
DIMENSION
  5
565
102
{ACAD_XDICTIONARY
360
566
102
}
102
{ACAD_REACTORS
330
567
102
}
330
1F
100
AcDbEntity
  8
标注
100
AcDbDimension
280
     0
  2
*D41
 10
3565.744559438135
 20
1869.917825107063
 30
0.0
 11
3551.350016464056
 21
1609.917825107071
 31
0.0
 70
    32
 71
     5
 42
519.9999999999854
 73
     0
 74
     0
 75
     0
  3
1-8-L
100
AcDbAlignedDimension
 13
3470.924669759574
 23
1349.917825107078
 33
0.0
 14
3480.924669759574
 24
1869.917825107063
 34
0.0
 50
90.0
100
AcDbRotatedDimension
  0
CIRCLE
  5
568
102
{ACAD_REACTORS
330
56B
330
56E
102
}
330
1F
100
AcDbEntity
  8
外框线1
100
AcDbCircle
 10
3100.924669759574
 20
1824.917825107063
 30
0.0
 40
17.5
  0
DIMENSION
  5
569
102
{ACAD_XDICTIONARY
360
56A
102
}
102
{ACAD_REACTORS
330
56B
102
}
330
1F
100
AcDbEntity
  8
标注
100
AcDbDimension
280
     0
  2
*D42
 10
3138.900388361181
 20
1779.917825107063
 30
0.0
 11
3138.900388361181
 21
1802.417825107078
 31
0.0
 70
   160
 71
     5
 42
45.0
 73
     0
 74
     0
 75
     0
  3
1-8-L
100
AcDbAlignedDimension
 13
3100.924669759574
 23
1824.917825107063
 33
0.0
 14
3120.924669759574
 24
1779.917825107063
 34
0.0
 50
90.0
100
AcDbRotatedDimension
  0
DIMENSION
  5
56C
102
{ACAD_XDICTIONARY
360
56D
102
}
102
{ACAD_REACTORS
330
56E
102
}
330
1F
100
AcDbEntity
  8
标注
100
AcDbDimension
280
     0
  2
*D43
 10
3117.987292013318
 20
1828.805873695478
 30
0.0
 11
3029.598389694515
 21
1823.956068865407
 31
0.0
 70
    35
 71
     5
 42
34.99999999999545
 73
     0
 74
     0
 75
     0
  3
1-8-L
100
AcDbDiametricDimension
 15
3083.862047505826
 25
1821.029776518648
 35
0.0
 40
0.0
1001
ACAD_DSTYLE_DIMRADIAL_EXTENSION
1070
   387
1070
     1
1070
   388
1040
0.0
1070
   390
1040
0.0
  0
DIMENSION
  5
56F
330
1F
100
AcDbEntity
  8
标注
100
AcDbDimension
280
     0
  2
*D32
 10
3237.908007821643
 20
1124.953540724215
 30
0.0
 11
3237.908007821643
 21
1093.058302629019
 31
0.0
 70
   160
 71
     5
 42
40.003040987227
 73
     0
 74
     0
 75
     0
  3
1-8-L
100
AcDbAlignedDimension
 13
3248.429830852074
 23
1164.956581711442
 33
0.0
 14
3280.924669759574
 24
1124.953540724215
 34
0.0
 50
90.0
100
AcDbRotatedDimension
  0
INSERT
  5
570
330
1F
100
AcDbEntity
  8
标注
100
AcDbBlockReference
  2
A$C61936786
 10
2498.724675770551
 20
1839.917825107063
 30
0.0
 41
-1.0
 50
90.0
  0
LWPOLYLINE
  5
571
330
1F
100
AcDbEntity
  8
外框线2
 48
0.2
100
AcDbPolyline
 90
        4
 70
     1
 43
0.0
 10
3440.924669759573
 20
1378.717825107081
 10
2510.924669759574
 20
1378.717825107081
 10
2510.924669759574
 20
1365.717825107081
 10
3440.924669759573
 20
1365.717825107081
  0
INSERT
  5
572
330
1F
100
AcDbEntity
  8
标注
100
AcDbBlockReference
  2
A$C61936786
 10
3453.124663748655
 20
1839.917825107063
 30
0.0
 50
270.0
  0
INSERT
  5
573
330
1F
100
AcDbEntity
  8
标注
100
AcDbBlockReference
  2
A$C67E91360
 10
2970.924669759574
 20
1779.917817689923
 30
0.0
 41
-1.0
  0
INSERT
  5
574
330
1F
100
AcDbEntity
  8
标注
100
AcDbBlockReference
  2
A$C0DCB3B93
 10
2510.924670085828
 20
1140.956580822611
 30
0.0
  0
INSERT
  5
575
330
1F
100
AcDbEntity
  8
标注
100
AcDbBlockReference
  2
A$C538D63E5
 10
3452.124664927826
 20
1140.956579344108
 30
0.0
  0
INSERT
  5
576
330
1F
100
AcDbEntity
  8
标注
100
AcDbBlockReference
  2
A$C538D63E5
 10
2499.72467459138
 20
1140.956579344108
 30
0.0
 41
-1.0
  0
INSERT
  5
577
330
1F
100
AcDbEntity
  8
标注
100
AcDbBlockReference
  2
A$C67E91360
 10
3150.924669759574
 20
1779.917817689923
 30
0.0
  0
INSERT
  5
578
330
1F
100
AcDbEntity
  8
标注
100
AcDbBlockReference
  2
A$C67E91360
 10
3410.924669759574
 20
1779.917817689923
 30
0.0
 41
-1.0
  0
INSERT
  5
579
330
1F
100
AcDbEntity
  8
外框线2
 48
0.2
100
AcDbBlockReference
  2
A$C60E228D6
 10
3190.924669759574
 20
1081.956581435945
 30
0.0
 41
-1.0
  0
INSERT
  5
57A
330
1F
100
AcDbEntity
  8
外框线2
 48
0.2
100
AcDbBlockReference
  2
A$C60E228D6
 10
3370.924669759574
 20
1081.956581435945
 30
0.0
  0
INSERT
  5
57B
330
1F
100
AcDbEntity
  8
外框线2
 48
0.2
100
AcDbBlockReference
  2
A$C60E228D6
 10
2970.924669759574
 20
1081.956581435945
 30
0.0
 41
-1.0
  0
INSERT
  5
57C
330
1F
100
AcDbEntity
  8
标注
100
AcDbBlockReference
  2
A$C6C715BF9
 10
2510.924652141687
 20
1781.117829548261
 30
0.0
  0
LWPOLYLINE
  5
57D
330
1F
100
AcDbEntity
  8
外框线1
100
AcDbPolyline
 90
        8
 70
     1
 43
0.0
 10
3277.864296830543
 20
1119.792715447715
 42
0.274206687526
 10
3283.985042688546
 20
1119.792715447715
 10
3305.269240030546
 20
1117.416208647316
 42
-0.6299625821720002
 10
3305.447308445575
 20
1116.905158460512
 42
-0.187293026366
 10
3301.924669759574
 20
1114.953540724215
 10
3259.924669759923
 20
1114.953540724215
 42
-0.187293026366
 10
3256.402031076017
 20
1116.90515846252
 42
-0.6299625821720002
 10
3256.580099489533
 20
1117.416208647316
  0
LWPOLYLINE
  5
57E
330
1F
100
AcDbEntity
  8
外框线1
100
AcDbPolyline
 90
        8
 70
     1
 43
0.0
 10
3283.985042689535
 20
1130.114366000715
 42
0.274206687526
 10
3277.864296830543
 20
1130.114366000715
 10
3256.580099489533
 20
1132.490872801115
 42
-0.6299625821720002
 10
3256.402031074038
 20
1133.001922987919
 42
-0.187293026366
 10
3259.924669759923
 20
1134.953540724215
 10
3301.924669759574
 20
1134.953540724215
 42
-0.187293026366
 10
3305.447308443538
 20
1133.00192298591
 42
-0.6299625821720002
 10
3305.269240030546
 20
1132.490872801115
  0
LWPOLYLINE
  5
57F
330
1F
100
AcDbEntity
  8
外框线1
100
AcDbPolyline
 90
        4
 70
     1
 43
0.0
 10
3286.604455651533
 20
1123.019624433314
 10
3306.874669759527
 20
1121.44612147932
 10
3306.874669759527
 20
1128.460959969111
 10
3286.604455651533
 20
1126.887457015117
 42
-0.165578060144
  0
LWPOLYLINE
  5
580
330
1F
100
AcDbEntity
  8
外框线1
100
AcDbPolyline
 90
        4
 70
     1
 43
0.0
 10
3275.244883867847
 20
1123.019624433314
 10
3254.974669759969
 20
1121.44612147932
 10
3254.974669759969
 20
1128.460959969111
 10
3275.244883867847
 20
1126.887457015117
 42
0.165578060144
  0
ELLIPSE
  5
581
330
1F
100
AcDbEntity
  8
外框线1
100
AcDbEllipse
 10
3280.924669759574
 20
1124.953540724215
 30
0.0
 11
0.0
 21
2.800000000000181
 31
0.0
210
0.0
220
0.0
230
1.0
 40
0.8216696726797591
 41
0.0
 42
6.283185307179586
  0
LWPOLYLINE
  5
582
330
1F
100
AcDbEntity
  8
外框线1
100
AcDbPolyline
 90
        8
 70
     1
 43
0.0
 10
3012.864296830485
 20
1119.795756434943
 42
0.274206687526
 10
3018.985042688488
 20
1119.795756434943
 10
3040.269240030488
 20
1117.419249634543
 42
-0.6299625821720002
 10
3040.447308445517
 20
1116.908199447739
 42
-0.187293026366
 10
3036.924669759516
 20
1114.956581711442
 10
2994.924669759864
 20
1114.956581711442
 42
-0.187293026366
 10
2991.402031075959
 20
1116.908199449747
 42
-0.6299625821720002
 10
2991.580099489475
 20
1117.419249634543
  0
LWPOLYLINE
  5
583
330
1F
100
AcDbEntity
  8
外框线1
100
AcDbPolyline
 90
        8
 70
     1
 43
0.0
 10
3018.985042689477
 20
1130.117406987942
 42
0.274206687526
 10
3012.864296830485
 20
1130.117406987942
 10
2991.580099489475
 20
1132.493913788342
 42
-0.6299625821720002
 10
2991.40203107398
 20
1133.004963975146
 42
-0.187293026366
 10
2994.924669759864
 20
1134.956581711442
 10
3036.924669759516
 20
1134.956581711442
 42
-0.187293026366
 10
3040.447308443479
 20
1133.004963973138
 42
-0.6299625821720002
 10
3040.269240030488
 20
1132.493913788342
  0
LWPOLYLINE
  5
584
330
1F
100
AcDbEntity
  8
外框线1
100
AcDbPolyline
 90
        4
 70
     1
 43
0.0
 10
3021.604455651476
 20
1123.022665420541
 10
3041.874669759469
 20
1121.449162466547
 10
3041.874669759469
 20
1128.464000956338
 10
3021.604455651476
 20
1126.890498002344
 42
-0.165578060144
  0
LWPOLYLINE
  5
585
330
1F
100
AcDbEntity
  8
外框线1
100
AcDbPolyline
 90
        4
 70
     1
 43
0.0
 10
3010.244883867788
 20
1123.022665420541
 10
2989.974669759912
 20
1121.449162466547
 10
2989.974669759912
 20
1128.464000956338
 10
3010.244883867788
 20
1126.890498002344
 42
0.165578060144
  0
ELLIPSE
  5
586
102
{ACAD_REACTORS
330
591
102
}
330
1F
100
AcDbEntity
  8
外框线1
100
AcDbEllipse
 10
3015.924669759515
 20
1124.956581711442
 30
0.0
 11
0.0
 21
2.800000000000181
 31
0.0
210
0.0
220
0.0
230
1.0
 40
0.8216696726797591
 41
0.0
 42
6.283185307179586
  0
DIMENSION
  5
587
102
{ACAD_XDICTIONARY
360
588
102
}
102
{ACAD_REACTORS
330
589
102
}
330
1F
100
AcDbEntity
  8
标注
100
AcDbDimension
280
     0
  2
*D44
 10
3110.924669759574
 20
1524.815164513967
 30
0.0
 11
3047.02943166432
 21
1524.815164513967
 31
0.0
 70
   160
 71
     5
 42
20.0
 73
     0
 74
     0
 75
     0
  3
1-8-L
100
AcDbAlignedDimension
 13
3090.924669759574
 23
1579.917825107063
 33
0.0
 14
3110.924669759574
 24
1579.917825107063
 34
0.0
100
AcDbRotatedDimension
  0
DIMENSION
  5
58A
102
{ACAD_XDICTIONARY
360
58B
102
}
102
{ACAD_REACTORS
330
58C
102
}
330
1F
100
AcDbEntity
  8
标注
100
AcDbDimension
280
     0
  2
*D45
 10
2980.254503444761
 20
1779.917825107063
 30
0.0
 11
2965.859960470682
 21
1719.917825107078
 31
0.0
 70
    32
 71
     5
 42
119.9999999999709
 73
     0
 74
     0
 75
     0
  3
1-8-L
100
AcDbAlignedDimension
 13
3015.924669759574
 23
1659.917825107092
 33
0.0
 14
3015.924669759574
 24
1779.917825107063
 34
0.0
 50
90.0
100
AcDbRotatedDimension
  0
DIMENSION
  5
58D
330
1F
100
AcDbEntity
  8
标注
100
AcDbDimension
280
     0
  2
*D33
 10
3041.059622677967
 20
1073.601379063862
 30
0.0
 11
2868.235600332038
 21
1073.601379063862
 31
0.0
 70
   160
  1
{\fSimSun|b0|i0|c134|p2;53.5-53.6}
 71
     5
 42
51.89999999955762
 73
     0
 74
     0
 75
     0
  3
1-8-L
100
AcDbAlignedDimension
 13
2989.15962267841
 23
1125.904216796604
 33
0.0
 14
3041.059622677967
 24
1125.904216796604
 34
0.0
100
AcDbRotatedDimension
  0
DIMENSION
  5
58E
330
1F
100
AcDbEntity
  8
标注
100
AcDbDimension
280
     0
  2
*D34
 10
3306.77629039366
 20
1047.034556209918
 30
0.0
 11
3381.546122795895
 21
1047.034556209918
 31
0.0
 70
   160
  1
{\fSimSun|b0|i0|c134|p2;53.5-53.6}
 71
     5
 42
51.89999999955762
 73
     0
 74
     0
 75
     0
  3
1-8-L
100
AcDbAlignedDimension
 13
3254.876290394103
 23
1115.969916811992
 33
0.0
 14
3306.77629039366
 24
1114.567872449429
 34
0.0
100
AcDbRotatedDimension
  0
DIMENSION
  5
58F
102
{ACAD_XDICTIONARY
360
590
102
}
102
{ACAD_REACTORS
330
591
102
}
330
1F
100
AcDbEntity
  8
标注
100
AcDbDimension
280
     0
  2
*D46
 10
3065.655623480671
 20
1164.956581711442
 30
0.0
 11
3051.261080506591
 21
1144.956581711443
 31
0.0
 70
    32
 71
     5
 42
40.0
 73
     0
 74
     0
 75
     0
  3
1-8-L
100
AcDbAlignedDimension
 13
3015.924669759515
 23
1124.956581711442
 33
0.0
 14
3015.924669759515
 24
1164.956581711442
 34
0.0
 50
90.0
100
AcDbRotatedDimension
  0
DIMENSION
  5
592
102
{ACAD_XDICTIONARY
360
593
102
}
102
{ACAD_REACTORS
330
594
102
}
330
1F
100
AcDbEntity
  8
标注
100
AcDbDimension
280
     0
  2
*D47
 10
3480.924669759574
 20
1266.025109925476
 30
0.0
 11
2975.924669759574
 21
1280.419652899555
 31
0.0
 70
    32
 71
     5
 42
1010.0
 73
     0
 74
     0
 75
     0
  3
1-8-L
100
AcDbAlignedDimension
 13
2470.924669759574
 23
1359.917825107078
 33
0.0
 14
3480.924669759574
 24
1359.917884204079
 34
0.0
100
AcDbRotatedDimension
  0
DIMENSION
  5
595
102
{ACAD_XDICTIONARY
360
596
102
}
102
{ACAD_REACTORS
330
597
102
}
330
1F
100
AcDbEntity
  8
标注
100
AcDbDimension
280
     0
  2
*D48
 10
2940.924669759574
 20
1303.537028940504
 30
0.0
 11
2705.924669759574
 21
1317.931571914584
 31
0.0
 70
    32
 71
     5
 42
470.0
 73
     0
 74
     0
 75
     0
  3
1-8-L
100
AcDbAlignedDimension
 13
2470.924669759574
 23
1359.917825107078
 33
0.0
 14
2940.924669759574
 24
1389.917825107063
 34
0.0
100
AcDbRotatedDimension
  0
DIMENSION
  5
598
102
{ACAD_XDICTIONARY
360
599
102
}
102
{ACAD_REACTORS
330
59A
102
}
330
1F
100
AcDbEntity
  8
标注
100
AcDbDimension
280
     0
  2
*D49
 10
3090.924669759574
 20
1304.83907371328
 30
0.0
 11
3015.924669759574
 21
1319.233616687359
 31
0.0
 70
    32
 71
     5
 42
150.0
 73
     0
 74
     0
 75
     0
  3
1-8-L
100
AcDbAlignedDimension
 13
2940.924669759574
 23
1389.917825107063
 33
0.0
 14
3090.924669759574
 24
1389.917825107063
 34
0.0
100
AcDbRotatedDimension
  0
DIMENSION
  5
59B
102
{ACAD_XDICTIONARY
360
59C
102
}
102
{ACAD_REACTORS
330
59D
102
}
330
1F
100
AcDbEntity
  8
标注
100
AcDbDimension
280
     0
  2
*D50
 10
3450.924669759574
 20
1305.421171870585
 30
0.0
 11
3280.924669759574
 21
1305.421171870585
 31
0.0
 70
   160
 71
     5
 42
340.0
 73
     0
 74
     0
 75
     0
  3
1-8-L
100
AcDbAlignedDimension
 13
3110.924669759574
 23
1389.917825107063
 33
0.0
 14
3450.924669759574
 24
1389.917825107063
 34
0.0
100
AcDbRotatedDimension
  0
DIMENSION
  5
59E
102
{ACAD_XDICTIONARY
360
59F
102
}
102
{ACAD_REACTORS
330
5A0
102
}
330
1F
100
AcDbEntity
  8
标注
100
AcDbDimension
280
     0
  2
*D51
 10
3450.924669759574
 20
1899.084341483301
 30
0.0
 11
3275.924669759574
 21
1899.084341483301
 31
0.0
 70
   160
 71
     5
 42
350.0
 73
     0
 74
     0
 75
     0
  3
1-8-L
100
AcDbAlignedDimension
 13
3100.924669759574
 23
1824.917825107078
 33
0.0
 14
3450.924669759574
 24
1769.917825107063
 34
0.0
100
AcDbRotatedDimension
  0
DIMENSION
  5
5A1
102
{ACAD_XDICTIONARY
360
5A2
102
}
102
{ACAD_REACTORS
330
5A3
102
}
330
1F
100
AcDbEntity
  8
标注
100
AcDbDimension
280
     0
  2
*D52
 10
3523.482519665144
 20
1869.917825107063
 30
0.0
 11
3509.087976691064
 21
1824.917825107064
 31
0.0
 70
    32
 71
     5
 42
90.0
 73
     0
 74
     0
 75
     0
  3
1-8-L
100
AcDbAlignedDimension
 13
3440.924669759573
 23
1779.917825107063
 33
0.0
 14
3470.924669759574
 24
1869.917825107063
 34
0.0
 50
90.0
100
AcDbRotatedDimension
  0
DIMENSION
  5
5A4
102
{ACAD_XDICTIONARY
360
5A5
102
}
102
{ACAD_REACTORS
330
5A6
102
}
330
1F
100
AcDbEntity
  8
标注
100
AcDbDimension
280
     0
  2
*D53
 10
2480.924669759574
 20
1859.917825107064
 30
0.0
 11
2434.217919867101
 21
1901.641032378012
 31
0.0
 70
    36
 71
     5
 42
9.999999999939518
 73
     0
 74
     0
 75
     0
  3
1-8-L
100
AcDbRadialDimension
 15
2472.135402185282
 25
1864.687392750603
 35
0.0
 40
0.0
1001
ACAD
1000
DSTYLE
1002
{
1070
   288
1070
     1
1002
}
1001
ACAD_DSTYLE_DIMRADIAL_EXTENSION
1070
   387
1070
     1
1070
   388
1040
1.570796326794896
1070
   390
1040
3.141592653589793
  0
LEADER
  5
5A7
330
1F
100
AcDbEntity
  8
外框线1
100
AcDbLeader
  3
1-8-L
 76
     2
 10
3280.999817124852
 20
1778.513327969799
 30
0.0
 10
3280.999817124852
 20
1734.209778315672
 30
0.0
1001
ACAD
1000
DSTYLE
1002
{
1070
   147
1040
0.625
1070
    77
1070
     0
1002
}
  0
LEADER
  5
5A8
330
1F
100
AcDbEntity
  8
外框线1
100
AcDbLeader
  3
1-8-L
 76
     2
 10
3015.677917253626
 20
1777.655017139893
 30
0.0
 10
3015.677917253626
 20
1733.351467485766
 30
0.0
1001
ACAD
1000
DSTYLE
1002
{
1070
   147
1040
0.625
1070
    77
1070
     0
1002
}
  0
LINE
  5
5A9
330
1F
100
AcDbEntity
  8
标注
100
AcDbLine
 10
3089.342095443972
 20
1044.956484927978
 30
0.0
 11
3112.342095443972
 21
1044.956484927978
 31
0.0
  0
LINE
  5
5AA
330
1F
100
AcDbEntity
  8
标注
100
AcDbLine
 10
3112.342095443972
 20
1044.956484927978
 30
0.0
 11
3112.342095443972
 21
1064.956484927978
 31
0.0
  0
LINE
  5
5AB
330
1F
100
AcDbEntity
  8
标注
100
AcDbLine
 10
3112.342095443972
 20
1064.956484927978
 30
0.0
 11
3089.342095443972
 21
1064.956484927978
 31
0.0
  0
LINE
  5
5AC
330
1F
100
AcDbEntity
  8
标注
100
AcDbLine
 10
3089.342095443972
 20
1064.956484927978
 30
0.0
 11
3089.342095443972
 21
1044.956484927978
 31
0.0
  0
LINE
  5
5AD
330
1F
100
AcDbEntity
  8
标注
100
AcDbLine
 10
3100.842095443972
 20
1064.956484927978
 30
0.0
 11
3100.842095443972
 21
1044.956484927978
 31
0.0
  0
INSERT
  5
5AE
330
1F
100
AcDbEntity
  8
标注
100
AcDbBlockReference
  2
A$C52C164B5
 10
3089.065394593046
 20
1381.787829162459
 30
0.0
  0
INSERT
  5
5AF
330
1F
100
AcDbEntity
  8
标注
100
AcDbBlockReference
  2
A$C52C164B5
 10
3089.065394593046
 20
1778.047821051682
 30
0.0
 41
-1.0
 50
180.0
  0
LWPOLYLINE
  5
5B0
330
1F
100
AcDbEntity
  8
外框线3
 48
0.2
100
AcDbPolyline
 90
        4
 70
     1
 43
0.0
 10
2740.924669759574
 20
1781.117825107075
 10
2840.924669759574
 20
1781.117825107075
 10
2840.924669759574
 20
1379.117825107075
 10
2740.924669759574
 20
1379.117825107075
  0
LINE
  5
5B1
330
1F
100
AcDbEntity
  8
外框线1
100
AcDbLine
 10
3068.190064285817
 20
1034.956581711442
 30
0.0
 11
2963.659275233331
 21
1034.956581711442
 31
0.0
  0
ARC
  5
5B2
330
1F
100
AcDbEntity
  8
外框线1
100
AcDbCircle
 10
2963.659275233331
 20
1032.956581711443
 30
0.0
 40
2.0
100
AcDbArc
 50
0.9999999998715059
 51
90.0
  0
LINE
  5
5B3
330
1F
100
AcDbEntity
  8
外框线1
100
AcDbLine
 10
3002.793035128322
 20
1010.956581711442
 30
0.0
 11
3012.374669759585
 21
1010.956581711442
 31
0.0
  0
LINE
  5
5B4
330
1F
100
AcDbEntity
  8
外框线1
100
AcDbLine
 10
2965.658970623677
 20
1032.991486524327
 30
0.0
 11
2965.743275017412
 21
1028.16169104205
 31
0.0
  0
ARC
  5
5B5
330
1F
100
AcDbEntity
  8
外框线1
100
AcDbCircle
 10
2975.741751968912
 20
1028.336215106415
 30
0.0
 40
10.0
100
AcDbArc
 50
180.9999999998715
 51
268.9999999984608
  0
LINE
  5
5B6
330
1F
100
AcDbEntity
  8
外框线1
100
AcDbLine
 10
2990.69212216598
 20
1018.07373214348
 30
0.0
 11
2975.567227904503
 21
1018.337738154857
 31
0.0
  0
ARC
  5
5B7
330
1F
100
AcDbEntity
  8
外框线1
100
AcDbCircle
 10
2990.674669759516
 20
1017.073884448336
 30
0.0
 40
1.0
100
AcDbArc
 50
359.9999999991662
 51
89.00000000179634
  0
LINE
  5
5B8
330
1F
100
AcDbEntity
  8
外框线1
100
AcDbLine
 10
2991.674669759516
 20
1017.073884448336
 30
0.0
 11
2991.726200733967
 21
1014.121676898569
 31
0.0
  0
LINE
  5
5B9
330
1F
100
AcDbEntity
  8
外框线1
100
AcDbLine
 10
3015.924669759515
 20
1012.156581711439
 30
0.0
 11
2993.725896124314
 21
1012.156581711439
 31
0.0
  0
ARC
  5
5BA
330
1F
100
AcDbEntity
  8
外框线1
100
AcDbCircle
 10
2993.725896124314
 20
1014.156581711439
 30
0.0
 40
2.0
100
AcDbArc
 50
180.9999999998715
 51
270.0
  0
LINE
  5
5BB
330
1F
100
AcDbEntity
  8
外框线1
100
AcDbLine
 10
3002.793035128322
 20
1012.156581711439
 30
0.0
 11
3002.793035128322
 21
1010.956581711442
 31
0.0
  0
LINE
  5
5BC
330
1F
100
AcDbEntity
  8
外框线1
100
AcDbLine
 10
3012.374669759585
 20
1012.156581711439
 30
0.0
 11
3012.374669759585
 21
1010.956581711442
 31
0.0
  0
LINE
  5
5BD
330
1F
100
AcDbEntity
  8
外框线1
100
AcDbLine
 10
3029.05630439071
 20
1010.956581711442
 30
0.0
 11
3019.474669759562
 21
1010.956581711442
 31
0.0
  0
LINE
  5
5BE
330
1F
100
AcDbEntity
  8
外框线1
100
AcDbLine
 10
3066.19036889547
 20
1032.991486524327
 30
0.0
 11
3066.106064501735
 21
1028.16169104205
 31
0.0
  0
ARC
  5
5BF
330
1F
100
AcDbEntity
  8
外框线1
100
AcDbCircle
 10
3056.10758755012
 20
1028.336215106415
 30
0.0
 40
10.0
100
AcDbArc
 50
270.9999999982037
 51
359.0000000001285
  0
LINE
  5
5C0
330
1F
100
AcDbEntity
  8
外框线1
100
AcDbLine
 10
3041.157217353168
 20
1018.073732143494
 30
0.0
 11
3056.282111614528
 21
1018.337738154857
 31
0.0
  0
ARC
  5
5C1
330
1F
100
AcDbEntity
  8
外框线1
100
AcDbCircle
 10
3041.174669759516
 20
1017.073884448336
 30
0.0
 40
1.0
100
AcDbArc
 50
90.99999999820365
 51
180.0
  0
LINE
  5
5C2
330
1F
100
AcDbEntity
  8
外框线1
100
AcDbLine
 10
3040.174669759516
 20
1017.073884448336
 30
0.0
 11
3040.123138785064
 21
1014.121676898569
 31
0.0
  0
LINE
  5
5C3
330
1F
100
AcDbEntity
  8
外框线1
100
AcDbLine
 10
3015.924669759515
 20
1012.156581711439
 30
0.0
 11
3038.123443394717
 21
1012.156581711454
 31
0.0
  0
ARC
  5
5C4
330
1F
100
AcDbEntity
  8
外框线1
100
AcDbCircle
 10
3038.123443394717
 20
1014.156581711454
 30
0.0
 40
2.0
100
AcDbArc
 50
270.0
 51
359.0000000001285
  0
LINE
  5
5C5
330
1F
100
AcDbEntity
  8
外框线1
100
AcDbLine
 10
3029.05630439071
 20
1012.156581711439
 30
0.0
 11
3029.05630439071
 21
1010.956581711442
 31
0.0
  0
LINE
  5
5C6
330
1F
100
AcDbEntity
  8
外框线1
100
AcDbLine
 10
3019.474669759562
 20
1012.156581711439
 30
0.0
 11
3019.474669759562
 21
1010.956581711442
 31
0.0
  0
ARC
  5
5C7
330
1F
100
AcDbEntity
  8
外框线1
100
AcDbCircle
 10
3068.190064285817
 20
1032.956581711443
 30
0.0
 40
2.0
100
AcDbArc
 50
90.0
 51
179.0000000001285
  0
ARC
  5
5C8
330
1F
100
AcDbEntity
  8
外框线1
100
AcDbCircle
 10
3228.659275233331
 20
977.9565817114425
 30
0.0
 40
2.0
100
AcDbArc
 50
0.9999999998715059
 51
90.0
  0
LINE
  5
5C9
330
1F
100
AcDbEntity
  8
外框线1
100
AcDbLine
 10
3267.793035128322
 20
955.9565817114426
 30
0.0
 11
3277.374669759586
 21
955.9565817114426
 31
0.0
  0
LINE
  5
5CA
330
1F
100
AcDbEntity
  8
外框线1
100
AcDbLine
 10
3230.658970623677
 20
977.9914865243272
 30
0.0
 11
3230.743275017412
 21
973.1616910420498
 31
0.0
  0
ARC
  5
5CB
330
1F
100
AcDbEntity
  8
外框线1
100
AcDbCircle
 10
3240.741751968912
 20
973.3362151064147
 30
0.0
 40
10.0
100
AcDbArc
 50
180.9999999998715
 51
268.9999999984608
  0
LINE
  5
5CC
330
1F
100
AcDbEntity
  8
外框线1
100
AcDbLine
 10
3255.69212216598
 20
963.0737321434798
 30
0.0
 11
3240.567227904503
 21
963.3377381548571
 31
0.0
  0
ARC
  5
5CD
330
1F
100
AcDbEntity
  8
外框线1
100
AcDbCircle
 10
3255.674669759515
 20
962.0738844483357
 30
0.0
 40
1.0
100
AcDbArc
 50
359.9999999991662
 51
89.00000000179634
  0
LINE
  5
5CE
330
1F
100
AcDbEntity
  8
外框线1
100
AcDbLine
 10
3256.674669759516
 20
962.0738844483357
 30
0.0
 11
3256.726200733967
 21
959.1216768985695
 31
0.0
  0
LINE
  5
5CF
330
1F
100
AcDbEntity
  8
外框线1
100
AcDbLine
 10
3280.924669759516
 20
957.1565817114397
 30
0.0
 11
3258.725896124314
 21
957.1565817114397
 31
0.0
  0
ARC
  5
5D0
330
1F
100
AcDbEntity
  8
外框线1
100
AcDbCircle
 10
3258.725896124314
 20
959.1565817114396
 30
0.0
 40
2.0
100
AcDbArc
 50
180.9999999998715
 51
270.0
  0
LINE
  5
5D1
330
1F
100
AcDbEntity
  8
外框线1
100
AcDbLine
 10
3267.793035128322
 20
957.1565817114397
 30
0.0
 11
3267.793035128322
 21
955.9565817114426
 31
0.0
  0
LINE
  5
5D2
330
1F
100
AcDbEntity
  8
外框线1
100
AcDbLine
 10
3277.374669759586
 20
957.1565817114397
 30
0.0
 11
3277.374669759586
 21
955.9565817114426
 31
0.0
  0
LINE
  5
5D3
330
1F
100
AcDbEntity
  8
外框线1
100
AcDbLine
 10
3294.05630439071
 20
955.9565817114426
 30
0.0
 11
3284.474669759562
 21
955.9565817114426
 31
0.0
  0
LINE
  5
5D4
330
1F
100
AcDbEntity
  8
外框线1
100
AcDbLine
 10
3331.19036889547
 20
977.9914865243272
 30
0.0
 11
3331.106064501735
 21
973.1616910420498
 31
0.0
  0
ARC
  5
5D5
330
1F
100
AcDbEntity
  8
外框线1
100
AcDbCircle
 10
3321.10758755012
 20
973.3362151064147
 30
0.0
 40
10.0
100
AcDbArc
 50
270.9999999982037
 51
359.0000000001285
  0
LINE
  5
5D6
330
1F
100
AcDbEntity
  8
外框线1
100
AcDbLine
 10
3306.157217353168
 20
963.0737321434944
 30
0.0
 11
3321.282111614528
 21
963.3377381548571
 31
0.0
  0
ARC
  5
5D7
330
1F
100
AcDbEntity
  8
外框线1
100
AcDbCircle
 10
3306.174669759516
 20
962.0738844483357
 30
0.0
 40
1.0
100
AcDbArc
 50
90.99999999820365
 51
180.0
  0
LINE
  5
5D8
330
1F
100
AcDbEntity
  8
外框线1
100
AcDbLine
 10
3305.174669759516
 20
962.0738844483357
 30
0.0
 11
3305.123138785064
 21
959.1216768985695
 31
0.0
  0
LINE
  5
5D9
330
1F
100
AcDbEntity
  8
外框线1
100
AcDbLine
 10
3280.924669759516
 20
957.1565817114397
 30
0.0
 11
3303.123443394718
 21
957.1565817114542
 31
0.0
  0
ARC
  5
5DA
330
1F
100
AcDbEntity
  8
外框线1
100
AcDbCircle
 10
3303.123443394718
 20
959.1565817114542
 30
0.0
 40
2.0
100
AcDbArc
 50
270.0
 51
359.0000000001285
  0
LINE
  5
5DB
330
1F
100
AcDbEntity
  8
外框线1
100
AcDbLine
 10
3294.05630439071
 20
957.1565817114397
 30
0.0
 11
3294.05630439071
 21
955.9565817114426
 31
0.0
  0
LINE
  5
5DC
330
1F
100
AcDbEntity
  8
外框线1
100
AcDbLine
 10
3284.474669759562
 20
957.1565817114397
 30
0.0
 11
3284.474669759562
 21
955.9565817114426
 31
0.0
  0
ARC
  5
5DD
330
1F
100
AcDbEntity
  8
外框线1
100
AcDbCircle
 10
3333.190064285817
 20
977.9565817114425
 30
0.0
 40
2.0
100
AcDbArc
 50
90.0
 51
179.0000000001285
  0
ARC
  5
5DE
330
1F
100
AcDbEntity
  8
外框线1
100
AcDbCircle
 10
3009.044669759569
 20
1671.474991715026
 30
0.0
 40
3.33
100
AcDbArc
 50
300.765406939364
 51
0.0
  0
ARC
  5
5DF
330
1F
100
AcDbEntity
  8
外框线1
100
AcDbCircle
 10
3009.355869881336
 20
1671.654663189089
 30
0.0
 40
3.33
100
AcDbArc
 50
239.999999999938
 51
299.2345930572712
  0
ARC
  5
5E0
330
1F
100
AcDbEntity
  8
外框线1
100
AcDbCircle
 10
3015.924669759574
 20
1659.917825107078
 30
0.0
 40
19.0
100
AcDbArc
 50
109.0546939574512
 51
130.9453060426577
  0
ARC
  5
5E1
330
1F
100
AcDbEntity
  8
外框线1
100
AcDbCircle
 10
3010.374669759585
 20
1675.986350241649
 30
0.0
 40
2.0
100
AcDbArc
 50
0.0
 51
109.0546939574512
  0
ARC
  5
5E2
330
1F
100
AcDbEntity
  8
外框线1
100
AcDbCircle
 10
3004.783918791734
 20
1672.758528665371
 30
0.0
 40
2.0
100
AcDbArc
 50
130.9453060426577
 51
239.999999999938
  0
CIRCLE
  5
5E3
330
1F
100
AcDbEntity
  8
外框线1
100
AcDbCircle
 10
3015.924669759574
 20
1659.917825107078
 30
0.0
 40
6.025
  0
CIRCLE
  5
5E4
330
1F
100
AcDbEntity
  8
外框线1
100
AcDbCircle
 10
3015.924669759574
 20
1659.917825107078
 30
0.0
 40
23.55
  0
LINE
  5
5E5
330
1F
100
AcDbEntity
  8
外框线1
100
AcDbLine
 10
3012.374669759585
 20
1671.474991715026
 30
0.0
 11
3012.374669759585
 21
1675.986350241649
 31
0.0
  0
LINE
  5
5E6
330
1F
100
AcDbEntity
  8
外框线1
100
AcDbLine
 10
3007.690869881357
 20
1668.770798594481
 30
0.0
 11
3003.783918791735
 21
1671.026477857792
 31
0.0
  0
ARC
  5
5E7
330
1F
100
AcDbEntity
  8
外框线1
100
AcDbCircle
 10
3002.475869881331
 20
1659.738153633015
 30
0.0
 40
3.33
100
AcDbArc
 50
0.7654069411920834
 51
59.99999999993804
  0
ARC
  5
5E8
330
1F
100
AcDbEntity
  8
外框线1
100
AcDbCircle
 10
3002.475869881331
 20
1660.097496581155
 30
0.0
 40
3.33
100
AcDbArc
 50
300.0000000000619
 51
359.2345930588079
  0
ARC
  5
5E9
330
1F
100
AcDbEntity
  8
外框线1
100
AcDbCircle
 10
3015.924669759574
 20
1659.917825107078
 30
0.0
 40
19.0
100
AcDbArc
 50
169.0546939578236
 51
190.9453060421764
  0
ARC
  5
5EA
330
1F
100
AcDbEntity
  8
外框线1
100
AcDbCircle
 10
2999.233918791746
 20
1663.145646683356
 30
0.0
 40
2.0
100
AcDbArc
 50
59.99999999993804
 51
169.0546939578236
  0
ARC
  5
5EB
330
1F
100
AcDbEntity
  8
外框线1
100
AcDbCircle
 10
2999.233918791746
 20
1656.6900035308
 30
0.0
 40
2.0
100
AcDbArc
 50
190.9453060421764
 51
300.0000000000619
  0
LINE
  5
5EC
330
1F
100
AcDbEntity
  8
外框线1
100
AcDbLine
 10
3004.140869881368
 20
1662.622018227624
 30
0.0
 11
3000.233918791746
 21
1664.877697490935
 31
0.0
  0
LINE
  5
5ED
330
1F
100
AcDbEntity
  8
外框线1
100
AcDbLine
 10
3004.140869881368
 20
1657.213631986547
 30
0.0
 11
3000.233918791746
 21
1654.957952723235
 31
0.0
  0
ARC
  5
5EE
330
1F
100
AcDbEntity
  8
外框线1
100
AcDbCircle
 10
3009.355869881336
 20
1648.180987025081
 30
0.0
 40
3.329999999999999
100
AcDbArc
 50
60.76540694272882
 51
120.0000000000619
  0
ARC
  5
5EF
330
1F
100
AcDbEntity
  8
外框线1
100
AcDbCircle
 10
3009.044669759627
 20
1648.360658499144
 30
0.0
 40
3.329999999999999
100
AcDbArc
 50
0.0
 51
59.23459306063598
  0
ARC
  5
5F0
330
1F
100
AcDbEntity
  8
外框线1
100
AcDbCircle
 10
3015.924669759574
 20
1659.917825107078
 30
0.0
 40
19.0
100
AcDbArc
 50
229.0546939573423
 51
250.9453060425487
  0
ARC
  5
5F1
330
1F
100
AcDbEntity
  8
外框线1
100
AcDbCircle
 10
3004.783918791734
 20
1647.077121548799
 30
0.0
 40
1.999999999999999
100
AcDbArc
 50
120.0000000000619
 51
229.0546939573423
  0
ARC
  5
5F2
330
1F
100
AcDbEntity
  8
外框线1
100
AcDbCircle
 10
3010.374669759585
 20
1643.849299972521
 30
0.0
 40
1.999999999999999
100
AcDbArc
 50
250.9453060425487
 51
0.0
  0
LINE
  5
5F3
330
1F
100
AcDbEntity
  8
外框线1
100
AcDbLine
 10
3007.690869881357
 20
1651.064851619675
 30
0.0
 11
3003.783918791735
 21
1648.809172356363
 31
0.0
  0
LINE
  5
5F4
330
1F
100
AcDbEntity
  8
外框线1
100
AcDbLine
 10
3012.374669759585
 20
1648.360658499144
 30
0.0
 11
3012.374669759585
 21
1643.849299972521
 31
0.0
  0
ARC
  5
5F5
330
1F
100
AcDbEntity
  8
外框线1
100
AcDbCircle
 10
3022.804669759578
 20
1648.360658499144
 30
0.0
 40
3.33
100
AcDbArc
 50
120.765406939364
 51
180.0
  0
ARC
  5
5F6
330
1F
100
AcDbEntity
  8
外框线1
100
AcDbCircle
 10
3022.49346963787
 20
1648.180987025081
 30
0.0
 40
3.33
100
AcDbArc
 50
59.99999999993804
 51
119.2345930572711
  0
ARC
  5
5F7
330
1F
100
AcDbEntity
  8
外框线1
100
AcDbCircle
 10
3015.924669759574
 20
1659.917825107078
 30
0.0
 40
19.0
100
AcDbArc
 50
289.0546939574512
 51
310.9453060426577
  0
ARC
  5
5F8
330
1F
100
AcDbEntity
  8
外框线1
100
AcDbCircle
 10
3021.47466975962
 20
1643.849299972521
 30
0.0
 40
2.0
100
AcDbArc
 50
180.0
 51
289.0546939574512
  0
ARC
  5
5F9
330
1F
100
AcDbEntity
  8
外框线1
100
AcDbCircle
 10
3027.065420727471
 20
1647.077121548799
 30
0.0
 40
2.0
100
AcDbArc
 50
310.9453060426577
 51
59.99999999993804
  0
LINE
  5
5FA
330
1F
100
AcDbEntity
  8
外框线1
100
AcDbLine
 10
3019.47466975962
 20
1648.360658499144
 30
0.0
 11
3019.47466975962
 21
1643.849299972521
 31
0.0
  0
LINE
  5
5FB
330
1F
100
AcDbEntity
  8
外框线1
100
AcDbLine
 10
3024.158469637848
 20
1651.06485161969
 30
0.0
 11
3028.065420727471
 21
1648.809172356378
 31
0.0
  0
ARC
  5
5FC
330
1F
100
AcDbEntity
  8
外框线1
100
AcDbCircle
 10
3029.373469637816
 20
1660.097496581155
 30
0.0
 40
3.33
100
AcDbArc
 50
180.7654069411921
 51
239.999999999938
  0
ARC
  5
5FD
330
1F
100
AcDbEntity
  8
外框线1
100
AcDbCircle
 10
3029.373469637816
 20
1659.738153633015
 30
0.0
 40
3.33
100
AcDbArc
 50
120.0000000000619
 51
179.2345930588079
  0
ARC
  5
5FE
330
1F
100
AcDbEntity
  8
外框线1
100
AcDbCircle
 10
3015.924669759574
 20
1659.917825107092
 30
0.0
 40
19.0
100
AcDbArc
 50
349.0546939578236
 51
10.94530604217638
  0
ARC
  5
5FF
330
1F
100
AcDbEntity
  8
外框线1
100
AcDbCircle
 10
3032.61542072746
 20
1656.690003530814
 30
0.0
 40
2.0
100
AcDbArc
 50
239.999999999938
 51
349.0546939578236
  0
ARC
  5
600
330
1F
100
AcDbEntity
  8
外框线1
100
AcDbCircle
 10
3032.61542072746
 20
1663.145646683371
 30
0.0
 40
2.0
100
AcDbArc
 50
10.94530604217638
 51
120.0000000000619
  0
LINE
  5
601
330
1F
100
AcDbEntity
  8
外框线1
100
AcDbLine
 10
3027.708469637837
 20
1657.213631986547
 30
0.0
 11
3031.615420727459
 21
1654.957952723235
 31
0.0
  0
LINE
  5
602
330
1F
100
AcDbEntity
  8
外框线1
100
AcDbLine
 10
3027.708469637837
 20
1662.622018227624
 30
0.0
 11
3031.615420727459
 21
1664.877697490935
 31
0.0
  0
ARC
  5
603
330
1F
100
AcDbEntity
  8
外框线1
100
AcDbCircle
 10
3022.493469637812
 20
1671.654663189089
 30
0.0
 40
3.33
100
AcDbArc
 50
240.7654069427288
 51
300.0000000000619
  0
ARC
  5
604
330
1F
100
AcDbEntity
  8
外框线1
100
AcDbCircle
 10
3022.804669759578
 20
1671.474991715026
 30
0.0
 40
3.33
100
AcDbArc
 50
180.0
 51
239.234593060636
  0
ARC
  5
605
330
1F
100
AcDbEntity
  8
外框线1
100
AcDbCircle
 10
3015.924669759574
 20
1659.917825107092
 30
0.0
 40
19.0
100
AcDbArc
 50
49.05469395734226
 51
70.94530604254877
  0
ARC
  5
606
330
1F
100
AcDbEntity
  8
外框线1
100
AcDbCircle
 10
3027.065420727471
 20
1672.758528665371
 30
0.0
 40
2.0
100
AcDbArc
 50
300.0000000000619
 51
49.05469395734226
  0
ARC
  5
607
330
1F
100
AcDbEntity
  8
外框线1
100
AcDbCircle
 10
3021.47466975962
 20
1675.986350241649
 30
0.0
 40
2.0
100
AcDbArc
 50
70.94530604254877
 51
180.0
  0
LINE
  5
608
330
1F
100
AcDbEntity
  8
外框线1
100
AcDbLine
 10
3024.158469637848
 20
1668.770798594481
 30
0.0
 11
3028.065420727471
 21
1671.026477857792
 31
0.0
  0
LINE
  5
609
330
1F
100
AcDbEntity
  8
外框线1
100
AcDbLine
 10
3019.47466975962
 20
1671.474991715026
 30
0.0
 11
3019.47466975962
 21
1675.986350241649
 31
0.0
  0
CIRCLE
  5
60A
102
{ACAD_REACTORS
330
60D
102
}
330
1F
100
AcDbEntity
  8
外框线1
100
AcDbCircle
 10
3015.924669759574
 20
1659.917825107078
 30
0.0
 40
50.75
  0
DIMENSION
  5
60B
102
{ACAD_XDICTIONARY
360
60C
102
}
102
{ACAD_REACTORS
330
60D
102
}
330
1F
100
AcDbEntity
  8
标注
100
AcDbDimension
280
     0
  2
*D54
 10
3035.949004178763
 20
1706.550308753903
 30
0.0
 11
2964.874214676299
 21
1569.371477203816
 31
0.0
 70
    35
 71
     5
 42
101.50000000003
 73
     0
 74
     0
 75
     0
  3
1-6-L
100
AcDbDiametricDimension
 15
2995.900335340395
 25
1613.285341460279
 35
0.0
 40
0.0
1001
ACAD_DSTYLE_DIMRADIAL_EXTENSION
1070
   387
1070
     1
1070
   388
1040
0.0
1070
   390
1040
0.0
  0
ARC
  5
60E
330
1F
100
AcDbEntity
  8
外框线1
100
AcDbCircle
 10
3274.044669759569
 20
1671.474991715026
 30
0.0
 40
3.33
100
AcDbArc
 50
300.765406939364
 51
0.0
  0
ARC
  5
60F
330
1F
100
AcDbEntity
  8
外框线1
100
AcDbCircle
 10
3274.355869881336
 20
1671.654663189089
 30
0.0
 40
3.33
100
AcDbArc
 50
239.999999999938
 51
299.2345930572712
  0
ARC
  5
610
330
1F
100
AcDbEntity
  8
外框线1
100
AcDbCircle
 10
3280.924669759574
 20
1659.917825107078
 30
0.0
 40
19.0
100
AcDbArc
 50
109.0546939574512
 51
130.9453060426577
  0
ARC
  5
611
330
1F
100
AcDbEntity
  8
外框线1
100
AcDbCircle
 10
3275.374669759585
 20
1675.986350241649
 30
0.0
 40
2.0
100
AcDbArc
 50
0.0
 51
109.0546939574512
  0
ARC
  5
612
330
1F
100
AcDbEntity
  8
外框线1
100
AcDbCircle
 10
3269.783918791735
 20
1672.758528665371
 30
0.0
 40
2.0
100
AcDbArc
 50
130.9453060426577
 51
239.999999999938
  0
CIRCLE
  5
613
330
1F
100
AcDbEntity
  8
外框线1
100
AcDbCircle
 10
3280.924669759574
 20
1659.917825107078
 30
0.0
 40
6.025
  0
CIRCLE
  5
614
330
1F
100
AcDbEntity
  8
外框线1
100
AcDbCircle
 10
3280.924669759574
 20
1659.917825107078
 30
0.0
 40
23.55
  0
LINE
  5
615
330
1F
100
AcDbEntity
  8
外框线1
100
AcDbLine
 10
3277.374669759586
 20
1671.474991715026
 30
0.0
 11
3277.374669759586
 21
1675.986350241649
 31
0.0
  0
LINE
  5
616
330
1F
100
AcDbEntity
  8
外框线1
100
AcDbLine
 10
3272.690869881357
 20
1668.770798594481
 30
0.0
 11
3268.783918791734
 21
1671.026477857792
 31
0.0
  0
ARC
  5
617
330
1F
100
AcDbEntity
  8
外框线1
100
AcDbCircle
 10
3267.475869881331
 20
1659.738153633015
 30
0.0
 40
3.33
100
AcDbArc
 50
0.7654069411920834
 51
59.99999999993804
  0
ARC
  5
618
330
1F
100
AcDbEntity
  8
外框线1
100
AcDbCircle
 10
3267.475869881331
 20
1660.097496581155
 30
0.0
 40
3.33
100
AcDbArc
 50
300.0000000000619
 51
359.2345930588079
  0
ARC
  5
619
330
1F
100
AcDbEntity
  8
外框线1
100
AcDbCircle
 10
3280.924669759574
 20
1659.917825107078
 30
0.0
 40
19.0
100
AcDbArc
 50
169.0546939578236
 51
190.9453060421764
  0
ARC
  5
61A
330
1F
100
AcDbEntity
  8
外框线1
100
AcDbCircle
 10
3264.233918791746
 20
1663.145646683356
 30
0.0
 40
2.0
100
AcDbArc
 50
59.99999999993804
 51
169.0546939578236
  0
ARC
  5
61B
330
1F
100
AcDbEntity
  8
外框线1
100
AcDbCircle
 10
3264.233918791746
 20
1656.6900035308
 30
0.0
 40
2.0
100
AcDbArc
 50
190.9453060421764
 51
300.0000000000619
  0
LINE
  5
61C
330
1F
100
AcDbEntity
  8
外框线1
100
AcDbLine
 10
3269.140869881368
 20
1662.622018227624
 30
0.0
 11
3265.233918791746
 21
1664.877697490935
 31
0.0
  0
LINE
  5
61D
330
1F
100
AcDbEntity
  8
外框线1
100
AcDbLine
 10
3269.140869881368
 20
1657.213631986547
 30
0.0
 11
3265.233918791746
 21
1654.957952723235
 31
0.0
  0
ARC
  5
61E
330
1F
100
AcDbEntity
  8
外框线1
100
AcDbCircle
 10
3274.355869881336
 20
1648.180987025081
 30
0.0
 40
3.329999999999999
100
AcDbArc
 50
60.76540694272882
 51
120.0000000000619
  0
ARC
  5
61F
330
1F
100
AcDbEntity
  8
外框线1
100
AcDbCircle
 10
3274.044669759627
 20
1648.360658499144
 30
0.0
 40
3.329999999999999
100
AcDbArc
 50
0.0
 51
59.23459306063598
  0
ARC
  5
620
330
1F
100
AcDbEntity
  8
外框线1
100
AcDbCircle
 10
3280.924669759574
 20
1659.917825107078
 30
0.0
 40
19.0
100
AcDbArc
 50
229.0546939573423
 51
250.9453060425487
  0
ARC
  5
621
330
1F
100
AcDbEntity
  8
外框线1
100
AcDbCircle
 10
3269.783918791735
 20
1647.077121548799
 30
0.0
 40
1.999999999999999
100
AcDbArc
 50
120.0000000000619
 51
229.0546939573423
  0
ARC
  5
622
330
1F
100
AcDbEntity
  8
外框线1
100
AcDbCircle
 10
3275.374669759585
 20
1643.849299972521
 30
0.0
 40
1.999999999999999
100
AcDbArc
 50
250.9453060425487
 51
0.0
  0
LINE
  5
623
330
1F
100
AcDbEntity
  8
外框线1
100
AcDbLine
 10
3272.690869881357
 20
1651.064851619675
 30
0.0
 11
3268.783918791734
 21
1648.809172356363
 31
0.0
  0
LINE
  5
624
330
1F
100
AcDbEntity
  8
外框线1
100
AcDbLine
 10
3277.374669759586
 20
1648.360658499144
 30
0.0
 11
3277.374669759586
 21
1643.849299972521
 31
0.0
  0
ARC
  5
625
330
1F
100
AcDbEntity
  8
外框线1
100
AcDbCircle
 10
3287.804669759579
 20
1648.360658499144
 30
0.0
 40
3.33
100
AcDbArc
 50
120.765406939364
 51
180.0
  0
ARC
  5
626
330
1F
100
AcDbEntity
  8
外框线1
100
AcDbCircle
 10
3287.493469637869
 20
1648.180987025081
 30
0.0
 40
3.33
100
AcDbArc
 50
59.99999999993804
 51
119.2345930572711
  0
ARC
  5
627
330
1F
100
AcDbEntity
  8
外框线1
100
AcDbCircle
 10
3280.924669759574
 20
1659.917825107078
 30
0.0
 40
19.0
100
AcDbArc
 50
289.0546939574512
 51
310.9453060426577
  0
ARC
  5
628
330
1F
100
AcDbEntity
  8
外框线1
100
AcDbCircle
 10
3286.47466975962
 20
1643.849299972521
 30
0.0
 40
2.0
100
AcDbArc
 50
180.0
 51
289.0546939574512
  0
ARC
  5
629
330
1F
100
AcDbEntity
  8
外框线1
100
AcDbCircle
 10
3292.065420727471
 20
1647.077121548799
 30
0.0
 40
2.0
100
AcDbArc
 50
310.9453060426577
 51
59.99999999993804
  0
LINE
  5
62A
330
1F
100
AcDbEntity
  8
外框线1
100
AcDbLine
 10
3284.47466975962
 20
1648.360658499144
 30
0.0
 11
3284.47466975962
 21
1643.849299972521
 31
0.0
  0
LINE
  5
62B
330
1F
100
AcDbEntity
  8
外框线1
100
AcDbLine
 10
3289.158469637849
 20
1651.06485161969
 30
0.0
 11
3293.065420727471
 21
1648.809172356378
 31
0.0
  0
ARC
  5
62C
330
1F
100
AcDbEntity
  8
外框线1
100
AcDbCircle
 10
3294.373469637816
 20
1660.097496581155
 30
0.0
 40
3.33
100
AcDbArc
 50
180.7654069411921
 51
239.999999999938
  0
ARC
  5
62D
330
1F
100
AcDbEntity
  8
外框线1
100
AcDbCircle
 10
3294.373469637816
 20
1659.738153633015
 30
0.0
 40
3.33
100
AcDbArc
 50
120.0000000000619
 51
179.2345930588079
  0
ARC
  5
62E
330
1F
100
AcDbEntity
  8
外框线1
100
AcDbCircle
 10
3280.924669759574
 20
1659.917825107092
 30
0.0
 40
19.0
100
AcDbArc
 50
349.0546939578236
 51
10.94530604217638
  0
ARC
  5
62F
330
1F
100
AcDbEntity
  8
外框线1
100
AcDbCircle
 10
3297.61542072746
 20
1656.690003530814
 30
0.0
 40
2.0
100
AcDbArc
 50
239.999999999938
 51
349.0546939578236
  0
ARC
  5
630
330
1F
100
AcDbEntity
  8
外框线1
100
AcDbCircle
 10
3297.61542072746
 20
1663.145646683371
 30
0.0
 40
2.0
100
AcDbArc
 50
10.94530604217638
 51
120.0000000000619
  0
LINE
  5
631
330
1F
100
AcDbEntity
  8
外框线1
100
AcDbLine
 10
3292.708469637837
 20
1657.213631986547
 30
0.0
 11
3296.615420727459
 21
1654.957952723235
 31
0.0
  0
LINE
  5
632
330
1F
100
AcDbEntity
  8
外框线1
100
AcDbLine
 10
3292.708469637837
 20
1662.622018227624
 30
0.0
 11
3296.615420727459
 21
1664.877697490935
 31
0.0
  0
ARC
  5
633
330
1F
100
AcDbEntity
  8
外框线1
100
AcDbCircle
 10
3287.493469637811
 20
1671.654663189089
 30
0.0
 40
3.33
100
AcDbArc
 50
240.7654069427288
 51
300.0000000000619
  0
ARC
  5
634
330
1F
100
AcDbEntity
  8
外框线1
100
AcDbCircle
 10
3287.804669759579
 20
1671.474991715026
 30
0.0
 40
3.33
100
AcDbArc
 50
180.0
 51
239.234593060636
  0
ARC
  5
635
330
1F
100
AcDbEntity
  8
外框线1
100
AcDbCircle
 10
3280.924669759574
 20
1659.917825107092
 30
0.0
 40
19.0
100
AcDbArc
 50
49.05469395734226
 51
70.94530604254877
  0
ARC
  5
636
330
1F
100
AcDbEntity
  8
外框线1
100
AcDbCircle
 10
3292.065420727471
 20
1672.758528665371
 30
0.0
 40
2.0
100
AcDbArc
 50
300.0000000000619
 51
49.05469395734226
  0
ARC
  5
637
330
1F
100
AcDbEntity
  8
外框线1
100
AcDbCircle
 10
3286.47466975962
 20
1675.986350241649
 30
0.0
 40
2.0
100
AcDbArc
 50
70.94530604254877
 51
180.0
  0
LINE
  5
638
330
1F
100
AcDbEntity
  8
外框线1
100
AcDbLine
 10
3289.158469637849
 20
1668.770798594481
 30
0.0
 11
3293.065420727471
 21
1671.026477857792
 31
0.0
  0
LINE
  5
639
330
1F
100
AcDbEntity
  8
外框线1
100
AcDbLine
 10
3284.47466975962
 20
1671.474991715026
 30
0.0
 11
3284.47466975962
 21
1675.986350241649
 31
0.0
  0
CIRCLE
  5
63A
102
{ACAD_REACTORS
330
63D
102
}
330
1F
100
AcDbEntity
  8
外框线1
100
AcDbCircle
 10
3280.924669759574
 20
1659.917825107078
 30
0.0
 40
50.75
  0
DIMENSION
  5
63B
102
{ACAD_XDICTIONARY
360
63C
102
}
102
{ACAD_REACTORS
330
63D
102
}
330
1F
100
AcDbEntity
  8
标注
100
AcDbDimension
280
     0
  2
*D55
 10
3243.813207137636
 20
1694.534321782118
 30
0.0
 11
3364.122365290479
 21
1597.60463596405
 31
0.0
 70
    35
 71
     5
 42
101.4999999999268
 73
     0
 74
     0
 75
     0
  3
1-6-L
100
AcDbDiametricDimension
 15
3318.036132381565
 25
1625.301328431987
 35
0.0
 40
0.0
1001
ACAD_DSTYLE_DIMRADIAL_EXTENSION
1070
   387
1070
     1
1070
   388
1040
0.0
1070
   390
1040
0.0
  0
ENDSEC
  0
SECTION
  2
OBJECTS
  0
DICTIONARY
  5
C
330
0
100
AcDbDictionary
281
     1
  3
ACAD_CIP_PREVIOUS_PRODUCT_INFO
350
216
  3
ACAD_COLOR
350
6B
  3
ACAD_DETAILVIEWSTYLE
350
21B
  3
ACAD_GROUP
350
D
  3
ACAD_LAYOUT
350
1A
  3
ACAD_MATERIAL
350
6A
  3
ACAD_MLEADERSTYLE
350
12D
  3
ACAD_MLINESTYLE
350
17
  3
ACAD_PLOTSETTINGS
350
19
  3
ACAD_PLOTSTYLENAME
350
E
  3
ACAD_SCALELIST
350
10C
  3
ACAD_SECTIONVIEWSTYLE
350
219
  3
ACAD_TABLESTYLE
350
7E
  3
ACAD_VISUALSTYLE
350
EF
  3
ACDB_RECOMPOSE_DATA
350
80C
  3
AcDbVariableDictionary
350
5E
  0
DICTIONARY
  5
7AE
330
8
100
AcDbDictionary
280
     1
281
     1
  0
DICTIONARY
  5
1FF
330
2
100
AcDbDictionary
280
     1
281
     1
  3
ACAD_LAYERSTATES
360
200
  0
DICTIONARY
  5
13C
330
10
100
AcDbDictionary
280
     1
281
     1
  0
DICTIONARY
  5
1CE
330
1F
100
AcDbDictionary
280
     1
281
     1
  0
DICTIONARY
  5
251
330
250
100
AcDbDictionary
280
     1
281
     1
  3
ACAD_SORTENTS
360
252
  0
DICTIONARY
  5
25C
330
25B
100
AcDbDictionary
280
     1
281
     1
  3
ACAD_SORTENTS
360
25D
  0
DICTIONARY
  5
269
330
268
100
AcDbDictionary
280
     1
281
     1
  3
ACAD_SORTENTS
360
26A
  0
DICTIONARY
  5
274
330
273
100
AcDbDictionary
280
     1
281
     1
  3
ACAD_SORTENTS
360
275
  0
DICTIONARY
  5
27A
330
279
100
AcDbDictionary
280
     1
281
     1
  3
ACAD_SORTENTS
360
27B
  0
DICTIONARY
  5
287
330
286
100
AcDbDictionary
280
     1
281
     1
  3
ACAD_SORTENTS
360
288
  0
DICTIONARY
  5
2CF
330
2CE
100
AcDbDictionary
280
     1
281
     1
  3
ACAD_SORTENTS
360
2D0
  0
DICTIONARY
  5
7F1
330
78D
100
AcDbDictionary
280
     1
281
     1
  0
DICTIONARY
  5
7F3
330
795
100
AcDbDictionary
280
     1
281
     1
  0
DICTIONARY
  5
7F5
330
79D
100
AcDbDictionary
280
     1
281
     1
  0
DICTIONARY
  5
544
330
543
100
AcDbDictionary
280
     1
281
     1
  3
ACAD_DIMASSOC
360
545
  0
DICTIONARY
  5
547
330
546
100
AcDbDictionary
280
     1
281
     1
  3
ACAD_DIMASSOC
360
548
  0
DICTIONARY
  5
54A
330
549
100
AcDbDictionary
280
     1
281
     1
  3
ACAD_DIMASSOC
360
54B
  0
DICTIONARY
  5
54D
330
54C
100
AcDbDictionary
280
     1
281
     1
  3
ACAD_DIMASSOC
360
54E
  0
DICTIONARY
  5
550
330
54F
100
AcDbDictionary
280
     1
281
     1
  3
ACAD_DIMASSOC
360
551
  0
DICTIONARY
  5
553
330
552
100
AcDbDictionary
280
     1
281
     1
  3
ACAD_DIMASSOC
360
554
  0
DICTIONARY
  5
566
330
565
100
AcDbDictionary
280
     1
281
     1
  3
ACAD_DIMASSOC
360
567
  0
DICTIONARY
  5
56A
330
569
100
AcDbDictionary
280
     1
281
     1
  3
ACAD_DIMASSOC
360
56B
  0
DICTIONARY
  5
56D
330
56C
100
AcDbDictionary
280
     1
281
     1
  3
ACAD_DIMASSOC
360
56E
  0
DICTIONARY
  5
588
330
587
100
AcDbDictionary
280
     1
281
     1
  3
ACAD_DIMASSOC
360
589
  0
DICTIONARY
  5
58B
330
58A
100
AcDbDictionary
280
     1
281
     1
  3
ACAD_DIMASSOC
360
58C
  0
DICTIONARY
  5
590
330
58F
100
AcDbDictionary
280
     1
281
     1
  3
ACAD_DIMASSOC
360
591
  0
DICTIONARY
  5
593
330
592
100
AcDbDictionary
280
     1
281
     1
  3
ACAD_DIMASSOC
360
594
  0
DICTIONARY
  5
596
330
595
100
AcDbDictionary
280
     1
281
     1
  3
ACAD_DIMASSOC
360
597
  0
DICTIONARY
  5
599
330
598
100
AcDbDictionary
280
     1
281
     1
  3
ACAD_DIMASSOC
360
59A
  0
DICTIONARY
  5
59C
330
59B
100
AcDbDictionary
280
     1
281
     1
  3
ACAD_DIMASSOC
360
59D
  0
DICTIONARY
  5
59F
330
59E
100
AcDbDictionary
280
     1
281
     1
  3
ACAD_DIMASSOC
360
5A0
  0
DICTIONARY
  5
5A2
330
5A1
100
AcDbDictionary
280
     1
281
     1
  3
ACAD_DIMASSOC
360
5A3
  0
DICTIONARY
  5
5A5
330
5A4
100
AcDbDictionary
280
     1
281
     1
  3
ACAD_DIMASSOC
360
5A6
  0
DICTIONARY
  5
60C
330
60B
100
AcDbDictionary
280
     1
281
     1
  3
ACAD_DIMASSOC
360
60D
  0
DICTIONARY
  5
63C
330
63B
100
AcDbDictionary
280
     1
281
     1
  3
ACAD_DIMASSOC
360
63D
  0
XRECORD
  5
216
102
{ACAD_REACTORS
330
C
102
}
330
C
100
AcDbXrecord
280
     1
300
ACDMAC
300
2022
300

  0
DICTIONARY
  5
6B
102
{ACAD_REACTORS
330
C
102
}
330
C
100
AcDbDictionary
281
     1
  0
DICTIONARY
  5
21B
102
{ACAD_REACTORS
330
C
102
}
330
C
100
AcDbDictionary
281
     1
  3
Metric50
350
21C
  0
DICTIONARY
  5
D
102
{ACAD_REACTORS
330
C
102
}
330
C
100
AcDbDictionary
281
     1
  0
DICTIONARY
  5
1A
102
{ACAD_REACTORS
330
C
102
}
330
C
100
AcDbDictionary
281
     1
  3
Model
350
22
  3
布局1
350
D3
  3
布局2
350
D7
1001
AcadStringInfo
1000
MIFCodePage
1070
     5
  0
DICTIONARY
  5
6A
102
{ACAD_REACTORS
330
C
102
}
330
C
100
AcDbDictionary
281
     1
  3
ByBlock
350
ED
  3
ByLayer
350
EC
  3
Global
350
EE
  0
DICTIONARY
  5
12D
102
{ACAD_REACTORS
330
C
102
}
330
C
100
AcDbDictionary
281
     1
  3
Annotative
350
13B
  3
Standard
350
12E
  0
DICTIONARY
  5
17
102
{ACAD_REACTORS
330
C
102
}
330
C
100
AcDbDictionary
281
     1
  3
Standard
350
18
  0
DICTIONARY
  5
19
102
{ACAD_REACTORS
330
C
102
}
330
C
100
AcDbDictionary
281
     1
  0
ACDBDICTIONARYWDFLT
  5
E
102
{ACAD_REACTORS
330
C
102
}
330
C
100
AcDbDictionary
281
     1
  3
Normal
350
F
100
AcDbDictionaryWithDefault
340
F
  0
DICTIONARY
  5
10C
102
{ACAD_REACTORS
330
C
102
}
330
C
100
AcDbDictionary
281
     1
  3
A0
350
10D
  3
A1
350
1BE
  3
A2
350
1BF
  3
A3
350
1C0
  3
A4
350
1C1
  3
A5
350
1C2
  3
A6
350
1C3
  3
A7
350
1C4
  3
A8
350
1C5
  3
A9
350
1C6
  3
B0
350
1C7
  3
B1
350
1C8
  3
B2
350
1C9
  3
B3
350
1CA
  3
B4
350
1CB
  3
B5
350
1CC
  3
B6
350
1CD
  0
DICTIONARY
  5
219
102
{ACAD_REACTORS
330
C
102
}
330
C
100
AcDbDictionary
281
     1
  3
Metric50
350
21A
  0
DICTIONARY
  5
7E
102
{ACAD_REACTORS
330
C
102
}
330
C
100
AcDbDictionary
281
     1
  3
Standard
350
7F
  0
DICTIONARY
  5
EF
102
{ACAD_REACTORS
330
C
102
}
330
C
100
AcDbDictionary
281
     1
  3
2dWireframe
350
F5
  3
3dWireframe
350
407
  3
Basic
350
F4
  3
Brighten
350
FB
  3
ColorChange
350
FF
  3
Conceptual
350
F8
  3
Dim
350
FA
  3
EdgeColorOff
350
1E6
  3
Facepattern
350
FE
  3
Flat
350
F0
  3
FlatWithEdges
350
F1
  3
Gouraud
350
F2
  3
GouraudWithEdges
350
F3
  3
Hidden
350
F7
  3
JitterOff
350
1E4
  3
Linepattern
350
FD
  3
OverhangOff
350
1E5
  3
Realistic
350
F9
  3
Shaded
350
1F3
  3
Shaded with edges
350
1F2
  3
Shades of Gray
350
1EF
  3
Sketchy
350
1F0
  3
Thicken
350
FC
  3
Wireframe
350
F6
  3
X-Ray
350
1F1
  0
XRECORD
  5
80C
102
{ACAD_REACTORS
330
C
102
}
330
C
100
AcDbXrecord
280
     1
 90
        1
330
7F
  0
DICTIONARY
  5
5E
102
{ACAD_REACTORS
330
C
102
}
330
C
100
AcDbDictionary
281
     1
  3
CANNOSCALE
350
146
  3
CMLEADERSTYLE
350
145
  3
CTABLESTYLE
350
84
  3
CVIEWDETAILSTYLE
350
227
  3
CVIEWSECTIONSTYLE
350
228
  3
DIMASSOC
350
5F
  3
HIDETEXT
350
63
  3
INDEXCTL
350
7FA
  3
LAYEREVAL
350
1AE
  3
LAYERNOTIFY
350
1AF
  3
LIGHTINGUNITS
350
7F8
  3
MSLTSCALE
350
7F7
  3
SORTENTS
350
7F9
  0
DICTIONARY
  5
200
102
{ACAD_REACTORS
330
1FF
102
}
330
1FF
100
AcDbDictionary
281
     1
  0
SORTENTSTABLE
  5
252
102
{ACAD_REACTORS
330
251
102
}
330
251
100
AcDbSortentsTable
330
250
  0
SORTENTSTABLE
  5
25D
102
{ACAD_REACTORS
330
25C
102
}
330
25C
100
AcDbSortentsTable
330
25B
  0
SORTENTSTABLE
  5
26A
102
{ACAD_REACTORS
330
269
102
}
330
269
100
AcDbSortentsTable
330
268
  0
SORTENTSTABLE
  5
275
102
{ACAD_REACTORS
330
274
102
}
330
274
100
AcDbSortentsTable
330
273
  0
SORTENTSTABLE
  5
27B
102
{ACAD_REACTORS
330
27A
102
}
330
27A
100
AcDbSortentsTable
330
279
  0
SORTENTSTABLE
  5
288
102
{ACAD_REACTORS
330
287
102
}
330
287
100
AcDbSortentsTable
330
286
  0
SORTENTSTABLE
  5
2D0
102
{ACAD_REACTORS
330
2CF
102
}
330
2CF
100
AcDbSortentsTable
330
2CE
331
2D2
  5
1B8
331
2D3
  5
1B9
331
2D4
  5
1BA
331
2D5
  5
1B7
  0
DIMASSOC
  5
545
102
{ACAD_REACTORS
330
544
102
}
330
544
100
AcDbDimAssoc
330
543
 90
        3
 70
     0
 71
     0
  1
AcDbOsnapPointRef
 72
     1
331
52E
 73
     2
 91
        0
 40
1.0
 10
0.0
 20
0.0
 30
2.000000000000000E+50
 75
     0
  1
AcDbOsnapPointRef
 72
    13
331
532
 73
     2
 91
        0
 40
0.0
 10
0.0
 20
0.0
 30
2.000000000000000E+50
 75
     0
  0
DIMASSOC
  5
548
102
{ACAD_REACTORS
330
547
102
}
330
547
100
AcDbDimAssoc
330
546
 90
        2
 70
     0
 71
     0
  1
AcDbOsnapPointRef
 72
    13
331
540
 73
     2
 91
        0
 40
4.712388980384689
 10
0.0
 20
0.0
 30
2.000000000000000E+50
 75
     0
  0
DIMASSOC
  5
54B
102
{ACAD_REACTORS
330
54A
102
}
330
54A
100
AcDbDimAssoc
330
549
 90
        2
 70
     0
 71
     0
  1
AcDbOsnapPointRef
 72
     1
331
53D
 73
     2
 91
        0
 40
4.712388980384689
 10
0.0
 20
0.0
 30
2.000000000000000E+50
 75
     0
  0
DIMASSOC
  5
54E
102
{ACAD_REACTORS
330
54D
102
}
330
54D
100
AcDbDimAssoc
330
54C
 90
        2
 70
     0
 71
     0
  1
AcDbOsnapPointRef
 72
     2
331
52E
 73
     2
 91
        0
 40
0.5
 10
0.0
 20
0.0
 30
0.0
 75
     0
  0
DIMASSOC
  5
551
102
{ACAD_REACTORS
330
550
102
}
330
550
100
AcDbDimAssoc
330
54F
 90
        2
 70
     0
 71
     0
  1
AcDbOsnapPointRef
 72
     3
331
53B
 73
     2
 91
        0
 40
0.0
 10
0.0
 20
0.0
 30
0.0
 75
     0
  0
DIMASSOC
  5
554
102
{ACAD_REACTORS
330
553
102
}
330
553
100
AcDbDimAssoc
330
552
 90
        2
 70
     0
 71
     0
  1
AcDbOsnapPointRef
 72
     3
331
539
 73
     2
 91
        0
 40
0.0
 10
0.0
 20
0.0
 30
0.0
 75
     0
  0
DIMASSOC
  5
567
102
{ACAD_REACTORS
330
566
102
}
330
566
100
AcDbDimAssoc
330
565
 90
        3
 70
     0
 71
     0
  1
AcDbOsnapPointRef
 72
    13
331
564
 73
     2
 91
        0
 40
4.712388980384689
 10
0.0
 20
0.0
 30
2.000000000000000E+50
 75
     0
  1
AcDbOsnapPointRef
 72
     8
331
555
 73
     2
 91
        0
 40
1.0
 10
0.0
 20
0.0
 30
0.0
 75
     1
  1
AcDbOsnapPointRef
 72
     1
331
564
 73
     2
 91
        0
 40
4.712388980384689
 10
0.0
 20
0.0
 30
2.000000000000000E+50
 75
     0
  0
DIMASSOC
  5
56B
102
{ACAD_REACTORS
330
56A
102
}
330
56A
100
AcDbDimAssoc
330
569
 90
        1
 70
     0
 71
     0
  1
AcDbOsnapPointRef
 72
     3
331
568
 73
     2
 91
        0
 40
0.0
 10
0.0
 20
0.0
 30
0.0
 75
     0
  0
DIMASSOC
  5
56E
102
{ACAD_REACTORS
330
56D
102
}
330
56D
100
AcDbDimAssoc
330
56C
 90
        2
 70
     0
 71
     0
  1
AcDbOsnapPointRef
 72
     3
331
568
 73
     2
 91
        0
 40
0.0
 10
0.0
 20
0.0
 30
0.0
 75
     0
  0
DIMASSOC
  5
589
102
{ACAD_REACTORS
330
588
102
}
330
588
100
AcDbDimAssoc
330
587
 90
        3
 70
     0
 71
     0
  1
AcDbOsnapPointRef
 72
     2
331
530
 73
     2
 91
        0
 40
0.5
 10
0.0
 20
0.0
 30
0.0
 75
     0
  1
AcDbOsnapPointRef
 72
     2
331
52F
 73
     2
 91
        0
 40
0.5
 10
0.0
 20
0.0
 30
0.0
 75
     0
  0
DIMASSOC
  5
58C
102
{ACAD_REACTORS
330
58B
102
}
330
58B
100
AcDbDimAssoc
330
58A
 90
        2
 70
     0
 71
     0
  1
AcDbOsnapPointRef
 72
     2
331
534
 73
     2
 91
        0
 40
0.5
 10
0.0
 20
0.0
 30
0.0
 75
     0
  0
DIMASSOC
  5
591
102
{ACAD_REACTORS
330
590
102
}
330
590
100
AcDbDimAssoc
330
58F
 90
        1
 70
     0
 71
     0
  1
AcDbOsnapPointRef
 72
     3
331
586
 73
     2
 91
        0
 40
0.0
 10
0.0
 20
6.283185307179586
 30
2.000000000000000E+50
 75
     0
  0
DIMASSOC
  5
594
102
{ACAD_REACTORS
330
593
102
}
330
593
100
AcDbDimAssoc
330
592
 90
        1
 70
     0
 71
     0
  1
AcDbOsnapPointRef
 72
    13
331
558
 73
     2
 91
        0
 40
3.141592653589793
 10
0.0
 20
0.0
 30
2.000000000000000E+50
 75
     0
  0
DIMASSOC
  5
597
102
{ACAD_REACTORS
330
596
102
}
330
596
100
AcDbDimAssoc
330
595
 90
        3
 70
     0
 71
     0
  1
AcDbOsnapPointRef
 72
    13
331
558
 73
     2
 91
        0
 40
3.141592653589793
 10
0.0
 20
0.0
 30
2.000000000000000E+50
 75
     0
  1
AcDbOsnapPointRef
 72
    13
331
535
 73
     2
 91
        0
 40
3.141592653589793
 10
0.0
 20
0.0
 30
2.000000000000000E+50
 75
     0
  0
DIMASSOC
  5
59A
102
{ACAD_REACTORS
330
599
102
}
330
599
100
AcDbDimAssoc
330
598
 90
        3
 70
     0
 71
     0
  1
AcDbOsnapPointRef
 72
    13
331
535
 73
     2
 91
        0
 40
3.141592653589793
 10
0.0
 20
0.0
 30
2.000000000000000E+50
 75
     0
  1
AcDbOsnapPointRef
 72
     1
331
539
 73
     2
 91
        0
 40
6.283185307179586
 10
0.0
 20
0.0
 30
2.000000000000000E+50
 75
     0
  0
DIMASSOC
  5
59D
102
{ACAD_REACTORS
330
59C
102
}
330
59C
100
AcDbDimAssoc
330
59B
 90
        3
 70
     0
 71
     0
  1
AcDbOsnapPointRef
 72
    13
331
53A
 73
     2
 91
        0
 40
3.141592653589793
 10
0.0
 20
0.0
 30
2.000000000000000E+50
 75
     0
  1
AcDbOsnapPointRef
 72
     1
331
53B
 73
     2
 91
        0
 40
6.283185307179586
 10
0.0
 20
0.0
 30
2.000000000000000E+50
 75
     0
  0
DIMASSOC
  5
5A0
102
{ACAD_REACTORS
330
59F
102
}
330
59F
100
AcDbDimAssoc
330
59E
 90
        2
 70
     0
 71
     0
  1
AcDbOsnapPointRef
 72
    13
331
53C
 73
     2
 91
        0
 40
0.0
 10
0.0
 20
0.0
 30
2.000000000000000E+50
 75
     0
  0
DIMASSOC
  5
5A3
102
{ACAD_REACTORS
330
5A2
102
}
330
5A2
100
AcDbDimAssoc
330
5A1
 90
        3
 70
     0
 71
     0
  1
AcDbOsnapPointRef
 72
     1
331
53C
 73
     2
 91
        0
 40
1.570796326794896
 10
0.0
 20
0.0
 30
2.000000000000000E+50
 75
     0
  1
AcDbOsnapPointRef
 72
     1
331
562
 73
     2
 91
        0
 40
1.570796326794896
 10
0.0
 20
0.0
 30
2.000000000000000E+50
 75
     0
  0
DIMASSOC
  5
5A6
102
{ACAD_REACTORS
330
5A5
102
}
330
5A5
100
AcDbDimAssoc
330
5A4
 90
        2
 70
     0
 71
     0
  1
AcDbOsnapPointRef
 72
     3
331
559
 73
     2
 91
        0
 40
0.0
 10
0.0
 20
0.0
 30
0.0
 75
     0
  0
DIMASSOC
  5
60D
102
{ACAD_REACTORS
330
60C
102
}
330
60C
100
AcDbDimAssoc
330
60B
 90
        2
 70
     0
 71
     0
  1
AcDbOsnapPointRef
 72
     3
331
60A
 73
     2
 91
        0
 40
0.0
 10
0.0
 20
0.0
 30
0.0
 75
     0
  0
DIMASSOC
  5
63D
102
{ACAD_REACTORS
330
63C
102
}
330
63C
100
AcDbDimAssoc
330
63B
 90
        2
 70
     0
 71
     0
  1
AcDbOsnapPointRef
 72
     3
331
63A
 73
     2
 91
        0
 40
0.0
 10
0.0
 20
0.0
 30
0.0
 75
     0
  0
ACDBDETAILVIEWSTYLE
  5
21C
102
{ACAD_REACTORS
330
21B
102
}
330
21B
100
AcDbModelDocViewStyle
 70
     0
  3
Metric50
290
     0
300
Metric50
 90
        0
100
AcDbDetailViewStyle
 70
     0
 71
     0
 90
        3
 71
     1
340
11
 62
   256
 40
5.0
340
0
 62
   256
 40
5.0
300

 40
0.0
280
     1
 71
     2
340
16
 90
       25
 62
   256
 71
     3
340
11
 62
   256
 40
5.0
 90
        0
 40
15.0
 90
        1
300
%<\AcVar ViewDetailId>% (%<\AcVar ViewScale \f "%sn">%)
 71
     4
340
16
 90
       25
 62
   256
340
16
 90
       25
 62
   256
280
     0
  0
LAYOUT
  5
22
102
{ACAD_XDICTIONARY
360
205
102
}
102
{ACAD_REACTORS
330
1A
102
}
330
1A
100
AcDbPlotSettings
  1

  2
none_device
  4
ISO_A4_(210.00_x_297.00_MM)
  6

 40
7.5
 41
20.0
 42
7.5
 43
20.0
 44
210.0
 45
297.0
 46
11.54999923706054
 47
-13.65000009536743
 48
0.0
 49
0.0
140
0.0
141
0.0
142
1.0
143
8.704084754739808
 70
 11952
 72
     1
 73
     0
 74
     0
  7

 75
     0
147
0.1148885871608098
 76
     0
 77
     2
 78
   300
148
0.0
149
0.0
100
AcDbLayout
  1
Model
 70
     1
 71
     0
 10
0.0
 20
0.0
 11
12.0
 21
9.0
 12
0.0
 22
0.0
 32
0.0
 14
0.0
 24
0.0
 34
0.0
 15
0.0
 25
0.0
 35
0.0
146
0.0
 13
0.0
 23
0.0
 33
0.0
 16
1.0
 26
0.0
 36
0.0
 17
0.0
 27
1.0
 37
0.0
 76
     0
330
1F
331
EA
1001
ACAD_PSEXT
1000
None
1000
None
1000
Not applicable
1000
The layout will not be plotted unless a new plotter configuration name is selected.
1070
     0
  0
LAYOUT
  5
D3
102
{ACAD_REACTORS
330
1A
102
}
330
1A
100
AcDbPlotSettings
  1

  2
C:\Documents and Settings\basas\Application Data\Autodesk\AutoCAD 2005\R16.1\enu\plotters\Default Windows System Printer.pc3
  4

  6

 40
0.0
 41
0.0
 42
0.0
 43
0.0
 44
0.0
 45
0.0
 46
0.0
 47
0.0
 48
0.0
 49
0.0
140
0.0
141
0.0
142
1.0
143
1.0
 70
   688
 72
     0
 73
     0
 74
     5
  7

 75
    16
147
1.0
 76
     0
 77
     2
 78
   300
148
0.0
149
0.0
100
AcDbLayout
  1
布局1
 70
     1
 71
     1
 10
0.0
 20
0.0
 11
12.0
 21
9.0
 12
0.0
 22
0.0
 32
0.0
 14
0.0
 24
0.0
 34
0.0
 15
0.0
 25
0.0
 35
0.0
146
0.0
 13
0.0
 23
0.0
 33
0.0
 16
1.0
 26
0.0
 36
0.0
 17
0.0
 27
1.0
 37
0.0
 76
     0
330
D2
1001
AcadStringInfo
1000
MIFCodePage
1070
     5
  0
LAYOUT
  5
D7
102
{ACAD_REACTORS
330
1A
102
}
330
1A
100
AcDbPlotSettings
  1

  2
C:\Documents and Settings\basas\Application Data\Autodesk\AutoCAD 2005\R16.1\enu\plotters\Default Windows System Printer.pc3
  4

  6

 40
0.0
 41
0.0
 42
0.0
 43
0.0
 44
0.0
 45
0.0
 46
0.0
 47
0.0
 48
0.0
 49
0.0
140
0.0
141
0.0
142
1.0
143
1.0
 70
   688
 72
     0
 73
     0
 74
     5
  7

 75
    16
147
1.0
 76
     0
 77
     2
 78
   300
148
0.0
149
0.0
100
AcDbLayout
  1
布局2
 70
     1
 71
     2
 10
0.0
 20
0.0
 11
12.0
 21
9.0
 12
0.0
 22
0.0
 32
0.0
 14
0.0
 24
0.0
 34
0.0
 15
0.0
 25
0.0
 35
0.0
146
0.0
 13
0.0
 23
0.0
 33
0.0
 16
1.0
 26
0.0
 36
0.0
 17
0.0
 27
1.0
 37
0.0
 76
     0
330
D6
1001
AcadStringInfo
1000
MIFCodePage
1070
     5
  0
MATERIAL
  5
ED
102
{ACAD_XDICTIONARY
360
1F9
102
}
102
{ACAD_REACTORS
330
6A
102
}
330
6A
100
AcDbMaterial
  1
ByBlock
 94
       63
  0
MATERIAL
  5
EC
102
{ACAD_XDICTIONARY
360
1F7
102
}
102
{ACAD_REACTORS
330
6A
102
}
330
6A
100
AcDbMaterial
  1
ByLayer
 94
       63
  0
MATERIAL
  5
EE
102
{ACAD_XDICTIONARY
360
173
102
}
102
{ACAD_REACTORS
330
6A
102
}
330
6A
100
AcDbMaterial
  1
Global
 43
0.0007999999797903
 43
0.0
 43
0.0
 43
0.0
 43
0.0
 43
0.0007999999797903
 43
0.0
 43
0.0
 43
0.0
 43
0.0
 43
1.0
 43
0.0
 43
0.0
 43
0.0
 43
0.0
 43
1.0
 49
0.0007999999797903
 49
0.0
 49
0.0
 49
0.0
 49
0.0
 49
0.0007999999797903
 49
0.0
 49
0.0
 49
0.0
 49
0.0
 49
1.0
 49
0.0
 49
0.0
 49
0.0
 49
0.0
 49
1.0
142
0.0007999999797903
142
0.0
142
0.0
142
0.0
142
0.0
142
0.0007999999797903
142
0.0
142
0.0
142
0.0
142
0.0
142
1.0
142
0.0
142
0.0
142
0.0
142
0.0
142
1.0
144
0.0007999999797903
144
0.0
144
0.0
144
0.0
144
0.0
144
0.0007999999797903
144
0.0
144
0.0
144
0.0
144
0.0
144
1.0
144
0.0
144
0.0
144
0.0
144
0.0
144
1.0
 94
       63
1001
ACAD
1070
    -1
1070
     3
1070
     0
1000

1071
        0
1070
     0
  0
MLEADERSTYLE
  5
13B
102
{ACAD_REACTORS
330
12D
102
}
330
12D
100
AcDbMLeaderStyle
179
     2
170
     2
171
     1
172
     0
 90
        2
 40
0.0
 41
0.0
173
     1
 91
-1056964608
340
14
 92
       -2
290
     1
 42
2.0
291
     1
 43
8.0
  3
Standard
 44
4.0
300

342
11
174
     1
178
     1
175
     1
176
     0
 93
-1056964608
 45
4.0
292
     0
297
     0
 46
4.0
 94
-1056964608
 47
1.0
 49
1.0
140
1.0
293
     1
141
0.0
294
     1
177
     0
142
1.0
295
     0
296
     1
143
3.75
271
     0
272
     9
273
     9
298
     0
  0
MLEADERSTYLE
  5
12E
102
{ACAD_REACTORS
330
12D
102
}
330
12D
100
AcDbMLeaderStyle
179
     2
170
     2
171
     1
172
     0
 90
        2
 40
0.0
 41
0.0
173
     1
 91
-1056964608
340
14
 92
       -2
290
     1
 42
2.0
291
     1
 43
8.0
  3
Standard
 44
4.0
300

342
11
174
     1
178
     1
175
     1
176
     0
 93
-1056964608
 45
4.0
292
     0
297
     0
 46
4.0
 94
-1056964608
 47
1.0
 49
1.0
140
1.0
293
     1
141
0.0
294
     1
177
     0
142
1.0
295
     0
296
     0
143
3.75
271
     0
272
     9
273
     9
298
     0
  0
MLINESTYLE
  5
18
102
{ACAD_REACTORS
330
17
102
}
330
17
100
AcDbMlineStyle
  2
STANDARD
 70
     0
  3

 62
   256
 51
90.0
 52
90.0
 71
     2
 49
0.5
 62
   256
  6
BYLAYER
 49
-0.5
 62
   256
  6
BYLAYER
  0
ACDBPLACEHOLDER
  5
F
102
{ACAD_REACTORS
330
E
102
}
330
E
  0
SCALE
  5
10D
102
{ACAD_REACTORS
330
10C
102
}
330
10C
100
AcDbScale
 70
     0
300
1:1
140
1.0
141
1.0
290
     1
  0
SCALE
  5
1BE
102
{ACAD_REACTORS
330
10C
102
}
330
10C
100
AcDbScale
 70
     0
300
1:2
140
1.0
141
2.0
290
     0
  0
SCALE
  5
1BF
102
{ACAD_REACTORS
330
10C
102
}
330
10C
100
AcDbScale
 70
     0
300
1:4
140
1.0
141
4.0
290
     0
  0
SCALE
  5
1C0
102
{ACAD_REACTORS
330
10C
102
}
330
10C
100
AcDbScale
 70
     0
300
1:5
140
1.0
141
5.0
290
     0
  0
SCALE
  5
1C1
102
{ACAD_REACTORS
330
10C
102
}
330
10C
100
AcDbScale
 70
     0
300
1:8
140
1.0
141
8.0
290
     0
  0
SCALE
  5
1C2
102
{ACAD_REACTORS
330
10C
102
}
330
10C
100
AcDbScale
 70
     0
300
1:10
140
1.0
141
10.0
290
     0
  0
SCALE
  5
1C3
102
{ACAD_REACTORS
330
10C
102
}
330
10C
100
AcDbScale
 70
     0
300
1:16
140
1.0
141
16.0
290
     0
  0
SCALE
  5
1C4
102
{ACAD_REACTORS
330
10C
102
}
330
10C
100
AcDbScale
 70
     0
300
1:20
140
1.0
141
20.0
290
     0
  0
SCALE
  5
1C5
102
{ACAD_REACTORS
330
10C
102
}
330
10C
100
AcDbScale
 70
     0
300
1:30
140
1.0
141
30.0
290
     0
  0
SCALE
  5
1C6
102
{ACAD_REACTORS
330
10C
102
}
330
10C
100
AcDbScale
 70
     0
300
1:40
140
1.0
141
40.0
290
     0
  0
SCALE
  5
1C7
102
{ACAD_REACTORS
330
10C
102
}
330
10C
100
AcDbScale
 70
     0
300
1:50
140
1.0
141
50.0
290
     0
  0
SCALE
  5
1C8
102
{ACAD_REACTORS
330
10C
102
}
330
10C
100
AcDbScale
 70
     0
300
1:100
140
1.0
141
100.0
290
     0
  0
SCALE
  5
1C9
102
{ACAD_REACTORS
330
10C
102
}
330
10C
100
AcDbScale
 70
     0
300
2:1
140
2.0
141
1.0
290
     0
  0
SCALE
  5
1CA
102
{ACAD_REACTORS
330
10C
102
}
330
10C
100
AcDbScale
 70
     0
300
4:1
140
4.0
141
1.0
290
     0
  0
SCALE
  5
1CB
102
{ACAD_REACTORS
330
10C
102
}
330
10C
100
AcDbScale
 70
     0
300
8:1
140
8.0
141
1.0
290
     0
  0
SCALE
  5
1CC
102
{ACAD_REACTORS
330
10C
102
}
330
10C
100
AcDbScale
 70
     0
300
10:1
140
10.0
141
1.0
290
     0
  0
SCALE
  5
1CD
102
{ACAD_REACTORS
330
10C
102
}
330
10C
100
AcDbScale
 70
     0
300
100:1
140
100.0
141
1.0
290
     0
  0
ACDBSECTIONVIEWSTYLE
  5
21A
102
{ACAD_REACTORS
330
219
102
}
330
219
100
AcDbModelDocViewStyle
 70
     0
  3
Metric50
290
     0
300
Metric50
 90
        0
100
AcDbSectionViewStyle
 70
     0
 71
     0
 90
      102
 71
     1
340
11
 62
   256
 40
5.0
340
0
340
0
 62
   256
 40
5.0
300
I, O, Q, S, X, Z
 40
10.0
 90
        0
 40
2.5
 90
        0
 71
     2
340
16
 90
       25
 62
   256
340
16
 90
       50
 62
   256
 40
5.0
 40
2.5
 40
5.0
 71
     3
340
11
 62
   256
 40
5.0
 90
        0
 40
15.0
 90
        1
300
%<\AcVar ViewSectionStartId>%-%<\AcVar ViewSectionEndId>% (%<\AcVar ViewScale \f "%sn">%)
 71
     4
 62
   256
 62
   257
300
ANSI31
 40
1.0
 90
        0
290
     0
290
     0
 90
        6
 40
0.0
 40
1.570796326794896
 40
0.2617993877991494
 40
1.308996938995747
 40
-0.2617993877991494
 40
1.832595714594046
  0
TABLESTYLE
  5
7F
102
{ACAD_XDICTIONARY
360
162
102
}
102
{ACAD_REACTORS
330
7E
102
}
330
7E
100
AcDbTableStyle
280
     0
  3
Standard
 70
     0
 71
     0
 40
1.5
 41
1.5
280
     0
281
     0
  7
Standard
140
4.5
170
     2
 62
     0
 63
     7
283
     0
 90
      512
 91
        0
  1

274
    -2
284
     1
 64
     0
275
    -2
285
     1
 65
     0
276
    -2
286
     1
 66
     0
277
    -2
287
     1
 67
     0
278
    -2
288
     1
 68
     0
279
    -2
289
     1
 69
     0
  7
Standard
140
6.0
170
     5
 62
     0
 63
     7
283
     0
 90
      512
 91
        0
  1

274
    -2
284
     1
 64
     0
275
    -2
285
     1
 65
     0
276
    -2
286
     1
 66
     0
277
    -2
287
     1
 67
     0
278
    -2
288
     1
 68
     0
279
    -2
289
     1
 69
     0
  7
Standard
140
4.5
170
     5
 62
     0
 63
     7
283
     0
 90
      512
 91
        0
  1

274
    -2
284
     1
 64
     0
275
    -2
285
     1
 65
     0
276
    -2
286
     1
 66
     0
277
    -2
287
     1
 67
     0
278
    -2
288
     1
 68
     0
279
    -2
289
     1
 69
     0
  0
VISUALSTYLE
  5
F5
102
{ACAD_REACTORS
330
EF
102
}
330
EF
100
AcDbVisualStyle
  2
2dWireframe
 70
     4
177
     3
291
     0
 70
    58
 90
        0
176
     1
 90
        2
176
     1
 90
        1
176
     1
 90
        0
176
     1
 40
0.6
176
     1
 40
30.0
176
     1
 62
     7
176
     1
 90
        1
176
     1
 90
        4
176
     1
 62
     7
176
     1
 62
   257
176
     1
 90
        1
176
     1
 90
        1
176
     1
 40
1.0
176
     1
 90
        0
176
     1
 62
   257
176
     1
 40
1.0
176
     1
 90
        1
176
     1
 90
        6
176
     1
 90
        2
176
     1
 62
     7
176
     1
 90
        5
176
     1
 90
        0
176
     1
 90
        0
176
     1
290
     0
176
     1
 90
        1
176
     1
 40
0.0
176
     1
 90
        0
176
     1
290
     1
176
     1
290
     1
176
     1
290
     0
176
     1
290
     0
176
     1
290
     0
176
     1
290
     0
176
     1
290
     0
176
     1
290
     0
176
     1
290
     0
176
     1
 90
       50
176
     1
 40
0.0
176
     1
 40
1.0
176
     1
 90
        0
176
     1
 62
    18
420
        0
176
     1
 90
       50
176
     1
 90
        3
176
     1
 62
     5
420
      255
176
     1
290
     0
176
     1
 90
       50
176
     1
 90
       50
176
     1
 90
       50
176
     1
290
     0
176
     1
 90
       50
176
     1
 62
   256
176
     0
 40
1.0
176
     0
 90
        2
176
     1
  1
strokes_ogs.tif
176
     1
290
     0
176
     1
 40
1.0
176
     1
 40
1.0
176
     1
  0
VISUALSTYLE
  5
407
102
{ACAD_REACTORS
330
EF
102
}
330
EF
100
AcDbVisualStyle
  2
3dWireframe
 70
     5
177
     3
291
     0
 70
    58
 90
        0
176
     1
 90
        2
176
     1
 90
        1
176
     1
 90
        0
176
     1
 40
0.6
176
     1
 40
30.0
176
     1
 62
     7
176
     1
 90
        1
176
     1
 90
        4
176
     1
 62
     7
176
     1
 62
   257
176
     1
 90
        1
176
     1
 90
        1
176
     1
 40
1.0
176
     1
 90
        0
176
     1
 62
   257
176
     1
 40
1.0
176
     1
 90
        1
176
     1
 90
        6
176
     1
 90
        2
176
     1
 62
     7
176
     1
 90
        5
176
     1
 90
        0
176
     1
 90
        0
176
     1
290
     0
176
     1
 90
        1
176
     1
 40
0.0
176
     1
 90
        0
176
     1
290
     0
176
     1
290
     1
176
     1
290
     1
176
     1
290
     0
176
     1
290
     0
176
     1
290
     0
176
     1
290
     0
176
     1
290
     0
176
     1
290
     0
176
     1
 90
       50
176
     1
 40
0.0
176
     1
 40
1.0
176
     1
 90
        0
176
     1
 62
    18
420
        0
176
     1
 90
       50
176
     1
 90
        3
176
     1
 62
     5
420
      255
176
     1
290
     0
176
     1
 90
       50
176
     1
 90
       50
176
     1
 90
       50
176
     1
290
     0
176
     1
 90
       50
176
     1
 62
   256
176
     0
 40
1.0
176
     0
 90
        2
176
     1
  1
strokes_ogs.tif
176
     1
290
     0
176
     1
 40
1.0
176
     1
 40
1.0
176
     1
  0
VISUALSTYLE
  5
F4
102
{ACAD_REACTORS
330
EF
102
}
330
EF
100
AcDbVisualStyle
  2
Basic
 70
     7
177
     3
291
     1
 70
    58
 90
        1
176
     1
 90
        0
176
     1
 90
        1
176
     1
 90
        0
176
     1
 40
0.6
176
     1
 40
30.0
176
     1
 62
     7
176
     1
 90
        0
176
     1
 90
        4
176
     1
 62
     7
176
     1
 62
   257
176
     1
 90
        1
176
     1
 90
        1
176
     1
 40
1.0
176
     1
 90
        8
176
     1
 62
     7
176
     1
 40
1.0
176
     1
 90
        1
176
     1
 90
        6
176
     1
 90
        2
176
     1
 62
     7
176
     1
 90
        5
176
     1
 90
        0
176
     1
 90
        0
176
     1
290
     0
176
     1
 90
        1
176
     1
 40
0.0
176
     1
 90
        0
176
     1
290
     0
176
     1
290
     1
176
     1
290
     1
176
     1
290
     0
176
     1
290
     0
176
     1
290
     0
176
     1
290
     0
176
     1
290
     0
176
     1
290
     0
176
     1
 90
       50
176
     1
 40
0.0
176
     1
 40
1.0
176
     1
 90
        0
176
     1
 62
    18
420
        0
176
     1
 90
       50
176
     1
 90
        3
176
     1
 62
     5
420
      255
176
     1
290
     0
176
     1
 90
       50
176
     1
 90
       50
176
     1
 90
       50
176
     1
290
     0
176
     1
 90
       50
176
     1
 62
   256
176
     0
 40
1.0
176
     0
 90
        2
176
     1
  1
strokes_ogs.tif
176
     1
290
     0
176
     1
 40
1.0
176
     1
 40
1.0
176
     1
  0
VISUALSTYLE
  5
FB
102
{ACAD_REACTORS
330
EF
102
}
330
EF
100
AcDbVisualStyle
  2
Brighten
 70
    12
177
     3
291
     1
 70
    58
 90
        2
176
     1
 90
        2
176
     1
 90
        1
176
     1
 90
        0
176
     1
 40
0.6
176
     1
 40
30.0
176
     1
 62
     7
176
     1
 90
        1
176
     1
 90
        4
176
     1
 62
     7
176
     1
 62
   257
176
     1
 90
        1
176
     1
 90
        1
176
     1
 40
1.0
176
     1
 90
        8
176
     1
 62
     7
176
     1
 40
1.0
176
     1
 90
        1
176
     1
 90
        6
176
     1
 90
        2
176
     1
 62
     7
176
     1
 90
        5
176
     1
 90
        0
176
     1
 90
        0
176
     1
290
     0
176
     1
 90
        1
176
     1
 40
50.0
176
     1
 90
        0
176
     1
290
     0
176
     1
290
     1
176
     1
290
     1
176
     1
290
     0
176
     1
290
     0
176
     1
290
     0
176
     1
290
     0
176
     1
290
     0
176
     1
290
     0
176
     1
 90
       50
176
     1
 40
0.0
176
     1
 40
1.0
176
     1
 90
        0
176
     1
 62
    18
420
        0
176
     1
 90
       50
176
     1
 90
        3
176
     1
 62
     5
420
      255
176
     1
290
     0
176
     1
 90
       50
176
     1
 90
       50
176
     1
 90
       50
176
     1
290
     0
176
     1
 90
       50
176
     1
 62
   256
176
     0
 40
1.0
176
     0
 90
        2
176
     1
  1
strokes_ogs.tif
176
     1
290
     0
176
     1
 40
1.0
176
     1
 40
1.0
176
     1
  0
VISUALSTYLE
  5
FF
102
{ACAD_REACTORS
330
EF
102
}
330
EF
100
AcDbVisualStyle
  2
ColorChange
 70
    16
177
     3
291
     1
 70
    58
 90
        2
176
     1
 90
        2
176
     1
 90
        3
176
     1
 90
        0
176
     1
 40
0.6
176
     1
 40
30.0
176
     1
 62
     8
176
     1
 90
        1
176
     1
 90
        4
176
     1
 62
     7
176
     1
 62
   257
176
     1
 90
        1
176
     1
 90
        1
176
     1
 40
1.0
176
     1
 90
        8
176
     1
 62
     8
176
     1
 40
1.0
176
     1
 90
        1
176
     1
 90
        6
176
     1
 90
        2
176
     1
 62
     7
176
     1
 90
        5
176
     1
 90
        0
176
     1
 90
        0
176
     1
290
     0
176
     1
 90
        1
176
     1
 40
0.0
176
     1
 90
        0
176
     1
290
     0
176
     1
290
     1
176
     1
290
     1
176
     1
290
     0
176
     1
290
     0
176
     1
290
     0
176
     1
290
     0
176
     1
290
     0
176
     1
290
     0
176
     1
 90
       50
176
     1
 40
0.0
176
     1
 40
1.0
176
     1
 90
        0
176
     1
 62
    18
420
        0
176
     1
 90
       50
176
     1
 90
        3
176
     1
 62
     5
420
      255
176
     1
290
     0
176
     1
 90
       50
176
     1
 90
       50
176
     1
 90
       50
176
     1
290
     0
176
     1
 90
       50
176
     1
 62
   256
176
     0
 40
1.0
176
     0
 90
        2
176
     1
  1
strokes_ogs.tif
176
     1
290
     0
176
     1
 40
1.0
176
     1
 40
1.0
176
     1
  0
VISUALSTYLE
  5
F8
102
{ACAD_REACTORS
330
EF
102
}
330
EF
100
AcDbVisualStyle
  2
Conceptual
 70
     9
177
     3
291
     0
 70
    58
 90
        3
176
     1
 90
        2
176
     1
 90
        1
176
     1
 90
        0
176
     1
 40
0.6
176
     1
 40
30.0
176
     1
 62
     7
176
     1
 90
        2
176
     1
 90
        2
176
     1
 62
     7
176
     1
 62
   257
176
     1
 90
        1
176
     1
 90
        1
176
     1
 40
40.0
176
     1
 90
        8
176
     1
 62
     7
176
     1
 40
1.0
176
     1
 90
        1
176
     1
 90
        6
176
     1
 90
        2
176
     1
 62
     7
176
     1
 90
        3
176
     1
 90
        0
176
     1
 90
        0
176
     1
290
     0
176
     1
 90
        1
176
     1
 40
0.0
176
     1
 90
        0
176
     1
290
     0
176
     1
290
     1
176
     1
290
     1
176
     1
290
     0
176
     1
290
     0
176
     1
290
     0
176
     1
290
     0
176
     1
290
     0
176
     1
290
     0
176
     1
 90
       50
176
     1
 40
0.0
176
     1
 40
1.0
176
     1
 90
        0
176
     1
 62
    18
420
        0
176
     1
 90
       50
176
     1
 90
        3
176
     1
 62
     5
420
      255
176
     1
290
     0
176
     1
 90
       50
176
     1
 90
       50
176
     1
 90
       50
176
     1
290
     0
176
     1
 90
       50
176
     1
 62
   256
176
     0
 40
1.0
176
     0
 90
        2
176
     1
  1
strokes_ogs.tif
176
     1
290
     0
176
     1
 40
1.0
176
     1
 40
1.0
176
     1
  0
VISUALSTYLE
  5
FA
102
{ACAD_REACTORS
330
EF
102
}
330
EF
100
AcDbVisualStyle
  2
Dim
 70
    11
177
     3
291
     1
 70
    58
 90
        2
176
     1
 90
        2
176
     1
 90
        1
176
     1
 90
        0
176
     1
 40
0.6
176
     1
 40
30.0
176
     1
 62
     7
176
     1
 90
        1
176
     1
 90
        4
176
     1
 62
     7
176
     1
 62
   257
176
     1
 90
        1
176
     1
 90
        1
176
     1
 40
1.0
176
     1
 90
        8
176
     1
 62
     7
176
     1
 40
1.0
176
     1
 90
        1
176
     1
 90
        6
176
     1
 90
        2
176
     1
 62
     7
176
     1
 90
        5
176
     1
 90
        0
176
     1
 90
        0
176
     1
290
     0
176
     1
 90
        1
176
     1
 40
-50.0
176
     1
 90
        0
176
     1
290
     0
176
     1
290
     1
176
     1
290
     1
176
     1
290
     0
176
     1
290
     0
176
     1
290
     0
176
     1
290
     0
176
     1
290
     0
176
     1
290
     0
176
     1
 90
       50
176
     1
 40
0.0
176
     1
 40
1.0
176
     1
 90
        0
176
     1
 62
    18
420
        0
176
     1
 90
       50
176
     1
 90
        3
176
     1
 62
     5
420
      255
176
     1
290
     0
176
     1
 90
       50
176
     1
 90
       50
176
     1
 90
       50
176
     1
290
     0
176
     1
 90
       50
176
     1
 62
   256
176
     0
 40
1.0
176
     0
 90
        2
176
     1
  1
strokes_ogs.tif
176
     1
290
     0
176
     1
 40
1.0
176
     1
 40
1.0
176
     1
  0
VISUALSTYLE
  5
1E6
102
{ACAD_REACTORS
330
EF
102
}
330
EF
100
AcDbVisualStyle
  2
EdgeColorOff
 70
    22
177
     3
291
     1
 70
    58
 90
        2
176
     0
 90
        2
176
     0
 90
        0
176
     0
 90
        0
176
     0
 40
0.6
176
     0
 40
30.0
176
     0
 62
     7
176
     0
 90
        1
176
     0
 90
        4
176
     0
 62
     7
176
     0
 62
   257
176
     0
 90
        1
176
     0
 90
        1
176
     0
 40
1.0
176
     0
 90
        8
176
     2
 62
     7
176
     0
 40
1.0
176
     0
 90
        1
176
     0
 90
        6
176
     0
 90
        2
176
     0
 62
     7
176
     0
 90
        5
176
     0
 90
        0
176
     0
 90
        0
176
     0
290
     0
176
     0
 90
        1
176
     0
 40
0.0
176
     0
 90
        0
176
     0
290
     0
176
     1
290
     1
176
     1
290
     1
176
     1
290
     0
176
     1
290
     0
176
     1
290
     0
176
     1
290
     0
176
     1
290
     0
176
     1
290
     0
176
     1
 90
       50
176
     1
 40
0.0
176
     1
 40
1.0
176
     1
 90
        0
176
     1
 62
    18
420
        0
176
     1
 90
       50
176
     1
 90
        3
176
     1
 62
     5
420
      255
176
     1
290
     0
176
     1
 90
       50
176
     1
 90
       50
176
     1
 90
       50
176
     1
290
     0
176
     1
 90
       50
176
     1
 62
   256
176
     0
 40
1.0
176
     0
 90
        2
176
     1
  1
strokes_ogs.tif
176
     1
290
     0
176
     1
 40
1.0
176
     1
 40
1.0
176
     1
  0
VISUALSTYLE
  5
FE
102
{ACAD_REACTORS
330
EF
102
}
330
EF
100
AcDbVisualStyle
  2
Facepattern
 70
    15
177
     3
291
     1
 70
    58
 90
        2
176
     1
 90
        2
176
     1
 90
        1
176
     1
 90
        0
176
     1
 40
0.6
176
     1
 40
30.0
176
     1
 62
     7
176
     1
 90
        1
176
     1
 90
        4
176
     1
 62
     7
176
     1
 62
   257
176
     1
 90
        1
176
     1
 90
        1
176
     1
 40
1.0
176
     1
 90
        8
176
     1
 62
     7
176
     1
 40
1.0
176
     1
 90
        1
176
     1
 90
        6
176
     1
 90
        2
176
     1
 62
     7
176
     1
 90
        5
176
     1
 90
        0
176
     1
 90
        0
176
     1
290
     0
176
     1
 90
        1
176
     1
 40
0.0
176
     1
 90
        0
176
     1
290
     0
176
     1
290
     1
176
     1
290
     1
176
     1
290
     0
176
     1
290
     0
176
     1
290
     0
176
     1
290
     0
176
     1
290
     0
176
     1
290
     0
176
     1
 90
       50
176
     1
 40
0.0
176
     1
 40
1.0
176
     1
 90
        0
176
     1
 62
    18
420
        0
176
     1
 90
       50
176
     1
 90
        3
176
     1
 62
     5
420
      255
176
     1
290
     0
176
     1
 90
       50
176
     1
 90
       50
176
     1
 90
       50
176
     1
290
     0
176
     1
 90
       50
176
     1
 62
   256
176
     0
 40
1.0
176
     0
 90
        2
176
     1
  1
strokes_ogs.tif
176
     1
290
     0
176
     1
 40
1.0
176
     1
 40
1.0
176
     1
  0
VISUALSTYLE
  5
F0
102
{ACAD_REACTORS
330
EF
102
}
330
EF
100
AcDbVisualStyle
  2
Flat
 70
     0
177
     3
291
     1
 70
    58
 90
        2
176
     1
 90
        1
176
     1
 90
        1
176
     1
 90
        2
176
     1
 40
0.6
176
     1
 40
30.0
176
     1
 62
     7
176
     1
 90
        0
176
     1
 90
        0
176
     1
 62
     7
176
     1
 62
   257
176
     1
 90
        1
176
     1
 90
        1
176
     1
 40
1.0
176
     1
 90
        8
176
     1
 62
     7
176
     1
 40
1.0
176
     1
 90
        1
176
     1
 90
        6
176
     1
 90
        2
176
     1
 62
     7
176
     1
 90
        5
176
     1
 90
        0
176
     1
 90
        0
176
     1
290
     0
176
     1
 90
       13
176
     1
 40
0.0
176
     1
 90
        0
176
     1
290
     0
176
     1
290
     1
176
     1
290
     1
176
     1
290
     0
176
     1
290
     0
176
     1
290
     0
176
     1
290
     0
176
     1
290
     0
176
     1
290
     0
176
     1
 90
       50
176
     1
 40
0.0
176
     1
 40
1.0
176
     1
 90
        0
176
     1
 62
    18
420
        0
176
     1
 90
       50
176
     1
 90
        3
176
     1
 62
     5
420
      255
176
     1
290
     0
176
     1
 90
       50
176
     1
 90
       50
176
     1
 90
       50
176
     1
290
     0
176
     1
 90
       50
176
     1
 62
   256
176
     0
 40
1.0
176
     0
 90
        2
176
     1
  1
strokes_ogs.tif
176
     1
290
     0
176
     1
 40
1.0
176
     1
 40
1.0
176
     1
  0
VISUALSTYLE
  5
F1
102
{ACAD_REACTORS
330
EF
102
}
330
EF
100
AcDbVisualStyle
  2
FlatWithEdges
 70
     1
177
     3
291
     1
 70
    58
 90
        2
176
     1
 90
        1
176
     1
 90
        1
176
     1
 90
        2
176
     1
 40
0.6
176
     1
 40
30.0
176
     1
 62
     7
176
     1
 90
        1
176
     1
 90
        0
176
     1
 62
     7
176
     1
 62
   257
176
     1
 90
        1
176
     1
 90
        1
176
     1
 40
1.0
176
     1
 90
        0
176
     1
 62
   257
176
     1
 40
1.0
176
     1
 90
        1
176
     1
 90
        6
176
     1
 90
        2
176
     1
 62
     7
176
     1
 90
        5
176
     1
 90
        0
176
     1
 90
        0
176
     1
290
     0
176
     1
 90
       13
176
     1
 40
0.0
176
     1
 90
        0
176
     1
290
     0
176
     1
290
     1
176
     1
290
     1
176
     1
290
     0
176
     1
290
     0
176
     1
290
     0
176
     1
290
     0
176
     1
290
     0
176
     1
290
     0
176
     1
 90
       50
176
     1
 40
0.0
176
     1
 40
1.0
176
     1
 90
        0
176
     1
 62
    18
420
        0
176
     1
 90
       50
176
     1
 90
        3
176
     1
 62
     5
420
      255
176
     1
290
     0
176
     1
 90
       50
176
     1
 90
       50
176
     1
 90
       50
176
     1
290
     0
176
     1
 90
       50
176
     1
 62
   256
176
     0
 40
1.0
176
     0
 90
        2
176
     1
  1
strokes_ogs.tif
176
     1
290
     0
176
     1
 40
1.0
176
     1
 40
1.0
176
     1
  0
VISUALSTYLE
  5
F2
102
{ACAD_REACTORS
330
EF
102
}
330
EF
100
AcDbVisualStyle
  2
Gouraud
 70
     2
177
     3
291
     1
 70
    58
 90
        2
176
     1
 90
        2
176
     1
 90
        1
176
     1
 90
        2
176
     1
 40
0.6
176
     1
 40
30.0
176
     1
 62
     7
176
     1
 90
        0
176
     1
 90
        0
176
     1
 62
     7
176
     1
 62
   257
176
     1
 90
        1
176
     1
 90
        1
176
     1
 40
1.0
176
     1
 90
        0
176
     1
 62
     7
176
     1
 40
1.0
176
     1
 90
        1
176
     1
 90
        6
176
     1
 90
        2
176
     1
 62
     7
176
     1
 90
        5
176
     1
 90
        0
176
     1
 90
        0
176
     1
290
     0
176
     1
 90
       13
176
     1
 40
0.0
176
     1
 90
        0
176
     1
290
     0
176
     1
290
     1
176
     1
290
     1
176
     1
290
     0
176
     1
290
     0
176
     1
290
     0
176
     1
290
     0
176
     1
290
     0
176
     1
290
     0
176
     1
 90
       50
176
     1
 40
0.0
176
     1
 40
1.0
176
     1
 90
        0
176
     1
 62
    18
420
        0
176
     1
 90
       50
176
     1
 90
        3
176
     1
 62
     5
420
      255
176
     1
290
     0
176
     1
 90
       50
176
     1
 90
       50
176
     1
 90
       50
176
     1
290
     0
176
     1
 90
       50
176
     1
 62
   256
176
     0
 40
1.0
176
     0
 90
        2
176
     1
  1
strokes_ogs.tif
176
     1
290
     0
176
     1
 40
1.0
176
     1
 40
1.0
176
     1
  0
VISUALSTYLE
  5
F3
102
{ACAD_REACTORS
330
EF
102
}
330
EF
100
AcDbVisualStyle
  2
GouraudWithEdges
 70
     3
177
     3
291
     1
 70
    58
 90
        2
176
     1
 90
        2
176
     1
 90
        1
176
     1
 90
        2
176
     1
 40
0.6
176
     1
 40
30.0
176
     1
 62
     7
176
     1
 90
        1
176
     1
 90
        0
176
     1
 62
     7
176
     1
 62
   257
176
     1
 90
        1
176
     1
 90
        1
176
     1
 40
1.0
176
     1
 90
        0
176
     1
 62
   257
176
     1
 40
1.0
176
     1
 90
        1
176
     1
 90
        6
176
     1
 90
        2
176
     1
 62
     7
176
     1
 90
        5
176
     1
 90
        0
176
     1
 90
        0
176
     1
290
     0
176
     1
 90
       13
176
     1
 40
0.0
176
     1
 90
        0
176
     1
290
     0
176
     1
290
     1
176
     1
290
     1
176
     1
290
     0
176
     1
290
     0
176
     1
290
     0
176
     1
290
     0
176
     1
290
     0
176
     1
290
     0
176
     1
 90
       50
176
     1
 40
0.0
176
     1
 40
1.0
176
     1
 90
        0
176
     1
 62
    18
420
        0
176
     1
 90
       50
176
     1
 90
        3
176
     1
 62
     5
420
      255
176
     1
290
     0
176
     1
 90
       50
176
     1
 90
       50
176
     1
 90
       50
176
     1
290
     0
176
     1
 90
       50
176
     1
 62
   256
176
     0
 40
1.0
176
     0
 90
        2
176
     1
  1
strokes_ogs.tif
176
     1
290
     0
176
     1
 40
1.0
176
     1
 40
1.0
176
     1
  0
VISUALSTYLE
  5
F7
102
{ACAD_REACTORS
330
EF
102
}
330
EF
100
AcDbVisualStyle
  2
Hidden
 70
     6
177
     3
291
     0
 70
    58
 90
        1
176
     1
 90
        2
176
     1
 90
        2
176
     1
 90
        0
176
     1
 40
0.6
176
     1
 40
30.0
176
     1
 62
     7
176
     1
 90
        2
176
     1
 90
        2
176
     1
 62
     7
176
     1
 62
   257
176
     1
 90
        2
176
     1
 90
        1
176
     1
 40
40.0
176
     1
 90
        0
176
     1
 62
   257
176
     1
 40
1.0
176
     1
 90
        1
176
     1
 90
        6
176
     1
 90
        2
176
     1
 62
     7
176
     1
 90
        3
176
     1
 90
        0
176
     1
 90
        0
176
     1
290
     0
176
     1
 90
        1
176
     1
 40
0.0
176
     1
 90
        0
176
     1
290
     0
176
     1
290
     1
176
     1
290
     1
176
     1
290
     0
176
     1
290
     0
176
     1
290
     0
176
     1
290
     0
176
     1
290
     0
176
     1
290
     0
176
     1
 90
       50
176
     1
 40
0.0
176
     1
 40
1.0
176
     1
 90
        0
176
     1
 62
    18
420
        0
176
     1
 90
       50
176
     1
 90
        3
176
     1
 62
     5
420
      255
176
     1
290
     0
176
     1
 90
       50
176
     1
 90
       50
176
     1
 90
       50
176
     1
290
     0
176
     1
 90
       50
176
     1
 62
   256
176
     0
 40
1.0
176
     0
 90
        2
176
     1
  1
strokes_ogs.tif
176
     1
290
     0
176
     1
 40
1.0
176
     1
 40
1.0
176
     1
  0
VISUALSTYLE
  5
1E4
102
{ACAD_REACTORS
330
EF
102
}
330
EF
100
AcDbVisualStyle
  2
JitterOff
 70
    20
177
     3
291
     1
 70
    58
 90
        2
176
     0
 90
        2
176
     0
 90
        0
176
     0
 90
        0
176
     0
 40
0.6
176
     0
 40
30.0
176
     0
 62
     7
176
     0
 90
        1
176
     0
 90
        4
176
     0
 62
     7
176
     0
 62
   257
176
     0
 90
        1
176
     0
 90
        1
176
     0
 40
1.0
176
     0
 90
       10
176
     2
 62
     7
176
     0
 40
1.0
176
     0
 90
        1
176
     0
 90
        6
176
     0
 90
        2
176
     0
 62
     7
176
     0
 90
        5
176
     0
 90
        0
176
     0
 90
        0
176
     0
290
     0
176
     0
 90
        1
176
     0
 40
0.0
176
     0
 90
        0
176
     0
290
     0
176
     1
290
     1
176
     1
290
     1
176
     1
290
     0
176
     1
290
     0
176
     1
290
     0
176
     1
290
     0
176
     1
290
     0
176
     1
290
     0
176
     1
 90
       50
176
     1
 40
0.0
176
     1
 40
1.0
176
     1
 90
        0
176
     1
 62
    18
420
        0
176
     1
 90
       50
176
     1
 90
        3
176
     1
 62
     5
420
      255
176
     1
290
     0
176
     1
 90
       50
176
     1
 90
       50
176
     1
 90
       50
176
     1
290
     0
176
     1
 90
       50
176
     1
 62
   256
176
     0
 40
1.0
176
     0
 90
        2
176
     1
  1
strokes_ogs.tif
176
     1
290
     0
176
     1
 40
1.0
176
     1
 40
1.0
176
     1
  0
VISUALSTYLE
  5
FD
102
{ACAD_REACTORS
330
EF
102
}
330
EF
100
AcDbVisualStyle
  2
Linepattern
 70
    14
177
     3
291
     1
 70
    58
 90
        2
176
     1
 90
        2
176
     1
 90
        1
176
     1
 90
        0
176
     1
 40
0.6
176
     1
 40
30.0
176
     1
 62
     7
176
     1
 90
        1
176
     1
 90
        4
176
     1
 62
     7
176
     1
 62
   257
176
     1
 90
        7
176
     1
 90
        7
176
     1
 40
1.0
176
     1
 90
        8
176
     1
 62
     7
176
     1
 40
1.0
176
     1
 90
        1
176
     1
 90
        6
176
     1
 90
        2
176
     1
 62
     7
176
     1
 90
        5
176
     1
 90
        0
176
     1
 90
        0
176
     1
290
     0
176
     1
 90
        1
176
     1
 40
0.0
176
     1
 90
        0
176
     1
290
     0
176
     1
290
     1
176
     1
290
     1
176
     1
290
     0
176
     1
290
     0
176
     1
290
     0
176
     1
290
     0
176
     1
290
     0
176
     1
290
     0
176
     1
 90
       50
176
     1
 40
0.0
176
     1
 40
1.0
176
     1
 90
        0
176
     1
 62
    18
420
        0
176
     1
 90
       50
176
     1
 90
        3
176
     1
 62
     5
420
      255
176
     1
290
     0
176
     1
 90
       50
176
     1
 90
       50
176
     1
 90
       50
176
     1
290
     0
176
     1
 90
       50
176
     1
 62
   256
176
     0
 40
1.0
176
     0
 90
        2
176
     1
  1
strokes_ogs.tif
176
     1
290
     0
176
     1
 40
1.0
176
     1
 40
1.0
176
     1
  0
VISUALSTYLE
  5
1E5
102
{ACAD_REACTORS
330
EF
102
}
330
EF
100
AcDbVisualStyle
  2
OverhangOff
 70
    21
177
     3
291
     1
 70
    58
 90
        2
176
     0
 90
        2
176
     0
 90
        0
176
     0
 90
        0
176
     0
 40
0.6
176
     0
 40
30.0
176
     0
 62
     7
176
     0
 90
        1
176
     0
 90
        4
176
     0
 62
     7
176
     0
 62
   257
176
     0
 90
        1
176
     0
 90
        1
176
     0
 40
1.0
176
     0
 90
        9
176
     2
 62
     7
176
     0
 40
1.0
176
     0
 90
        1
176
     0
 90
        6
176
     0
 90
        2
176
     0
 62
     7
176
     0
 90
        5
176
     0
 90
        0
176
     0
 90
        0
176
     0
290
     0
176
     0
 90
        1
176
     0
 40
0.0
176
     0
 90
        0
176
     0
290
     0
176
     1
290
     1
176
     1
290
     1
176
     1
290
     0
176
     1
290
     0
176
     1
290
     0
176
     1
290
     0
176
     1
290
     0
176
     1
290
     0
176
     1
 90
       50
176
     1
 40
0.0
176
     1
 40
1.0
176
     1
 90
        0
176
     1
 62
    18
420
        0
176
     1
 90
       50
176
     1
 90
        3
176
     1
 62
     5
420
      255
176
     1
290
     0
176
     1
 90
       50
176
     1
 90
       50
176
     1
 90
       50
176
     1
290
     0
176
     1
 90
       50
176
     1
 62
   256
176
     0
 40
1.0
176
     0
 90
        2
176
     1
  1
strokes_ogs.tif
176
     1
290
     0
176
     1
 40
1.0
176
     1
 40
1.0
176
     1
  0
VISUALSTYLE
  5
F9
102
{ACAD_REACTORS
330
EF
102
}
330
EF
100
AcDbVisualStyle
  2
Realistic
 70
     8
177
     3
291
     0
 70
    58
 90
        2
176
     1
 90
        2
176
     1
 90
        0
176
     1
 90
        2
176
     1
 40
0.6
176
     1
 40
30.0
176
     1
 62
     7
176
     1
 90
        0
176
     1
 90
        0
176
     1
 62
     7
176
     1
 62
   257
176
     1
 90
        1
176
     1
 90
        1
176
     1
 40
1.0
176
     1
 90
        8
176
     1
 62
   257
176
     1
 40
1.0
176
     1
 90
        1
176
     1
 90
        6
176
     1
 90
        2
176
     1
 62
     7
176
     1
 90
        3
176
     1
 90
        0
176
     1
 90
        0
176
     1
290
     0
176
     1
 90
       13
176
     1
 40
0.0
176
     1
 90
        0
176
     1
290
     0
176
     1
290
     1
176
     1
290
     1
176
     1
290
     0
176
     1
290
     0
176
     1
290
     0
176
     1
290
     0
176
     1
290
     0
176
     1
290
     0
176
     1
 90
       50
176
     1
 40
0.0
176
     1
 40
1.0
176
     1
 90
        0
176
     1
 62
    18
420
        0
176
     1
 90
       50
176
     1
 90
        3
176
     1
 62
     5
420
      255
176
     1
290
     0
176
     1
 90
       50
176
     1
 90
       50
176
     1
 90
       50
176
     1
290
     0
176
     1
 90
       50
176
     1
 62
   256
176
     0
 40
1.0
176
     0
 90
        2
176
     1
  1
strokes_ogs.tif
176
     1
290
     0
176
     1
 40
1.0
176
     1
 40
1.0
176
     1
  0
VISUALSTYLE
  5
1F3
102
{ACAD_REACTORS
330
EF
102
}
330
EF
100
AcDbVisualStyle
  2
Shaded
 70
    27
177
     3
291
     0
 70
    58
 90
        2
176
     1
 90
        2
176
     1
 90
        1
176
     1
 90
        2
176
     1
 40
0.6
176
     1
 40
30.0
176
     1
 62
     7
176
     1
 90
        0
176
     1
 90
        4
176
     1
 62
     7
176
     1
 62
   257
176
     1
 90
        1
176
     1
 90
        1
176
     1
 40
1.0
176
     1
 90
        8
176
     1
 62
   257
176
     1
 40
1.0
176
     1
 90
        1
176
     1
 90
        6
176
     1
 90
        2
176
     1
 62
     8
176
     1
 90
        3
176
     1
 90
        0
176
     1
 90
        0
176
     1
290
     0
176
     1
 90
        5
176
     1
 40
0.0
176
     1
 90
        0
176
     1
290
     0
176
     1
290
     1
176
     1
290
     1
176
     1
290
     0
176
     1
290
     0
176
     1
290
     0
176
     1
290
     0
176
     1
290
     0
176
     1
290
     0
176
     1
 90
       50
176
     1
 40
0.0
176
     1
 40
1.0
176
     1
 90
        0
176
     1
 62
    18
420
        0
176
     1
 90
       50
176
     1
 90
        3
176
     1
 62
     5
420
      255
176
     1
290
     0
176
     1
 90
       50
176
     1
 90
       50
176
     1
 90
       50
176
     1
290
     0
176
     1
 90
       50
176
     1
 62
   256
176
     0
 40
1.0
176
     0
 90
        2
176
     1
  1
strokes_ogs.tif
176
     1
290
     0
176
     1
 40
1.0
176
     1
 40
1.0
176
     1
  0
VISUALSTYLE
  5
1F2
102
{ACAD_REACTORS
330
EF
102
}
330
EF
100
AcDbVisualStyle
  2
Shaded with edges
 70
    26
177
     3
291
     0
 70
    58
 90
        2
176
     1
 90
        2
176
     1
 90
        1
176
     1
 90
        2
176
     1
 40
0.6
176
     1
 40
30.0
176
     1
 62
     7
176
     1
 90
        1
176
     1
 90
        2
176
     1
 62
     7
176
     1
 62
   257
176
     1
 90
        2
176
     1
 90
        1
176
     1
 40
1.0
176
     1
 90
        8
176
     1
 62
   257
176
     1
 40
1.0
176
     1
 90
        1
176
     1
 90
        6
176
     1
 90
        2
176
     1
 62
     7
176
     1
 90
        3
176
     1
 90
        0
176
     1
 90
        0
176
     1
290
     0
176
     1
 90
        5
176
     1
 40
0.0
176
     1
 90
        0
176
     1
290
     0
176
     1
290
     1
176
     1
290
     1
176
     1
290
     0
176
     1
290
     0
176
     1
290
     0
176
     1
290
     0
176
     1
290
     0
176
     1
290
     0
176
     1
 90
       50
176
     1
 40
0.0
176
     1
 40
1.0
176
     1
 90
        0
176
     1
 62
    18
420
        0
176
     1
 90
       50
176
     1
 90
        3
176
     1
 62
     5
420
      255
176
     1
290
     0
176
     1
 90
       50
176
     1
 90
       50
176
     1
 90
       50
176
     1
290
     0
176
     1
 90
       50
176
     1
 62
   256
176
     0
 40
1.0
176
     0
 90
        2
176
     1
  1
strokes_ogs.tif
176
     1
290
     0
176
     1
 40
1.0
176
     1
 40
1.0
176
     1
  0
VISUALSTYLE
  5
1EF
102
{ACAD_REACTORS
330
EF
102
}
330
EF
100
AcDbVisualStyle
  2
Shades of Gray
 70
    23
177
     3
291
     0
 70
    58
 90
        2
176
     1
 90
        2
176
     1
 90
        3
176
     1
 90
        0
176
     1
 40
0.6
176
     1
 40
30.0
176
     1
 62
     7
176
     1
 90
        2
176
     1
 90
        2
176
     1
 62
     7
176
     1
 62
     7
176
     1
 90
        1
176
     1
 90
        1
176
     1
 40
40.0
176
     1
 90
        8
176
     1
 62
     7
176
     1
 40
1.0
176
     1
 90
        1
176
     1
 90
        6
176
     1
 90
        2
176
     1
 62
     7
176
     1
 90
        3
176
     1
 90
        0
176
     1
 90
        0
176
     1
290
     0
176
     1
 90
        1
176
     1
 40
0.0
176
     1
 90
        0
176
     1
290
     0
176
     1
290
     1
176
     1
290
     1
176
     1
290
     0
176
     1
290
     0
176
     1
290
     0
176
     1
290
     0
176
     1
290
     0
176
     1
290
     0
176
     1
 90
       50
176
     1
 40
0.0
176
     1
 40
1.0
176
     1
 90
        0
176
     1
 62
    18
420
        0
176
     1
 90
       50
176
     1
 90
        3
176
     1
 62
     5
420
      255
176
     1
290
     0
176
     1
 90
       50
176
     1
 90
       50
176
     1
 90
       50
176
     1
290
     0
176
     1
 90
       50
176
     1
 62
   256
176
     0
 40
1.0
176
     0
 90
        2
176
     1
  1
strokes_ogs.tif
176
     1
290
     0
176
     1
 40
1.0
176
     1
 40
1.0
176
     1
  0
VISUALSTYLE
  5
1F0
102
{ACAD_REACTORS
330
EF
102
}
330
EF
100
AcDbVisualStyle
  2
Sketchy
 70
    24
177
     3
291
     0
 70
    58
 90
        1
176
     1
 90
        2
176
     1
 90
        2
176
     1
 90
        0
176
     1
 40
0.6
176
     1
 40
30.0
176
     1
 62
     7
176
     1
 90
        2
176
     1
 90
        2
176
     1
 62
     7
176
     1
 62
     7
176
     1
 90
        1
176
     1
 90
        1
176
     1
 40
40.0
176
     1
 90
       11
176
     1
 62
     7
176
     1
 40
1.0
176
     1
 90
        1
176
     1
 90
        6
176
     1
 90
        2
176
     1
 62
     7
176
     1
 90
        6
176
     1
 90
        0
176
     1
 90
        0
176
     1
290
     0
176
     1
 90
        1
176
     1
 40
0.0
176
     1
 90
        0
176
     1
290
     0
176
     1
290
     1
176
     1
290
     1
176
     1
290
     0
176
     1
290
     0
176
     1
290
     0
176
     1
290
     0
176
     1
290
     0
176
     1
290
     0
176
     1
 90
       50
176
     1
 40
0.0
176
     1
 40
1.0
176
     1
 90
        0
176
     1
 62
    18
420
        0
176
     1
 90
       50
176
     1
 90
        3
176
     1
 62
     5
420
      255
176
     1
290
     0
176
     1
 90
       50
176
     1
 90
       50
176
     1
 90
       50
176
     1
290
     0
176
     1
 90
       50
176
     1
 62
   256
176
     0
 40
1.0
176
     0
 90
        2
176
     1
  1
strokes_ogs.tif
176
     1
290
     0
176
     1
 40
1.0
176
     1
 40
1.0
176
     1
  0
VISUALSTYLE
  5
FC
102
{ACAD_REACTORS
330
EF
102
}
330
EF
100
AcDbVisualStyle
  2
Thicken
 70
    13
177
     3
291
     1
 70
    58
 90
        2
176
     1
 90
        2
176
     1
 90
        1
176
     1
 90
        0
176
     1
 40
0.6
176
     1
 40
30.0
176
     1
 62
     7
176
     1
 90
        1
176
     1
 90
        4
176
     1
 62
     7
176
     1
 62
   257
176
     1
 90
        1
176
     1
 90
        1
176
     1
 40
1.0
176
     1
 90
       12
176
     1
 62
     7
176
     1
 40
1.0
176
     1
 90
        1
176
     1
 90
        6
176
     1
 90
        2
176
     1
 62
     7
176
     1
 90
        5
176
     1
 90
        0
176
     1
 90
        0
176
     1
290
     0
176
     1
 90
        1
176
     1
 40
0.0
176
     1
 90
        0
176
     1
290
     0
176
     1
290
     1
176
     1
290
     1
176
     1
290
     0
176
     1
290
     0
176
     1
290
     0
176
     1
290
     0
176
     1
290
     0
176
     1
290
     0
176
     1
 90
       50
176
     1
 40
0.0
176
     1
 40
1.0
176
     1
 90
        0
176
     1
 62
    18
420
        0
176
     1
 90
       50
176
     1
 90
        3
176
     1
 62
     5
420
      255
176
     1
290
     0
176
     1
 90
       50
176
     1
 90
       50
176
     1
 90
       50
176
     1
290
     0
176
     1
 90
       50
176
     1
 62
   256
176
     0
 40
1.0
176
     0
 90
        2
176
     1
  1
strokes_ogs.tif
176
     1
290
     0
176
     1
 40
1.0
176
     1
 40
1.0
176
     1
  0
VISUALSTYLE
  5
F6
102
{ACAD_REACTORS
330
EF
102
}
330
EF
100
AcDbVisualStyle
  2
Wireframe
 70
     5
177
     3
291
     0
 70
    58
 90
        0
176
     1
 90
        2
176
     1
 90
        0
176
     1
 90
        0
176
     1
 40
0.6
176
     1
 40
30.0
176
     1
 62
     7
176
     1
 90
        1
176
     1
 90
        4
176
     1
 62
     7
176
     1
 62
   257
176
     1
 90
        1
176
     1
 90
        1
176
     1
 40
1.0
176
     1
 90
        0
176
     1
 62
   257
176
     1
 40
1.0
176
     1
 90
        1
176
     1
 90
        6
176
     1
 90
        2
176
     1
 62
     7
176
     1
 90
        3
176
     1
 90
        0
176
     1
 90
        0
176
     1
290
     0
176
     1
 90
        1
176
     1
 40
0.0
176
     1
 90
        0
176
     1
290
     0
176
     1
290
     1
176
     1
290
     1
176
     1
290
     0
176
     1
290
     0
176
     1
290
     0
176
     1
290
     0
176
     1
290
     0
176
     1
290
     0
176
     1
 90
       50
176
     1
 40
0.0
176
     1
 40
1.0
176
     1
 90
        0
176
     1
 62
    18
420
        0
176
     1
 90
       50
176
     1
 90
        3
176
     1
 62
     5
420
      255
176
     1
290
     0
176
     1
 90
       50
176
     1
 90
       50
176
     1
 90
       50
176
     1
290
     0
176
     1
 90
       50
176
     1
 62
   256
176
     0
 40
1.0
176
     0
 90
        2
176
     1
  1
strokes_ogs.tif
176
     1
290
     0
176
     1
 40
1.0
176
     1
 40
1.0
176
     1
  0
VISUALSTYLE
  5
1F1
102
{ACAD_REACTORS
330
EF
102
}
330
EF
100
AcDbVisualStyle
  2
X-Ray
 70
    25
177
     3
291
     0
 70
    58
 90
        2
176
     1
 90
        2
176
     1
 90
        1
176
     1
 90
        1
176
     1
 40
0.5
176
     1
 40
30.0
176
     1
 62
     7
176
     1
 90
        1
176
     1
 90
        0
176
     1
 62
     7
176
     1
 62
   257
176
     1
 90
        1
176
     1
 90
        1
176
     1
 40
1.0
176
     1
 90
        8
176
     1
 62
     7
176
     1
 40
1.0
176
     1
 90
        1
176
     1
 90
        6
176
     1
 90
        2
176
     1
 62
     7
176
     1
 90
        3
176
     1
 90
        0
176
     1
 90
        0
176
     1
290
     0
176
     1
 90
       13
176
     1
 40
0.0
176
     1
 90
        0
176
     1
290
     0
176
     1
290
     1
176
     1
290
     1
176
     1
290
     0
176
     1
290
     0
176
     1
290
     0
176
     1
290
     0
176
     1
290
     0
176
     1
290
     0
176
     1
 90
       50
176
     1
 40
0.0
176
     1
 40
1.0
176
     1
 90
        0
176
     1
 62
    18
420
        0
176
     1
 90
       50
176
     1
 90
        3
176
     1
 62
     5
420
      255
176
     1
290
     0
176
     1
 90
       50
176
     1
 90
       50
176
     1
 90
       50
176
     1
290
     0
176
     1
 90
       50
176
     1
 62
   256
176
     0
 40
1.0
176
     0
 90
        2
176
     1
  1
strokes_ogs.tif
176
     1
290
     0
176
     1
 40
1.0
176
     1
 40
1.0
176
     1
  0
DICTIONARYVAR
  5
146
102
{ACAD_REACTORS
330
5E
102
}
330
5E
100
DictionaryVariables
280
     0
  1
1:1
  0
DICTIONARYVAR
  5
145
102
{ACAD_REACTORS
330
5E
102
}
330
5E
100
DictionaryVariables
280
     0
  1
STANDARD
  0
DICTIONARYVAR
  5
84
102
{ACAD_REACTORS
330
5E
102
}
330
5E
100
DictionaryVariables
280
     0
  1
STANDARD
  0
DICTIONARYVAR
  5
227
102
{ACAD_REACTORS
330
5E
102
}
330
5E
100
DictionaryVariables
280
     0
  1
Metric50
  0
DICTIONARYVAR
  5
228
102
{ACAD_REACTORS
330
5E
102
}
330
5E
100
DictionaryVariables
280
     0
  1
Metric50
  0
DICTIONARYVAR
  5
5F
102
{ACAD_REACTORS
330
5E
102
}
330
5E
100
DictionaryVariables
280
     0
  1
2
  0
DICTIONARYVAR
  5
63
102
{ACAD_REACTORS
330
5E
102
}
330
5E
100
DictionaryVariables
280
     0
  1
1
  0
DICTIONARYVAR
  5
7FA
102
{ACAD_REACTORS
330
5E
102
}
330
5E
100
DictionaryVariables
280
     0
  1
0
  0
DICTIONARYVAR
  5
1AE
102
{ACAD_REACTORS
330
5E
102
}
330
5E
100
DictionaryVariables
280
     0
  1
0
  0
DICTIONARYVAR
  5
1AF
102
{ACAD_REACTORS
330
5E
102
}
330
5E
100
DictionaryVariables
280
     0
  1
0
  0
DICTIONARYVAR
  5
7F8
102
{ACAD_REACTORS
330
5E
102
}
330
5E
100
DictionaryVariables
280
     0
  1
2
  0
DICTIONARYVAR
  5
7F7
102
{ACAD_REACTORS
330
5E
102
}
330
5E
100
DictionaryVariables
280
     0
  1
1
  0
DICTIONARYVAR
  5
7F9
102
{ACAD_REACTORS
330
5E
102
}
330
5E
100
DictionaryVariables
280
     0
  1
127
  0
DICTIONARY
  5
205
330
22
100
AcDbDictionary
280
     1
281
     1
  0
DICTIONARY
  5
1F9
330
ED
100
AcDbDictionary
280
     1
281
     1
  3
FBXASSET
360
1FA
  0
DICTIONARY
  5
1F7
330
EC
100
AcDbDictionary
280
     1
281
     1
  3
FBXASSET
360
1F8
  0
DICTIONARY
  5
173
330
EE
100
AcDbDictionary
280
     1
281
     1
  3
BUMPTILE
360
175
  3
DIFFUSETILE
360
174
  3
FBXASSET
360
1FB
  3
OPACITYTILE
360
176
  3
REFLECTIONTILE
360
177
  0
DICTIONARY
  5
162
330
7F
100
AcDbDictionary
280
     1
281
     1
  3
ACAD_ROUNDTRIP_2008_TABLESTYLE_CELLSTYLEMAP
360
80B
  0
XRECORD
  5
1FA
102
{ACAD_REACTORS
330
1F9
102
}
330
1F9
100
AcDbXrecord
280
     1
 70
     1
 90
429727718
  1
D62C5603-E3A1-4AEA-B7FB-FE5D8D0755AF
310
504B03040A0000080000CC70623B3DEE336E79000000790000001B0000006175746F6465736B2D64657369676E2D7061636B6167652E786D6C3C3F786D6C2076657273696F6E3D22312E302220656E636F64696E673D227574662D3822203F3E3C666F726D6174733E3C666F726D61743E687474703A2F2F736368656D612E
310
6175746F6465736B2E636F6D2F64657369676E2D7061636B6167652F323030393C2F666F726D61743E3C2F666F726D6174733E504B0304140006080800CC70623BD486FD9CA0000000F4000000130000005B436F6E74656E745F54797065735D2E786D6C7D8EC10E82300C865F65E91D8A1E8C310C0EEA1BF002731658846E
310
D98AC1B77784ABF1D8FE5FBFBF75BBCE937A534CCEB38643598122B6FEE978D0B0485F9C41B54DDD7D022595594E1A469170414C76A4D9A4D207E29CF43ECE46F218070CC6BECC4078ACAA135ACF422C856C0E68EA1BF5669944DDD7BCDE7B1F8E415D77AECB980613C2E4AC91FC167A2B244592486606FC29C8FD7F045B9A
310
EF7053A7E60B504B0304140006080800CC70623B853B8169EB0000007C01000008000000636F72652E786D6C8D90416EC3201045AF62CDB6C206821CC7C244919D9CA01740401C94182C03558F5F9C3852BBEB6A467FFE9B197D7EFC9E1EC5975982F5AE035262288C535E5B377690E21535501C055FBC8FBF6C503839990E
310
5619041F179FE64D52DE45E362569DD7661365082642A11EB9E920A89B99642953CC8E702F67A9EE7234257977194EC9EAE275C4EABCCF5EAD5940D4AC6F0E35A568B8F43562CD7046CD199FD07E60174276A7BE677B5EADB0E0D14EEFFB6A31321A0D82627C4084204C3F096B71DD52F6819B16635EADF63F509AF53FA164
310
5DDCD1EDDD17164090FCC8732078B56691CB33A85CD7DCC40F504B0304140006080800CC70623B55019EA25F0000007C00000007000000636E782E786D6C4DCB3B0E80201045D1AD90E915ED2CF8AC45050C11660C8261F98AB1B07AC9C97D42D718D865D3E909258CFD00CCE24AC6E326A164D74DC0B4128928FF32603847
310
2BA13128B1252AC747C6BAB984FC68F0B87FE8960A5C09FE86CFB69FBA01504B0304140006080800CC70623BDBABAAF470010000D40300000C0000006662782F636F72652E786D6CC553D16E823014FD95A6AF4B694182CC941A83FA05FB810A9511A125A5257EFE2E82712ECEB8A7F100CD39F7F69E734AF9FADC366850B6
310
AF8DCE7018308C942E4C59EB2AC3DE1D498AD15A706B8CFB56869196ADCAF00863C12B6B7C374385D14E6907A836A59A41D9F7CA615434B0C8705F7CAA5606D23BA8E84F41278B93AC54100640439DE0BDB320004D43C63716C7C399D30917DCFBBA9CD9BA8469F5B156168B24CED3F7248AC8769F27244EB73B92EED8862C
310
B7F13E0C179B3C8F979C8ECD82BBBABDAA2BAC924E9558448CBD9330242CFA08E3154B5651FCC6D215639C8EE5774DBE2B5F6CF2B5768B68963BB5F5588420E442FC700B1139D4CB01F450C1E918227C2E09DF070D8140C84E1E9AAB8F1340832A9CB13130A5F1376A908D57309505ECF2A0DF179C4E9D30F5B239B87E3823
310
7A79C6F31DE1A8A5AEC08474B03C7837EAE4938639B44E5932B833D2C6B6B279CDC613877FA26EE21F4A2A4C63EC7F29A2F301D1F9F7A0E37D145F504B0304140006080800CC70623B9C113CC27E0000009D0000000B0000006662782F636E782E786D6C4DCCDF0A83201C86E15B91DFB94BFB330DD428C8FB886521330DA7
310
6397BF1A1DECE883878F57749FCDA1B7892F1BBC047A23808C7F84D9FA55424E0BE6803A256208E9EF06C84F9B91703228B1C690F78B66B34CD9A5439DF5CF0BFBF65E35BCA1B8D6A5C6F540381E886698B5741C695F9503EBA150A2F8958E3DC3EA0B504B0304140006080800CC70623B7DF2F77C2A010000120200003100
310
00006662782F41393633353835312D344632462D344230382D423046372D3739314545314133324237412F636F72652E786D6C8D51DB8EC22014FC15C2939B0D2DB4B45643319AE817EC0F6041255A68B86CFCFC856D4D76DF7CE190393373060EDB3DC707F856CE6B6B7A480A0C81328395DA5C7B18C3057510EC3873D686
310
3F34088C18550F330C39BB3A1BA7051AAC09CA84841A2BD5020AEF55806078A44B0FFD7053A328440C89E1EFC52486BBB8AA8214A99D789CF9E05200300FC927E4FB4D5B375D43103D5527440FB843077C5AA3F5861C8F645F5787F59E95B390B318B55CE45AA638FAA2957BD7248B390B7A7CC51F9C124149C82B8C378810
310
84AB2F42B7B8DD56F413775B8C5999E9FF4471926F8AA236A1AE96B8B3CC434E5839373893369E1FAF30EA395917409EB7F26AF8801C171837A4A6AC9C89E9F9C9B1A58BA30FD6A5EF5DDDCF894B9AD9B6A59C957943A9FCAE2FD5BC4DFE03504B0304140006080800CC70623BAD7543B64E01000033030000300000006662
310
782F41393633353835312D344632462D344230382D423046372D3739314545314133324237412F636E782E786D6CD593CD6EC32010845F0571AD6CE3D48AD20813A9873E410FBD12D82434182C7EAAE6EDBB2424CD25871E7B41D6EC30B3FA84F9E67BB2E40B4234DE8DB46F1925E094D7C6ED479AD3AE5951B2113C789FEE
310
6C943839C1488B4C05DF079FE72A69D8C96C13AAD6B8631503449F83828872B949AC57D26200B826A308D316B4064D6E46FCDA41C05550DC9E483A00797BFD207EFB092A45DE9514C1BBD22178396BD39D891265658C238DEA00936C654E5E433CB65A26D9F6EDB5EBC14EBF49A45CB856E66048291F6939A9A81BB5C89177
310
38143CA680F4AA299D66A042CEB3354A2684DC9D8D178FE0D9B8B41CAAD720F880EE7EF93C0C18769E099ECC04D5A102C8049A8A05632F4DDF376CF1DE0F6BB65C2F8627B65A33C6BB62177CEBBDAD973006829F89F22E814B54F4BC2BE347F8AA8F681390B50FA73F804400B5F542E796F19FF974E7F78DB802FE05E20750
310
4B0304140006080800CC70623BE75B7789680500003C100000340000006662782F41393633353835312D344632462D344230382D423046372D3739314545314133324237412F6F626A656374732E786D6CAD575B8F9B3818FD2B887D06C22499CB8AA1CA655245D5B455A356FB305264C061D8018C6C3393D95FBFC7600890
310
A4CD5EF210B0B1BFEBF98E3F7B1FF6596ABC522E1296DF9BAE3D320D9A872C4AF2F8DE2CE5CEBA358D0FBEC719939D65A691938CDE9B6ADAF4BD98B3B2D05311DD91329583D9D5FC0F438434A7A611A644887B5384CF34233629258BA878B12322891DEFF6B66BD70BFB62634E8AE781D082709A4B588AF91C528CDA28B73F
310
1C998EEF39EABBEFA97FBD6A7C7E9553F9D3D79FE442923C3C523610337627CB87ABE99D359D4CC6D6E4FACAB5E6ABF9D2726FC6A3C5F56271377BB88362213924694B38DD99FE47C48627A1E7D49F5A8BB5E1A74C0A599ED3B0F21F1E56366B89112D681E218F0915D0D6F17AD41FBA2A369DCF6335D62ABBD39779D5DDD1
310
11D4D8DE3CBB96B2E04FB8202E41051754A1AA8E8F76B4C6DFE810B580B1547F4B84911149794252234D024EF8BBE963A95AE27B3D310A9D5C215C7960FAEE415ED75694C6AFB17BCACA5D99A60A9AA65F217B0BFC53292ACB92BF283FAD0D3621576592CB5BED907C2FA8E9DF794E35E97BEA31BED21FEB401ABB94C44839
310
DCACBF0E1C5DA8DA5B2F4DFFD32AD86F543D9E565E7056502E157C00AD2671CD534549AB752FCA9CDA00677A313F04E51B22FF19E57B300579E3C97EB29F682D92935CEC18CF901B7B54FD8C51F362B56FC72FE0B3C1EAE335EDCCBF5AEC39ADB17DC238973F804BA5E6F6BFE7AF1FB32E523BE9F3BD571418E3631DCA4D48
310
5250CF639223210A9446CA30052EDF057BD35F8329C1ECD84552BF0DC8D18BE7BCE23BFE6BD960AB4A7DE79923A103BEBD80F911CBAA2C60DB19B01CF164A5583B772EE6D3FFA56666CBCDA74DC97724A48F9A58967497E489C4D979006FD7A05E227A1EBDD0F737C623387A9C844D3709995625106D157315F8B8392CD4E0
310
A0B9A720C4BE9829CEF37EA1E13111214D53925356365ADA634861B52519DD27A00AEB808EAF0628E6F435519D446F45CF2C9CF5214F0A15B2F6D06B79DA3EE3CBF7F56780D2F4E7EF73A0F5E5B02A38D07DC852C6B7C1FBB6664213E0C39E3EBA7FF4E1AD23EA2829407C85E586727488B751B2DB9502BC7B228A3FD68B6E
310
A65A22397E690AA8D158D7E404EC8CDA235CC3B7D1898680131CEC2CDF2638C65196279577750F15884AEE19F94199155B92B13297978469D4F8D358DF0AEF7631E28DC8F0D9F437D5D39A83B2231A1D52D543813A824EF8D44BCFF2FA6A31BD1E8DAD87F1CCB526B3879935BF59CDADD5C37479BB1CDD4CA7B3556B516589
310
EF352754B706114D9C885EC9131DE6EFEB43D99AFE2391C2F958179413D7CFEF6B1B6DB1E7600F00DE6E5C67454A339A4BA2E0FBA85ED26F045D454F463DBFCE484C2F90F2E5E3666003662ED8F755951A7D1BECD5B30B550B2785C8E7320B7292A4838DDA71BBC863ED7613CAF659337A3354231D4FF4A182A54904C2898C
310
98B28C4AD0CE056CCF332A80986E571EE9DBC305BB5FEB7E509220A58D25CF042D712A806AC0AD0C657FDEF80D2D9CEAA2EE4D1C76F60BFE74219A06527D6F82DF6412526107381E55E353090704D085B52408A8913C4ED159D79BDA71BB4BC506F4831350EB6F975CD22D69BF7AC49B91A2C0A9DDA3D5CA36AD20FC478E37
310
E61844E2352865EBCB61A275A65283CAAA9DD27703B4102F5AF51EF5F573B75CBB5AD38BC845F7A49F82A0966A49C2E3EA5EA0ECD326CD965F1DB402C6FA8B51A4658C5C5E2EC9E214602E55810345408596591009A82E7E7FFACA19EEA299B14A0081A705CB3296EBC14CDF658DCD336EA6D1136881AAEB87B81AB9EE53D5
310
F5EB8BC8362082DA24122F98680A4E7930C01A0079749CEA14382A0783E5EBA5A10F8C098456A03D6A4AEB6BB881E2513747552A5DB22C7EDAF83BD5528081A365F7FF06504B0304140006080000CC70623B000000000000000000000000350000006662782F41393633353835312D344632462D344230382D423046372D37
310
39314545314133324237412F76657274696365732E62696E504B0304140006080800CC70623BF270F1330600000004000000360000006662782F41393633353835312D344632462D344230382D423046372D3739314545314133324237412F747269616E676C65732E62696E636660600000504B0304140006080000CC7062
310
3B000000000000000000000000370000006662782F41393633353835312D344632462D344230382D423046372D3739314545314133324237412F617474726962757465732E62696E504B0304140006080800CC70623B08DA0BD19000000041010000360000006662782F41393633353835312D344632462D344230382D4230
310
46372D3739314545314133324237412F6469726563746F72792E786D6C858F410AC3201045AF22B36F53E9A60B35CBEEBAE80D244E44489C6234F4F835464A48035D0DF398FF9F8AF63D0E6CC63039F212F8F9020C7D47C6792B21C5FE7403D62A1188E2E60C98D7234A5830286103A55745067B9D86B8A3CF9C7F90C11DE6
310
07FB144396D7B6A82D282E9A152AD114D5EF2CB866EEE831B8EEA07A7BB5A8D7D61A2BAAEB7FD5F70921FF497D00504B0304140006080800CC70623BEDD1DC58FD000000A00100003B0000006662782F41393633353835312D344632462D344230382D423046372D3739314545314133324237412F7265736F75726365732F
310
636F72652E786D6C8D504B6E833010BD0A9A6D65B00922041947112427E8052C33A156828DFCA97AFC9A40A576D7CDCCE87D344F8F9FBFE667F689CE6B6B3A6039850C8DB2A336530731DC4903D95970676DF82583CCC8193B5861107C72362E3BA4AC096842428D1D7107A5F7182053CF7474E0D507CE32973124857FE48B
310
540F3961CEF244279DE03EB81420DB9EAC1384436FA353E879B1B182C7A8C75DA3C7F453DF353A1075D537A7BA6464B8F535A99AE14A9A2BBD90E350DD183B5CFABE3AF262350B1EF4FC9351399401471025A527C218A1E53BAB5A5AB765F5469B96525EACF23FA6B88CFF34456DC2A1DCE36E360F82A5202F42F062ED2BAD
310
579969AFDD8A6F504B010214000A0000080000CC70623B3DEE336E79000000790000001B00000000000000000000000000000000006175746F6465736B2D64657369676E2D7061636B6167652E786D6C504B01021400140006080800CC70623BD486FD9CA0000000F40000001300000000000000000000000000B20000005B
310
436F6E74656E745F54797065735D2E786D6C504B01021400140006080800CC70623B853B8169EB0000007C010000080000000000000000000000000083010000636F72652E786D6C504B01021400140006080800CC70623B55019EA25F0000007C000000070000000000000000000000000094020000636E782E786D6C504B
310
01021400140006080800CC70623BDBABAAF470010000D40300000C00000000000000000000000000180300006662782F636F72652E786D6C504B01021400140006080800CC70623B9C113CC27E0000009D0000000B00000000000000000000000000B20400006662782F636E782E786D6C504B01021400140006080800CC70
310
623B7DF2F77C2A010000120200003100000000000000000000000000590500006662782F41393633353835312D344632462D344230382D423046372D3739314545314133324237412F636F72652E786D6C504B01021400140006080800CC70623BAD7543B64E010000330300003000000000000000000000000000D2060000
310
6662782F41393633353835312D344632462D344230382D423046372D3739314545314133324237412F636E782E786D6C504B01021400140006080800CC70623BE75B7789680500003C10000034000000000000000000000000006E0800006662782F41393633353835312D344632462D344230382D423046372D3739314545
310
314133324237412F6F626A656374732E786D6C504B01021400140006080000CC70623B0000000000000000000000003500000000000000000000000000280E00006662782F41393633353835312D344632462D344230382D423046372D3739314545314133324237412F76657274696365732E62696E504B01021400140006
310
080800CC70623BF270F133060000000400000036000000000000000000000000007B0E00006662782F41393633353835312D344632462D344230382D423046372D3739314545314133324237412F747269616E676C65732E62696E504B01021400140006080000CC70623B0000000000000000000000003700000000000000
310
000000000000D50E00006662782F41393633353835312D344632462D344230382D423046372D3739314545314133324237412F617474726962757465732E62696E504B01021400140006080800CC70623B08DA0BD1900000004101000036000000000000000000000000002A0F00006662782F41393633353835312D344632
310
462D344230382D423046372D3739314545314133324237412F6469726563746F72792E786D6C504B01021400140006080800CC70623BEDD1DC58FD000000A00100003B000000000000000000000000000E1000006662782F41393633353835312D344632462D344230382D423046372D3739314545314133324237412F7265
310
736F75726365732F636F72652E786D6C504B0506000000000E000E0080040000641100000000
  0
XRECORD
  5
1F8
102
{ACAD_REACTORS
330
1F7
102
}
330
1F7
100
AcDbXrecord
280
     1
 70
     1
 90
429727718
  1
30362254-06B7-45E0-A893-8CFA70E3D6BC
310
504B03040A0000080000CC70623B3DEE336E79000000790000001B0000006175746F6465736B2D64657369676E2D7061636B6167652E786D6C3C3F786D6C2076657273696F6E3D22312E302220656E636F64696E673D227574662D3822203F3E3C666F726D6174733E3C666F726D61743E687474703A2F2F736368656D612E
310
6175746F6465736B2E636F6D2F64657369676E2D7061636B6167652F323030393C2F666F726D61743E3C2F666F726D6174733E504B0304140006080800CC70623BD486FD9CA0000000F4000000130000005B436F6E74656E745F54797065735D2E786D6C7D8EC10E82300C865F65E91D8A1E8C310C0EEA1BF002731658846E
310
D98AC1B77784ABF1D8FE5FBFBF75BBCE937A534CCEB38643598122B6FEE978D0B0485F9C41B54DDD7D022595594E1A469170414C76A4D9A4D207E29CF43ECE46F218070CC6BECC4078ACAA135ACF422C856C0E68EA1BF5669944DDD7BCDE7B1F8E415D77AECB980613C2E4AC91FC167A2B244592486606FC29C8FD7F045B9A
310
EF7053A7E60B504B0304140006080800CC70623B1EC5D7A3EB0000007C01000008000000636F72652E786D6C8D90416EC3201045AF82665B6103C6756C6122AB4D4ED00B204C5C94182C03558F5F9C3852BBEB6A467FFE9B197D71FC9E6FE8CBACC17AD7032D0820E3B41FAD9B7A48F1820F808E52ACDEC75F36404ECDA687
310
4D0629A6D5A76597B477D1B89855E747B38B2A041301E95B6E7A08FAD3CCAA50296647B8168BD2573599823EBB0CA76447F43862C7BCCF5EAC59410E4DDD9C7973C2755553CCCFA4C603E3040F1565ED3B1FDE4E432BCA0D9622DAF9795FAF464533826484B498524CD807E51D79ED187F21878E10516EF63F505AC67F42C9
310
BA58B1FDDD071640D2FCC87D2045B96591CB3DA85CB7DCE40F504B0304140006080800CC70623B55019EA25F0000007C00000007000000636E782E786D6C4DCB3B0E80201045D1AD90E915ED2CF8AC45050C11660C8261F98AB1B07AC9C97D42D718D865D3E909258CFD00CCE24AC6E326A164D74DC0B4128928FF32603847
310
2BA13128B1252AC747C6BAB984FC68F0B87FE8960A5C09FE86CFB69FBA01504B0304140006080800CC70623B8C9102E971010000D40300000C0000006662782F636F72652E786D6CC5535B6E833010BC8AE5DF0A6C08340F1947A84D4ED00B38C6A128602363A31CBFCB234A53A551FA553EC09AD9F5CE8C31DB9E9B1AF5CA
310
7695D1198E428A91D2D214952E33ECDD315861B4E5CC1AE3BE9561A445A3323CC098B3D21ADFCE9034DA29ED00D5A6503328BA4E398C640D8B0C77F253352214DE4145770A5B214FA2546114020D759C75CE8200340D19DE981F0F6746269C33EFAB6266AB02A655C74A59CCF365BADC27CB5D902ED22848F6340DF238A141
310
BE88E2F57B92BFEDF23523433367AE6A2EEAA455C2A902F398D2751045018D3FA264435F3771F242571B4A1919CA6F9A7C5B3CD9E42BED16F12C776AEB308F40C848FC700B1139D4891EF410CEC810227CC6846F8386402064270EF5C5C709A05E49676C024C61FC95EA45ED154CA5211D1FF4FB8291A913A68E9B83EBBB33
310
E2A7673CDE118E5AE8124C0807CB8377834E366998436B950D7A7746DAD846D4CFD978E0F04FD455FC5D49D2D4C6FE9722321F10997F0F32DC47FE05504B0304140006080800CC70623BFFEA85907E0000009D0000000B0000006662782F636E782E786D6C4DCCD10A83201886E15B91FFDC95D95A811AB6F23E625948A6C3
310
E9D8E5AF46073BFAE0E1E365ED67B3E8ADC3CB78C7815C7240DA3DFC64DCC221C519D7805AC182F7F1EF06C88D9BE6703008B6049F9E274D7A1E938DBB5AE3D6131B2589BA0D3D965551E0B2EA732C9B9A624AAEB41E3A557677029960D9AFB4EF11165F504B0304140006080800CC70623B4FEEA4082C0100001202000031
310
0000006662782F39464131463745442D413632322D343644302D413938332D3331353338454246344243312F636F72652E786D6C8D515B6EC32010BC0AE2AB55850DD871ED0813254D72825EC00192A2C460F1A872FC42ED48ED5F7E00CDCECCCEB26C731F6FE05B39AFADE921293004CA082BB5B9F43086336A21D870E6AC
310
0D7F68109861543DCC30E4ECE26C9C164858139409093556AA051CBC570102714B8F1E7AF1A5C6A11862480C7F2DA6415C878B2A4891CA89C7990F2E050073937C42DE1DB7E4F87ED8A36D4329AA9B3D46DBAEAD504556557BD81DEBDD0761E52CE42C462D17B996298E3E6BE59E35C962CE821E1FF18553435012728A7187
310
0841987E927A8D9B35ADDF70BBC6989599FE4F1427F9A4286A132ABAC49D651EF234CD5CE04CDA78BA3DC2A8FB645D00B9DF8B57E215725C60BCA2A463E54C4CE327C7A65E1C7DB02E7DEFCBF594B864C5CA6CDBD49C957943E9FA5D5FBAF336F90F504B0304140006080800CC70623BAD7543B64E01000033030000300000
310
006662782F39464131463745442D413632322D343644302D413938332D3331353338454246344243312F636E782E786D6CD593CD6EC32010845F0571AD6CE3D48AD20813A9873E410FBD12D82434182C7EAAE6EDBB2424CD25871E7B41D6EC30B3FA84F9E67BB2E40B4234DE8DB46F1925E094D7C6ED479AD3AE5951B2113C
310
789FEE6C943839C1488B4C05DF079FE72A69D8C96C13AAD6B8631503449F83828872B949AC57D26200B826A308D316B4064D6E46FCDA41C05550DC9E483A00797BFD207EFB092A45DE9514C1BBD22178396BD39D891265658C238DEA00936C654E5E433CB65A26D9F6EDB5EBC14EBF49A45CB856E66048291F6939A9A81BB5
310
C8917738143CA680F4AA299D66A042CEB3354A2684DC9D8D178FE0D9B8B41CAAD720F880EE7EF93C0C18769E099ECC04D5A102C8049A8A05632F4DDF376CF1DE0F6BB65C2F8627B65A33C6BB62177CEBBDAD973006829F89F22E814B54F4BC2BE347F8AA8F681390B50FA73F804400B5F542E796F19FF974E7F78DB802FE05
310
E207504B0304140006080800CC70623B16AB87BA640500003C100000340000006662782F39464131463745442D413632322D343644302D413938332D3331353338454246344243312F6F626A656374732E786D6CAD575B6FA33818FD2B887DE6924B3BED8A326A92B68A663B534DD4D13E548A0C38942D60649B369D5FBFC7
310
600890A493BDE42160637FD7F31D7FF63E6FB3D478A55C242CBF3247B66B1A340F5994E4F19559CA8D75611A9F7D8F33263BCB4C232719BD32D5B4E97B316765A1A722BA21652A07B3B7B33F0D11D29C9A46981221AE4C113ED38CD8A4942CA2E2C58E882476BCD9DA23BB5ED8171B73523C0F841684D35CC252CCE79062D4
310
468DFA43D7747CCF51DF7D4FFDEB5593E3AB9CCA9FBEFE241792E4E19EB28198C968BAB8199F5D5A67D3E9C49A9E8F47D6EC76B6B0469F26EEFC7C3EBFBCBEB98462213924694B38DD98FE1D62C393D073EA4FADC5DAF04326852CCF6958F90F0F2B9BB5C48816348F90C7840A68EB78EDF68723159BCEE7891A6B95DDE9D3
310
BCEAEEE8086A6C6F9E5D4B59F0175C10A7A0820BAA5055C7473B5AE3CFDD452D602CD5DF12616444529E90D448938013FE6EFA58AA96F85E4F8C42275708571E98FE6827AF6B2B4AE3D7D83D64E5A64C53054DD3AF90BD06FEA9149565C94FCA0F6B834DC85599E4F2423B24DF0B6AFA979E534DFA9E7A4CC6FA631D486393
310
921829879BF5D781A373557BCB85E97FB90DB62B558F8795179C15944B051F40AB495CF35451D26A4727654E6D8033BD98EF82F21D91FF8AF2DD9982BCF1643BDD4EB516C9492E368C67C88DED563FC36D5EACF66DFF057C3658BDBFA69DF9578B3DA735B64F18C7F20770A9D45CFCF7FCF563D6456A277DBEF78A02637CA2
310
43B90A490AEAB94F72244481D24819A6C0E59B606BFA4B3025981DBB48EAB701D97BF19C577CC77F2D1B6C55A9EF3C732474C0B727303F625995056C3B02963D9EAC146BE78EC5FCEC7FA999EBC5EACBAAE41B12D27B4D2C0BBA49F244E2ECDC81B76B502F113D8F5EE8FB1BE3111CDD4FC2AA9B844CAB1288B68AB90A7CDC
310
1C166AB0D3DC5310625FCC14E779BFD0709F8890A629C9292B1B2DED31A4B0DA928CEE135085754027E3018A397D4D5427D15BD1330B677DC8934285AC3DF45A9EB68FF8F2B8FC0A509AFEECFD0FF2DE25CC6047F7214B195F07EFEB9A094D800F7BFAE8FED187B78EA8A3A400F115961BCAD1215E47C966530AF0EE8128FE
310
58CEBB996A8964FFA529A046635D9353B0336A8F700DDF46271A024E70B0B37C9DE01847591E54DED53D54202AB947E4076556AC49C6CA5C9E1226B7F1A7B1BE15DEED62C41B91E1B3E9AFAAA735036547343A925075041DF0A9979E893B391F8FCFA6967B3EFB644DCF6E5CEBFAE272625DCC6FAF3FB93793C5F90CE1EF57
310
407342756B10D1C489E8953CD1617E5CEECAD6F4EF8914CE5D5D504E5C3F1F9736DA62CFC11E00BCDDB8CC8A9466349744C1F75EBDA4DF09BA8A9E8C7A7E9991989E20E5DBDD6A6003664ED8F7A04A8DBE0DF6EAD9B9AA858342E47399053949D2C146EDB85DE4B176BB0965FBAC19BD19AA918E27FA50C1D22402E144464C
310
59462568E704B6E71915404CB72B8FF4EDE184DDAF753F284990D2C6926782963815403548A70C657FDEF80D2D9CEAA2AE4C1C76F60BFE74219A06527D6582DF6412526107381E55E353090704D085B52408D0933C4ED159D79BDA71BB4BC506F4831350EB6F979CD22D69BF7AC49B91A2C0A9DDA3D5CA36AD20FC478E37E6
310
1844E2352865EBCB6EA275A652E3836BE04EFB400BF1A2556F515F1FBB35B2AB35BD889C744FFA1004B5544B121E57F70215746DD2F5E2C1412B602CBF19455AC6C8E5E9922C4E01E65215385004546899059180EAFCF7A707CE7017CD8CDB0410789AB32C63B91E5CEBBBACB17AC6CD347A022D5075FD106377347AAABA7E
310
7D11590744509B44E205134DC1290F06580320F78E537D3D73540E06CB970B431F185308AD40BBD794D6D77003C5A36E8EAA54BA64597CD8F83BD552A080A365F7FF06504B0304140006080000CC70623B000000000000000000000000350000006662782F39464131463745442D413632322D343644302D413938332D3331
310
353338454246344243312F76657274696365732E62696E504B0304140006080800CC70623BF270F1330600000004000000360000006662782F39464131463745442D413632322D343644302D413938332D3331353338454246344243312F747269616E676C65732E62696E636660600000504B0304140006080000CC70623B
310
000000000000000000000000370000006662782F39464131463745442D413632322D343644302D413938332D3331353338454246344243312F617474726962757465732E62696E504B0304140006080800CC70623B08DA0BD19000000041010000360000006662782F39464131463745442D413632322D343644302D413938
310
332D3331353338454246344243312F6469726563746F72792E786D6C858F410AC3201045AF22B36F53E9A60B35CBEEBAE80D244E44489C6234F4F835464A48035D0DF398FF9F8AF63D0E6CC63039F212F8F9020C7D47C6792B21C5FE7403D62A1188E2E60C98D7234A5830286103A55745067B9D86B8A3CF9C7F90C11DE607
310
FB144396D7B6A82D282E9A152AD114D5EF2CB866EEE831B8EEA07A7BB5A8D7D61A2BAAEB7FD5F70921FF497D00504B0304140006080800CC70623B0D6EF93BFE000000A00100003B0000006662782F39464131463745442D413632322D343644302D413938332D3331353338454246344243312F7265736F75726365732F63
310
6F72652E786D6C8D50596E833010BD0A9ADFCA60B334011947A8694ED00B586642AC041B79A97AFC9A40A5F6AF3F33A3B7689E1E3F7DCD8FEC139DD7D6F4C0720A191A65476DA61E62B892236427C19DB5E1970C322367EC618541F0C9D9B8EC90B226A009093576C41D94DE63804C3DD2D18357379C652E63480A7FCF17A9
310
EE72C29CE5894E3AC17D702940B63D59270887DE46A7D0F36263058F518FBB468FE9A7BE6A7420864373B8D4873369AA8691FA421B3294352543C5CAF65C0F6FEF43CB8BD52C78D0F34F46E550061C419494B6843142CB0F5677F4B52BEB177AEC28E5C52AFF638ACBF84F53D42654E51E77B379102C05791282176B5F693D
310
CB4C7BED567C03504B010214000A0000080000CC70623B3DEE336E79000000790000001B00000000000000000000000000000000006175746F6465736B2D64657369676E2D7061636B6167652E786D6C504B01021400140006080800CC70623BD486FD9CA0000000F40000001300000000000000000000000000B20000005B
310
436F6E74656E745F54797065735D2E786D6C504B01021400140006080800CC70623B1EC5D7A3EB0000007C010000080000000000000000000000000083010000636F72652E786D6C504B01021400140006080800CC70623B55019EA25F0000007C000000070000000000000000000000000094020000636E782E786D6C504B
310
01021400140006080800CC70623B8C9102E971010000D40300000C00000000000000000000000000180300006662782F636F72652E786D6C504B01021400140006080800CC70623BFFEA85907E0000009D0000000B00000000000000000000000000B30400006662782F636E782E786D6C504B01021400140006080800CC70
310
623B4FEEA4082C0100001202000031000000000000000000000000005A0500006662782F39464131463745442D413632322D343644302D413938332D3331353338454246344243312F636F72652E786D6C504B01021400140006080800CC70623BAD7543B64E010000330300003000000000000000000000000000D5060000
310
6662782F39464131463745442D413632322D343644302D413938332D3331353338454246344243312F636E782E786D6C504B01021400140006080800CC70623B16AB87BA640500003C1000003400000000000000000000000000710800006662782F39464131463745442D413632322D343644302D413938332D3331353338
310
454246344243312F6F626A656374732E786D6C504B01021400140006080000CC70623B0000000000000000000000003500000000000000000000000000270E00006662782F39464131463745442D413632322D343644302D413938332D3331353338454246344243312F76657274696365732E62696E504B01021400140006
310
080800CC70623BF270F133060000000400000036000000000000000000000000007A0E00006662782F39464131463745442D413632322D343644302D413938332D3331353338454246344243312F747269616E676C65732E62696E504B01021400140006080000CC70623B0000000000000000000000003700000000000000
310
000000000000D40E00006662782F39464131463745442D413632322D343644302D413938332D3331353338454246344243312F617474726962757465732E62696E504B01021400140006080800CC70623B08DA0BD190000000410100003600000000000000000000000000290F00006662782F39464131463745442D413632
310
322D343644302D413938332D3331353338454246344243312F6469726563746F72792E786D6C504B01021400140006080800CC70623B0D6EF93BFE000000A00100003B000000000000000000000000000D1000006662782F39464131463745442D413632322D343644302D413938332D3331353338454246344243312F7265
310
736F75726365732F636F72652E786D6C504B0506000000000E000E0080040000641100000000
  0
XRECORD
  5
175
102
{ACAD_REACTORS
330
173
102
}
330
173
100
AcDbXrecord
280
     1
270
     1
271
     1
  0
XRECORD
  5
174
102
{ACAD_REACTORS
330
173
102
}
330
173
100
AcDbXrecord
280
     1
270
     1
271
     1
  0
XRECORD
  5
1FB
102
{ACAD_REACTORS
330
173
102
}
330
173
100
AcDbXrecord
280
     1
 70
     0
 90
1673772943
  1
ECE7A1D2-D628-4531-984C-D00F80459256
310
504B03040A0000080000CC70623B3DEE336E79000000790000001B0000006175746F6465736B2D64657369676E2D7061636B6167652E786D6C3C3F786D6C2076657273696F6E3D22312E302220656E636F64696E673D227574662D3822203F3E3C666F726D6174733E3C666F726D61743E687474703A2F2F736368656D612E
310
6175746F6465736B2E636F6D2F64657369676E2D7061636B6167652F323030393C2F666F726D61743E3C2F666F726D6174733E504B0304140006080800CC70623BD486FD9CA0000000F4000000130000005B436F6E74656E745F54797065735D2E786D6C7D8EC10E82300C865F65E91D8A1E8C310C0EEA1BF002731658846E
310
D98AC1B77784ABF1D8FE5FBFBF75BBCE937A534CCEB38643598122B6FEE978D0B0485F9C41B54DDD7D022595594E1A469170414C76A4D9A4D207E29CF43ECE46F218070CC6BECC4078ACAA135ACF422C856C0E68EA1BF5669944DDD7BCDE7B1F8E415D77AECB980613C2E4AC91FC167A2B244592486606FC29C8FD7F045B9A
310
EF7053A7E60B504B0304140006080800CC70623BD9DDAED0EC0000007C01000008000000636F72652E786D6C8D90416EC3201045AF82665B61836D9CD8C2444DD39CA01740405C94182C03558F5F9C3852BBEB6A467FFE9B197D7EF89E6EE8CB2CC17A37002D0820E394D7D68D03A478C17B4007C117EFE32F1B20272733C0
310
2A83E0E3E2D3BC49CABB685CCCAAF3DA6CA20CC14440EA969B0182FA34932C648AD911AEC52CD5558EA6A0CF2EC329598D1E47ACCEFBECC59A050463A7EA5833865FEBDD0E37353BE3EE8DBDE3F6786A48D375FBF6CC78B9C282473B3DEFABC5C86834888A900E538A49F5419B9EB47DD5BC907D4F082F57FB1F28CDFA9F50
310
B22ED6D5F6EE030B20687EE43E10BC5CB3C8E51E54AE6B6EE207504B0304140006080800CC70623B55019EA25F0000007C00000007000000636E782E786D6C4DCB3B0E80201045D1AD90E915ED2CF8AC45050C11660C8261F98AB1B07AC9C97D42D718D865D3E909258CFD00CCE24AC6E326A164D74DC0B4128928FF326038
310
472BA13128B1252AC747C6BAB984FC68F0B87FE8960A5C09FE86CFB69FBA01504B0304140006080800CC70623BA24EB22D72010000D40300000C0000006662782F636F72652E786D6CC5535B6E833010BC8AE5DF0A6C5E49888CA3A6694ED00B38E05014B091B1518EDFE511A5A9D228FD2A1F60CDEC7A67C6986DCE4D8D7A
310
69BA4AAB0C073EC548AA5C17952A33ECECD15B61B4E1CC686DBF9561A44423333CC098B3D268D7CE50AE9595CA02AA74216750749DB418E5352C32DCE59FB211BE70162ABA93DF8AFC244AE9073ED050C759670D0840D390E18DF9F1706664C23973AE2A66B62A605A75ACA4C13C4976E1364A12EF355A2EBD384AF65EFA96
310
BC7B8BED2EA6719AAE16FB8491A199335B351775B991C2CA02F390D2D40B028F861F41BCA68B7518BFD0D59A524686F29B26D7164F36B94AD9289CE54E6D1DE6010819891F6E21228B3AD1831EC219194284CF98F06DD01008846CC5A1BEF83801D4CBDC6A1303536877A57A513B0953A94FC707FDBE6064EA84A9E3E6E0FA
310
EE8CF0E9198F7784A316AA0413C2C2F2E0ECA0934D1AE6D05A69BCDE9E91D2A611F573361E38FC1375157F5752AE6B6DFE4B11990F88CCBF0719EE23FF02504B0304140006080800CC70623B408A7D3B7C0000009D0000000B0000006662782F636E782E786D6C4DCCD10A83201886E15B91FFDC552A92A0064DBC8F581632
310
D3703A76F9ABD1C18E3E78F878E5F0D9027ABBFCF2292AE86E2D20171F69F6715550CB827B40839639A5F2770314A7CD293819B45C73AAFB45B35BA61ACAA1C1C7E7855C58C15BC331339661262CC762340413D68D77DA5B42298546CBE6573AF60CEB2F504B0304140006080800CC70623B449FB9BD290100001202000031
310
0000006662782F36394639363044362D344446342D343946362D394244322D3234314243333846323333332F636F72652E786D6C8D515B6EC32010BC0AE22B55850D98B871848994463E412FE002495162B07854397EA176A4F62F3F2C9A9D991D587EB84F37F0AD7D30CEF6905418026DA553C65E7A98E219ED203808EE9D
310
8B7F6810D871D23D2C3014FCE25D9A57483A1BB58D19B54EE9151C43D0110279CB971E06F9A5A7B11A53CC8C70ADE6515EC78BAE4895DB992778883E0700CB907242D17643D7E2538BD869608875438BBAE38922CAC8F1BDD90DB4691A5E2F42C153326A951B95E398B3D1FE599322163C9AE9115F7A3D46ADA0A018778810
310
84E907617BDCEE297BC5BB3DC6BC2EF47FA234AB2745C9D8D8D035EE220B50105E2F0DC1954B9FB747187D9F9D8FA0CCDB042D5FA0C015C65B42DF78BD10F3F3B363CB56C7109DCFDFBBB97E662ED92EB62D13BC2E1BCAE5777DB9966D8A1F504B0304140006080800CC70623BAD7543B64E01000033030000300000006662
310
782F36394639363044362D344446342D343946362D394244322D3234314243333846323333332F636E782E786D6CD593CD6EC32010845F0571AD6CE3D48AD20813A9873E410FBD12D82434182C7EAAE6EDBB2424CD25871E7B41D6EC30B3FA84F9E67BB2E40B4234DE8DB46F1925E094D7C6ED479AD3AE5951B2113C789FEE
310
6C943839C1488B4C05DF079FE72A69D8C96C13AAD6B8631503449F83828872B949AC57D26200B826A308D316B4064D6E46FCDA41C05550DC9E483A00797BFD207EFB092A45DE9514C1BBD22178396BD39D891265658C238DEA00936C654E5E433CB65A26D9F6EDB5EBC14EBF49A45CB856E66048291F6939A9A81BB5C89177
310
38143CA680F4AA299D66A042CEB3354A2684DC9D8D178FE0D9B8B41CAAD720F880EE7EF93C0C18769E099ECC04D5A102C8049A8A05632F4DDF376CF1DE0F6BB65C2F8627B65A33C6BB62177CEBBDAD973006829F89F22E814B54F4BC2BE347F8AA8F681390B50FA73F804400B5F542E796F19FF974E7F78DB802FE05E20750
310
4B0304140006080800CC70623B8D05915C650500003B100000340000006662782F36394639363044362D344446342D343946362D394244322D3234314243333846323333332F6F626A656374732E786D6CAD575B6FA33814FE2B887D06429276DA1565D4266D158D3A339A6846FB502932E050B66023DB74D2FDF5FB190C01
310
9276B2973C046C8ECFF53B17071F77456EBD502133CEAE6CDF9DD81665314F32965ED995DA3A17B6F5310C04E7AA47665B8C14F4CAD6DB7618A48257A5D94AE89654B91AEDDEDDFC61C998326A5B714EA4BCB265FC440BE2924AF184CA6737218AB8E976E7FA6E4338649B0A523E8D98964450A6A029F619B8588D52FE7039
310
B1BD30F0F4F730D0FF866AF6369557DB33949F31A9088B0F848DD8CCFCF9F2767A76E99CCDE733677E3EF59D9BBB9BA5E37F984D16E78BC5E5F5ED25044B25C0C96822E8D60EEFE11B91C581D77CEA34368A1F5329E68CD1B8B61F16D63A1B8E092D294B10C78C4A48EB593D192E7DED9BDEE7995E1B91FDEDD3ACEA9FE831
310
6A756F9F7D4D79F4274C90A7A04248AA51D5F8C718DAE06FB2F75AC4796EBE65D22A88A22223B995679120E2D50E41AA49C260C046A35368846B0BECD0DFF3EBEB8AD4F835768F69B9ADF25C43D30E6B646F807FAA64AD59F61715C7A54127C4AACA98BA3006A9D792DAE165E0D59B61A01FB3A9F9D838D2DAE62445C86166
310
F37564E842E7DE6A69879FEEA2DD5AE7E371E1A5E025154AC307D06A03D73EB5978C58FFA4C8E9033066E0F3BD53BEC1F39F91BE7B55103791EDE6BBB991A2046172CB4581D8B893FA674DDA17A77B3B7C413D1B511FD2743BFF8A38F03A658705E3ADF8015C3A3417FF3D7E439FF591DA0B5F18BC20C1B8981957AE6392A3
310
F43C640C01D1A0B4728E2DD4F26DB4B3C3152A252A3B4E913CEC1C72F012782FF88EFF8637AA552DBEF76408E8A8DE9E50F9E1CB3A2DA0DB1B6039A893B56063DC5B3E3FFB5F72E67AB9FEB4AEC496C4F4C1149625DD662C53E89D7BF0F6151A046260D1337DFDC94502430F83B0EE07A130A224BCAD7DAE1D9FB6CD422FF6
310
920702629C4BB9AE79C12F243C6432A6794E18E5552BA56B431AAB5D91317302B2B071E86C3A42B1A02F999E24061403B5D0EB639195DA655DD3EBEAB4FB862DDF579F014AD0E73C22F99E28DA57FB98E75C6CA2D74D53086D600F4786E0FE3144B771A8A7B900F03594DB8A633CBC49B2EDB69228BB479CF863B5E807AAAB
310
23872F6DFEB4129B949CA33823F58830E86D65621E10047D9DB34D862E8EAC3C2ABC2F7B2C40D67CDFE01F5545B92105AF983AC54D93D69E56FB8E797F88913F898A9FEC705D3F9D1B54EC8426FB500D40A03BD0119B06E1B95DDC7EB8F6975367793EBD70E66733DFB9BC982F9CE564727731999F5D4ECFCE3B8D6A4DC2A0
310
6D50FD148437D110834A64C6CDDF57FBACB5C307A2A477DFE4939736CFEF2B175371E0E10CF0DD1D5C15654E0BCA14D1E87DD02FF93782A162C0A3D95F1524A52770F972BF1EE9809D13CE7DD599467F8ECE9ADD85CE85A34CD45355448C64F9E8A031DC2D596ACC6E5DD93D9B82DE2EF5CAF81363A8E47996A0DE24564A79
310
4115AACE09C55E14540231FDA13C319787134EBF34E3A022514E5B4D9E0826E25C02D5805B15ABE1BEF51B26383D445DD9E875EE33FE4C22DA16427D65A3BCA92CA6D28DD01DF5DC53330704308475351050232CCD31583787BA75774AFB06E5070DD0C8EF484E19968C5D83BA5B90B244D31E54D55A372320FE4786B7EA58
310
44E135AA5467CB7EA333A61683CC6A8C3257034C10CF46F40EF9F5BE59BE5BD30C3C72D235E95D10345C1D45445A5F0BB47E46A5EBE5570F9380B5FA629579952296A773720405982B9DE04011506178964401AA8BDF1FBF0A8EAB6861DD6580C0E38217056766716DAEB2D6FA0917D3E4116581EADB879C4E7CFFB11EFACD
310
3D641311495D92C8676CB409A72D18610D803CE8A626049E8EC1887CB5B44CC39883690DDA8399B4B9855B481E7D71D4A9D22F96E5BB73BF5793020C02137BF837504B0304140006080000CC70623B000000000000000000000000350000006662782F36394639363044362D344446342D343946362D394244322D32343142
310
43333846323333332F76657274696365732E62696E504B0304140006080800CC70623BF270F1330600000004000000360000006662782F36394639363044362D344446342D343946362D394244322D3234314243333846323333332F747269616E676C65732E62696E636660600000504B0304140006080000CC70623B0000
310
00000000000000000000370000006662782F36394639363044362D344446342D343946362D394244322D3234314243333846323333332F617474726962757465732E62696E504B0304140006080800CC70623B08DA0BD19000000041010000360000006662782F36394639363044362D344446342D343946362D394244322D
310
3234314243333846323333332F6469726563746F72792E786D6C858F410AC3201045AF22B36F53E9A60B35CBEEBAE80D244E44489C6234F4F835464A48035D0DF398FF9F8AF63D0E6CC63039F212F8F9020C7D47C6792B21C5FE7403D62A1188E2E60C98D7234A5830286103A55745067B9D86B8A3CF9C7F90C11DE607FB14
310
4396D7B6A82D282E9A152AD114D5EF2CB866EEE831B8EEA07A7BB5A8D7D61A2BAAEB7FD5F70921FF497D00504B0304140006080800CC70623BCA768048FE000000A00100003B0000006662782F36394639363044362D344446342D343946362D394244322D3234314243333846323333332F7265736F75726365732F636F72
310
652E786D6C8D50596E833010BD0A9ADFCA60D600328E9AA639412F609909B1126CE4A5EAF16B0295DABFFECC8CDEA2797AECF8353F924FB44E193D409E5248504B332A3D0D10FC95B4901C39B3C6F85F3248B49871801506CE266BC2B243D2688FDA47549B11775038871E12F988C7004EDE7016A9083E2ADC3D5D84BC8B09
310
D33C8D74D471E6BC8D0192EDC93A815B742658898E651BCB59086ADC356A8C3FD555A1055ED7E7E254D615792D0F075295F585746FF53B694EE78A565DD736979A65AB9933AFE69F8CD2A2F038022F28ED489E135A7CE4554F9BBEA85E68DB53CAB255FEC71496F19FA6A0B42F8B3DEE6673C0F318E4497096AD7DC5F52C33
310
EEB55BFE0D504B010214000A0000080000CC70623B3DEE336E79000000790000001B00000000000000000000000000000000006175746F6465736B2D64657369676E2D7061636B6167652E786D6C504B01021400140006080800CC70623BD486FD9CA0000000F40000001300000000000000000000000000B20000005B436F
310
6E74656E745F54797065735D2E786D6C504B01021400140006080800CC70623BD9DDAED0EC0000007C010000080000000000000000000000000083010000636F72652E786D6C504B01021400140006080800CC70623B55019EA25F0000007C000000070000000000000000000000000095020000636E782E786D6C504B0102
310
1400140006080800CC70623BA24EB22D72010000D40300000C00000000000000000000000000190300006662782F636F72652E786D6C504B01021400140006080800CC70623B408A7D3B7C0000009D0000000B00000000000000000000000000B50400006662782F636E782E786D6C504B01021400140006080800CC70623B
310
449FB9BD290100001202000031000000000000000000000000005A0500006662782F36394639363044362D344446342D343946362D394244322D3234314243333846323333332F636F72652E786D6C504B01021400140006080800CC70623BAD7543B64E010000330300003000000000000000000000000000D20600006662
310
782F36394639363044362D344446342D343946362D394244322D3234314243333846323333332F636E782E786D6C504B01021400140006080800CC70623B8D05915C650500003B10000034000000000000000000000000006E0800006662782F36394639363044362D344446342D343946362D394244322D32343142433338
310
46323333332F6F626A656374732E786D6C504B01021400140006080000CC70623B0000000000000000000000003500000000000000000000000000250E00006662782F36394639363044362D344446342D343946362D394244322D3234314243333846323333332F76657274696365732E62696E504B010214001400060808
310
00CC70623BF270F13306000000040000003600000000000000000000000000780E00006662782F36394639363044362D344446342D343946362D394244322D3234314243333846323333332F747269616E676C65732E62696E504B01021400140006080000CC70623B00000000000000000000000037000000000000000000
310
00000000D20E00006662782F36394639363044362D344446342D343946362D394244322D3234314243333846323333332F617474726962757465732E62696E504B01021400140006080800CC70623B08DA0BD190000000410100003600000000000000000000000000270F00006662782F36394639363044362D344446342D
310
343946362D394244322D3234314243333846323333332F6469726563746F72792E786D6C504B01021400140006080800CC70623BCA768048FE000000A00100003B000000000000000000000000000B1000006662782F36394639363044362D344446342D343946362D394244322D3234314243333846323333332F7265736F
310
75726365732F636F72652E786D6C504B0506000000000E000E0080040000621100000000
  0
XRECORD
  5
176
102
{ACAD_REACTORS
330
173
102
}
330
173
100
AcDbXrecord
280
     1
270
     1
271
     1
  0
XRECORD
  5
177
102
{ACAD_REACTORS
330
173
102
}
330
173
100
AcDbXrecord
280
     1
270
     1
271
     1
  0
CELLSTYLEMAP
  5
80B
102
{ACAD_REACTORS
330
162
102
}
330
162
100
AcDbCellStyleMap
 90
        3
300
CELLSTYLE
  1
TABLEFORMAT_BEGIN
 90
        5
170
     1
 91
        0
 92
    32768
 62
   257
 93
        1
300
CONTENTFORMAT
  1
CONTENTFORMAT_BEGIN
 90
        0
 91
        0
 92
      512
 93
        0
300

 40
0.0
140
1.0
 94
        5
 62
     0
340
11
144
6.0
309
CONTENTFORMAT_END
171
     1
301
MARGIN
  1
CELLMARGIN_BEGIN
 40
1.5
 40
1.5
 40
1.5
 40
1.5
 40
4.5
 40
4.5
309
CELLMARGIN_END
 94
        6
 95
        1
302
GRIDFORMAT
  1
GRIDFORMAT_BEGIN
 90
        0
 91
        1
 62
     0
 92
       -2
340
14
 93
        0
 40
1.125
309
GRIDFORMAT_END
 95
        2
302
GRIDFORMAT
  1
GRIDFORMAT_BEGIN
 90
        0
 91
        1
 62
     0
 92
       -2
340
14
 93
        0
 40
1.125
309
GRIDFORMAT_END
 95
        4
302
GRIDFORMAT
  1
GRIDFORMAT_BEGIN
 90
        0
 91
        1
 62
     0
 92
       -2
340
14
 93
        0
 40
1.125
309
GRIDFORMAT_END
 95
        8
302
GRIDFORMAT
  1
GRIDFORMAT_BEGIN
 90
        0
 91
        1
 62
     0
 92
       -2
340
14
 93
        0
 40
1.125
309
GRIDFORMAT_END
 95
       16
302
GRIDFORMAT
  1
GRIDFORMAT_BEGIN
 90
        0
 91
        1
 62
     0
 92
       -2
340
14
 93
        0
 40
1.125
309
GRIDFORMAT_END
 95
       32
302
GRIDFORMAT
  1
GRIDFORMAT_BEGIN
 90
        0
 91
        1
 62
     0
 92
       -2
340
14
 93
        0
 40
1.125
309
GRIDFORMAT_END
309
TABLEFORMAT_END
  1
CELLSTYLE_BEGIN
 90
        1
 91
        1
300
_TITLE
309
CELLSTYLE_END
300
CELLSTYLE
  1
TABLEFORMAT_BEGIN
 90
        5
170
     1
 91
        0
 92
        0
 62
   257
 93
        1
300
CONTENTFORMAT
  1
CONTENTFORMAT_BEGIN
 90
        0
 91
        0
 92
      512
 93
        0
300

 40
0.0
140
1.0
 94
        5
 62
     0
340
11
144
4.5
309
CONTENTFORMAT_END
171
     1
301
MARGIN
  1
CELLMARGIN_BEGIN
 40
1.5
 40
1.5
 40
1.5
 40
1.5
 40
4.5
 40
4.5
309
CELLMARGIN_END
 94
        6
 95
        1
302
GRIDFORMAT
  1
GRIDFORMAT_BEGIN
 90
        0
 91
        1
 62
     0
 92
       -2
340
14
 93
        0
 40
1.125
309
GRIDFORMAT_END
 95
        2
302
GRIDFORMAT
  1
GRIDFORMAT_BEGIN
 90
        0
 91
        1
 62
     0
 92
       -2
340
14
 93
        0
 40
1.125
309
GRIDFORMAT_END
 95
        4
302
GRIDFORMAT
  1
GRIDFORMAT_BEGIN
 90
        0
 91
        1
 62
     0
 92
       -2
340
14
 93
        0
 40
1.125
309
GRIDFORMAT_END
 95
        8
302
GRIDFORMAT
  1
GRIDFORMAT_BEGIN
 90
        0
 91
        1
 62
     0
 92
       -2
340
14
 93
        0
 40
1.125
309
GRIDFORMAT_END
 95
       16
302
GRIDFORMAT
  1
GRIDFORMAT_BEGIN
 90
        0
 91
        1
 62
     0
 92
       -2
340
14
 93
        0
 40
1.125
309
GRIDFORMAT_END
 95
       32
302
GRIDFORMAT
  1
GRIDFORMAT_BEGIN
 90
        0
 91
        1
 62
     0
 92
       -2
340
14
 93
        0
 40
1.125
309
GRIDFORMAT_END
309
TABLEFORMAT_END
  1
CELLSTYLE_BEGIN
 90
        2
 91
        1
300
_HEADER
309
CELLSTYLE_END
300
CELLSTYLE
  1
TABLEFORMAT_BEGIN
 90
        5
170
     1
 91
        0
 92
        0
 62
   257
 93
        1
300
CONTENTFORMAT
  1
CONTENTFORMAT_BEGIN
 90
        0
 91
        0
 92
      512
 93
        0
300

 40
0.0
140
1.0
 94
        2
 62
     0
340
11
144
4.5
309
CONTENTFORMAT_END
171
     1
301
MARGIN
  1
CELLMARGIN_BEGIN
 40
1.5
 40
1.5
 40
1.5
 40
1.5
 40
4.5
 40
4.5
309
CELLMARGIN_END
 94
        6
 95
        1
302
GRIDFORMAT
  1
GRIDFORMAT_BEGIN
 90
        0
 91
        1
 62
     0
 92
       -2
340
14
 93
        0
 40
1.125
309
GRIDFORMAT_END
 95
        2
302
GRIDFORMAT
  1
GRIDFORMAT_BEGIN
 90
        0
 91
        1
 62
     0
 92
       -2
340
14
 93
        0
 40
1.125
309
GRIDFORMAT_END
 95
        4
302
GRIDFORMAT
  1
GRIDFORMAT_BEGIN
 90
        0
 91
        1
 62
     0
 92
       -2
340
14
 93
        0
 40
1.125
309
GRIDFORMAT_END
 95
        8
302
GRIDFORMAT
  1
GRIDFORMAT_BEGIN
 90
        0
 91
        1
 62
     0
 92
       -2
340
14
 93
        0
 40
1.125
309
GRIDFORMAT_END
 95
       16
302
GRIDFORMAT
  1
GRIDFORMAT_BEGIN
 90
        0
 91
        1
 62
     0
 92
       -2
340
14
 93
        0
 40
1.125
309
GRIDFORMAT_END
 95
       32
302
GRIDFORMAT
  1
GRIDFORMAT_BEGIN
 90
        0
 91
        1
 62
     0
 92
       -2
340
14
 93
        0
 40
1.125
309
GRIDFORMAT_END
309
TABLEFORMAT_END
  1
CELLSTYLE_BEGIN
 90
        3
 91
        2
300
_DATA
309
CELLSTYLE_END
  0
ENDSEC
  0
SECTION
  2
ACDSDATA
 70
     2
 71
     8
  0
ACDSSCHEMA
 90
        0
  1
AcDb_Thumbnail_Schema
  2
AcDbDs::ID
280
    10
 91
        8
  2
Thumbnail_Data
280
    15
 91
        0
101
ACDSRECORD
 95
        0
 90
        1
  2
AcDbDs::TreatedAsObjectData
280
     1
291
     1
101
ACDSRECORD
 95
        0
 90
        2
  2
AcDbDs::Legacy
280
     1
291
     1
101
ACDSRECORD
  1
AcDbDs::ID
 90
        3
  2
AcDs:Indexable
280
     1
291
     1
101
ACDSRECORD
  1
AcDbDs::ID
 90
        4
  2
AcDbDs::HandleAttribute
280
     7
282
     1
  0
ACDSSCHEMA
 90
        1
  1
AcDbDs::TreatedAsObjectDataSchema
  2
AcDbDs::TreatedAsObjectData
280
     1
 91
        0
  0
ACDSSCHEMA
 90
        2
  1
AcDbDs::LegacySchema
  2
AcDbDs::Legacy
280
     1
 91
        0
  0
ACDSSCHEMA
 90
        3
  1
AcDbDs::IndexedPropertySchema
  2
AcDs:Indexable
280
     1
 91
        0
  0
ACDSSCHEMA
 90
        4
  1
AcDbDs::HandleAttributeSchema
  2
AcDbDs::HandleAttribute
280
     7
 91
        1
284
     1
  0
ACDSRECORD
 90
        0
  2
AcDbDs::ID
280
    10
320
22
  2
Thumbnail_Data
280
    15
 94
     2127
310
89504E470D0A1A0A0000000D49484452000000CC000001000803000000C8A169BB00000300504C5445212830FFFFFF2128300000000000000000000000000000000000000000000000000000330000660000990000CC0000FF0033000033330033660033990033CC0033FF0066000066330066660066990066CC0066FF0099
310
000099330099660099990099CC0099FF00CC0000CC3300CC6600CC9900CCCC00CCFF00FF0000FF3300FF6600FF9900FFCC00FFFF3300003300333300663300993300CC3300FF3333003333333333663333993333CC3333FF3366003366333366663366993366CC3366FF3399003399333399663399993399CC3399FF33CC00
310
33CC3333CC6633CC9933CCCC33CCFF33FF0033FF3333FF6633FF9933FFCC33FFFF6600006600336600666600996600CC6600FF6633006633336633666633996633CC6633FF6666006666336666666666996666CC6666FF6699006699336699666699996699CC6699FF66CC0066CC3366CC6666CC9966CCCC66CCFF66FF0066
310
FF3366FF6666FF9966FFCC66FFFF9900009900339900669900999900CC9900FF9933009933339933669933999933CC9933FF9966009966339966669966999966CC9966FF9999009999339999669999999999CC9999FF99CC0099CC3399CC6699CC9999CCCC99CCFF99FF0099FF3399FF6699FF9999FFCC99FFFFCC0000CC00
310
33CC0066CC0099CC00CCCC00FFCC3300CC3333CC3366CC3399CC33CCCC33FFCC6600CC6633CC6666CC6699CC66CCCC66FFCC9900CC9933CC9966CC9999CC99CCCC99FFCCCC00CCCC33CCCC66CCCC99CCCCCCCCCCFFCCFF00CCFF33CCFF66CCFF99CCFFCCCCFFFFFF0000FF0033FF0066FF0099FF00CCFF00FFFF3300FF3333
310
FF3366FF3399FF33CCFF33FFFF6600FF6633FF6666FF6699FF66CCFF66FFFF9900FF9933FF9966FF9999FF99CCFF99FFFFCC00FFCC33FFCC66FFCC99FFCCCCFFCCFFFFFF00FFFF33FFFF66FFFF99FFFFCCFFFFFF0000000D0D0D1A1A1A2828283535354343435050505D5D5D6B6B6B787878868686939393A1A1A1AEAEAEBB
310
BBBBC9C9C9D6D6D6E4E4E4F1F1F1FFFFFF0000000000000000000000000000000000000000000000000000000000002E4550F10000050A4944415478DAED9CDB8183201045A785ED62FA2F607E6C638BD90846017907E3E0DEF3934DD6D77160041588000000000000000000000000000000C03F412C90B9EFA03B650432DF
310
294EEDCC1499ABD6830C64AE5D6FB91CE95F4F5F52F82432CBB22544F7E3CEE07446C69E8476198D91F1652AB7644EC28598C8F4C9ACEB35CAD015327B5D5D9884176AAFBA6B646E94790B78996731DF97F54B5D323A56DC649C24F64D996D6FAE8CD8ECBA6CDFA57E2B4A64DC96E55ACC88788D0FCD2D63EB3F6FE19957C6
310
4F97F289CC4D0920B537818C2723FF54A6869F906833CCC241CB2CD33AE3648B2ED25CAE91A93AEF3F85EFCCC7C9DBFEB6BFBF42C2E9CD72B211C77D911923E3ECD593C9BBB05B1AC30277B3CC1619FFF78C4C2632F6C89AB3196420338FCC9142DB6562772BE69321F532EE9E1F2123CF880CAFD4C9D84587CA700D3F85EF
310
BBCCD614E0BC8C1C977FD62BB3A768CECBC8F1332B2C66E1E586F3C54CE2D72845322CE1B53325C3671B6532E6085F454E8EDA9090311585F704C01A65D6AAC0AF8FE3103332C686F64595D5193615DF4486B92C63973BBC95C9ACD96C73A992B14B9A24784E67F747E638C42A1916A744122994B155A1A2CE30EFC9429F8C
310
5B13A8568625EEA2E03AB325292AA5E6C3C61CA35A190983C5C52E269346199B9D033D2E759859CA32550FCE07CBEC07C65CEA02303BBD87C8936405326E23A5D49F61F63B34EA64C23DD6F53463077BB78CBDD7DF25733EDA9B6562FBAB963975D016EF31E06432A1CDBD32D1FD49C3FB26B9C87CFB3A133D772D327EF698
310
5DC65BF656191921438A6468BCCC2D6DB3E04EB3F350754E197A8C8CBF33C868EBCF7817F3CFDEE15523337B36FB0F320D0D4DC84006329081CCBECAA0A7CD4F95719A2F8D32E71B1AB71733A731D626E336E394C8B86DCB0E19D124E3B5945B642418ADA22932CD32DE8ACAFA337D09409F0CF5CA90B63AE3EDB9FD3AA32C
310
9BB9179B8E8BA6AE04E01699AE16801DE1A5AC6D665E91939EE68CF891F9F25800891F92B935D86163EE28B6CB2C63C6CF486EEC78D79068BB66D3F8191A34B65906DF9DF1C63653659DA141A3CE7391F978D479830C698CCC7B386EA27F30A3CCD22673F51406DDC5ECCE6927BE51CCE849750632891E709D8C9C869E74CE
310
3C059907C9C8D5F4EFE2AE042024D1FD0AB2D9ED3274CD451A32CF9011E5D063107A900C3D4B06000000000000058C9BCAF8F7C5690ABCD422A54DD809F6B6C902AAFB6ACB309DDFE863C9C222E9ADC41E1D179FCF6C8FDAE2331D6F13209FCEC8796264267B5AFDEEB879A47E2CBB2EF2FE776C97EFC898E3E22E998A27B4
310
E50EDF4B86E837B8B740C11B1ACE22D12D1EFF5FBA65685431FBB5E59CF7B21E5FE45D2B36A2FFA71E99515DF17764D893C946E6FC7AA7175CBEEA8E40BD8CF819282123DB3C2813C8BC67C6A06C9D7994CC1E1AD12B13AC9191396FFC7299CABBA40D32C72CC10D32636ED69EB6B24D78E14E356FDEC49A5B467693696582
310
678EC737DB56C9CBD845D2327B73E77B91697916917A47332A13D4C22FC8E4776D0F522AA69E741FB6C76BA10299E033B9765A862E93A9BECEA4D6142ECB081D29C5BE6C1A7DCEA458C629567B749CEF57B500E4039974312B70677386933F171340F5E9912181A9223A568DBA07D05D1699BEDD73BE04EA9621A773E27454
310
2695A1585F78629986440719C80CAD460F9221EE60A6979C784C5184CC3525EF7CA99D5CE81126000000000000000000000000000000000000000000000000000000000000000000D4F107E46AC5FDEDE4D0E90000000049454E44AE426082
  0
ENDSEC
  0
EOF
