  0
SECTION
  2
HEADER
  9
$ACADVER
  1
AC1032
  9
$ACADMAINTVER
 90
      142
  9
$DWGCODEPAGE
  3
ANSI_1252
  9
$LASTSAVEDBY
  1
markpriestnal
  9
$REQUIREDVERSIONS
160
                 0
  9
$INSBASE
 10
0.0
 20
0.0
 30
0.0
  9
$EXTMIN
 10
2669.090375050089
 20
1041.857521427574
 30
-0.1148888220597928
  9
$EXTMAX
 10
3388.42144369125
 20
1904.111417814958
 30
0.6851111779402086
  9
$LIMMIN
 10
0.0
 20
0.0
  9
$LIMMAX
 10
420.0
 20
297.0
  9
$ORTHOMODE
 70
     0
  9
$REGENMODE
 70
     1
  9
$FILLMODE
 70
     1
  9
$QTEXTMODE
 70
     0
  9
$MIRRTEXT
 70
     0
  9
$LTSCALE
 40
1.0
  9
$ATTMODE
 70
     1
  9
$TEXTSIZE
 40
2.5
  9
$TRACEWID
 40
1.0
  9
$TEXTSTYLE
  7
Standard
  9
$CLAYER
  8
0
  9
$CELTYPE
  6
ByLayer
  9
$CECOLOR
 62
   256
  9
$CELTSCALE
 40
1.0
  9
$DISPSILH
 70
     0
  9
$DIMSCALE
 40
1.0
  9
$DIMASZ
 40
2.5
  9
$DIMEXO
 40
0.625
  9
$DIMDLI
 40
3.75
  9
$DIMRND
 40
0.0
  9
$DIMDLE
 40
0.0
  9
$DIMEXE
 40
1.25
  9
$DIMTP
 40
0.0
  9
$DIMTM
 40
0.0
  9
$DIMTXT
 40
2.5
  9
$DIMCEN
 40
2.5
  9
$DIMTSZ
 40
0.0
  9
$DIMTOL
 70
     0
  9
$DIMLIM
 70
     0
  9
$DIMTIH
 70
     0
  9
$DIMTOH
 70
     0
  9
$DIMSE1
 70
     0
  9
$DIMSE2
 70
     0
  9
$DIMTAD
 70
     1
  9
$DIMZIN
 70
     8
  9
$DIMBLK
  1

  9
$DIMASO
 70
     1
  9
$DIMSHO
 70
     1
  9
$DIMPOST
  1

  9
$DIMAPOST
  1

  9
$DIMALT
 70
     0
  9
$DIMALTD
 70
     3
  9
$DIMALTF
 40
0.03937007874016
  9
$DIMLFAC
 40
1.0
  9
$DIMTOFL
 70
     1
  9
$DIMTVP
 40
0.0
  9
$DIMTIX
 70
     0
  9
$DIMSOXD
 70
     0
  9
$DIMSAH
 70
     0
  9
$DIMBLK1
  1

  9
$DIMBLK2
  1

  9
$DIMSTYLE
  2
ISO-25
  9
$DIMCLRD
 70
     0
  9
$DIMCLRE
 70
     0
  9
$DIMCLRT
 70
     0
  9
$DIMTFAC
 40
1.0
  9
$DIMGAP
 40
0.625
  9
$DIMJUST
 70
     0
  9
$DIMSD1
 70
     0
  9
$DIMSD2
 70
     0
  9
$DIMTOLJ
 70
     0
  9
$DIMTZIN
 70
     8
  9
$DIMALTZ
 70
     0
  9
$DIMALTTZ
 70
     0
  9
$DIMUPT
 70
     0
  9
$DIMDEC
 70
     2
  9
$DIMTDEC
 70
     2
  9
$DIMALTU
 70
     2
  9
$DIMALTTD
 70
     3
  9
$DIMTXSTY
  7
Standard
  9
$DIMAUNIT
 70
     0
  9
$DIMADEC
 70
     0
  9
$DIMALTRND
 40
0.0
  9
$DIMAZIN
 70
     0
  9
$DIMDSEP
 70
    44
  9
$DIMATFIT
 70
     3
  9
$DIMFRAC
 70
     0
  9
$DIMLDRBLK
  1

  9
$DIMLUNIT
 70
     2
  9
$DIMLWD
 70
    -2
  9
$DIMLWE
 70
    -2
  9
$DIMTMOVE
 70
     0
  9
$DIMFXL
 40
1.0
  9
$DIMFXLON
 70
     0
  9
$DIMJOGANG
 40
0.7853981633974483
  9
$DIMTFILL
 70
     0
  9
$DIMTFILLCLR
 70
     0
  9
$DIMARCSYM
 70
     0
  9
$DIMLTYPE
  6

  9
$DIMLTEX1
  6

  9
$DIMLTEX2
  6

  9
$DIMTXTDIRECTION
 70
     0
  9
$LUNITS
 70
     2
  9
$LUPREC
 70
     4
  9
$SKETCHINC
 40
1.0
  9
$FILLETRAD
 40
0.0
  9
$AUNITS
 70
     0
  9
$AUPREC
 70
     0
  9
$MENU
  1
.
  9
$ELEVATION
 40
0.0
  9
$PELEVATION
 40
0.0
  9
$THICKNESS
 40
0.0
  9
$LIMCHECK
 70
     0
  9
$CHAMFERA
 40
0.0
  9
$CHAMFERB
 40
0.0
  9
$CHAMFERC
 40
0.0
  9
$CHAMFERD
 40
0.0
  9
$SKPOLY
 70
     0
  9
$TDCREATE
 40
2458645.357719908
  9
$TDUCREATE
 40
2458645.274392743
  9
$TDUPDATE
 40
2459653.622025463
  9
$TDUUPDATE
 40
2459653.580358796
  9
$TDINDWG
 40
0.0003561806
  9
$TDUSRTIMER
 40
0.0003561574
  9
$USRTIMER
 70
     1
  9
$ANGBASE
 50
0.0
  9
$ANGDIR
 70
     0
  9
$PDMODE
 70
     0
  9
$PDSIZE
 40
0.0
  9
$PLINEWID
 40
0.0
  9
$SPLFRAME
 70
     0
  9
$SPLINETYPE
 70
     6
  9
$SPLINESEGS
 70
     8
  9
$HANDSEED
  5
5E3
  9
$SURFTAB1
 70
     6
  9
$SURFTAB2
 70
     6
  9
$SURFTYPE
 70
     6
  9
$SURFU
 70
     6
  9
$SURFV
 70
     6
  9
$UCSBASE
  2

  9
$UCSNAME
  2

  9
$UCSORG
 10
0.0
 20
0.0
 30
0.0
  9
$UCSXDIR
 10
1.0
 20
0.0
 30
0.0
  9
$UCSYDIR
 10
0.0
 20
1.0
 30
0.0
  9
$UCSORTHOREF
  2

  9
$UCSORTHOVIEW
 70
     0
  9
$UCSORGTOP
 10
0.0
 20
0.0
 30
0.0
  9
$UCSORGBOTTOM
 10
0.0
 20
0.0
 30
0.0
  9
$UCSORGLEFT
 10
0.0
 20
0.0
 30
0.0
  9
$UCSORGRIGHT
 10
0.0
 20
0.0
 30
0.0
  9
$UCSORGFRONT
 10
0.0
 20
0.0
 30
0.0
  9
$UCSORGBACK
 10
0.0
 20
0.0
 30
0.0
  9
$PUCSBASE
  2

  9
$PUCSNAME
  2

  9
$PUCSORG
 10
0.0
 20
0.0
 30
0.0
  9
$PUCSXDIR
 10
1.0
 20
0.0
 30
0.0
  9
$PUCSYDIR
 10
0.0
 20
1.0
 30
0.0
  9
$PUCSORTHOREF
  2

  9
$PUCSORTHOVIEW
 70
     0
  9
$PUCSORGTOP
 10
0.0
 20
0.0
 30
0.0
  9
$PUCSORGBOTTOM
 10
0.0
 20
0.0
 30
0.0
  9
$PUCSORGLEFT
 10
0.0
 20
0.0
 30
0.0
  9
$PUCSORGRIGHT
 10
0.0
 20
0.0
 30
0.0
  9
$PUCSORGFRONT
 10
0.0
 20
0.0
 30
0.0
  9
$PUCSORGBACK
 10
0.0
 20
0.0
 30
0.0
  9
$USERI1
 70
     0
  9
$USERI2
 70
     0
  9
$USERI3
 70
     0
  9
$USERI4
 70
     0
  9
$USERI5
 70
     0
  9
$USERR1
 40
0.0
  9
$USERR2
 40
0.0
  9
$USERR3
 40
0.0
  9
$USERR4
 40
0.0
  9
$USERR5
 40
0.0
  9
$WORLDVIEW
 70
     1
  9
$SHADEDGE
 70
     3
  9
$SHADEDIF
 70
    70
  9
$TILEMODE
 70
     1
  9
$MAXACTVP
 70
    64
  9
$PINSBASE
 10
0.0
 20
0.0
 30
0.0
  9
$PLIMCHECK
 70
     0
  9
$PEXTMIN
 10
0.0
 20
0.0
 30
0.0
  9
$PEXTMAX
 10
0.0
 20
0.0
 30
0.0
  9
$PLIMMIN
 10
0.0
 20
0.0
  9
$PLIMMAX
 10
12.0
 20
9.0
  9
$UNITMODE
 70
     0
  9
$VISRETAIN
 70
     1
  9
$PLINEGEN
 70
     0
  9
$PSLTSCALE
 70
     1
  9
$TREEDEPTH
 70
  3020
  9
$CMLSTYLE
  2
Standard
  9
$CMLJUST
 70
     0
  9
$CMLSCALE
 40
20.0
  9
$PROXYGRAPHICS
 70
     1
  9
$MEASUREMENT
 70
     1
  9
$CELWEIGHT
370
    -1
  9
$ENDCAPS
280
     0
  9
$JOINSTYLE
280
     0
  9
$LWDISPLAY
290
     0
  9
$INSUNITS
 70
     4
  9
$HYPERLINKBASE
  1

  9
$STYLESHEET
  1

  9
$XEDIT
290
     1
  9
$CEPSNTYPE
380
     0
  9
$PSTYLEMODE
290
     1
  9
$FINGERPRINTGUID
  2
{591B17EA-B1A0-470F-BE93-BB8D69E06DD6}
  9
$VERSIONGUID
  2
{FE7B7C83-CBE2-4702-B28E-CF778119160A}
  9
$EXTNAMES
290
     1
  9
$PSVPSCALE
 40
0.0
  9
$OLESTARTUP
290
     0
  9
$SORTENTS
280
   127
  9
$INDEXCTL
280
     0
  9
$HIDETEXT
280
     1
  9
$XCLIPFRAME
280
     2
  9
$HALOGAP
280
     0
  9
$OBSCOLOR
 70
   257
  9
$OBSLTYPE
280
     0
  9
$INTERSECTIONDISPLAY
280
     0
  9
$INTERSECTIONCOLOR
 70
   257
  9
$DIMASSOC
280
     2
  9
$PROJECTNAME
  1

  9
$CAMERADISPLAY
290
     0
  9
$LENSLENGTH
 40
50.0
  9
$CAMERAHEIGHT
 40
0.0
  9
$STEPSPERSEC
 40
2.0
  9
$STEPSIZE
 40
6.0
  9
$3DDWFPREC
 40
2.0
  9
$PSOLWIDTH
 40
5.0
  9
$PSOLHEIGHT
 40
80.0
  9
$LOFTANG1
 40
1.570796326794896
  9
$LOFTANG2
 40
1.570796326794896
  9
$LOFTMAG1
 40
0.0
  9
$LOFTMAG2
 40
0.0
  9
$LOFTPARAM
 70
     7
  9
$LOFTNORMALS
280
     1
  9
$LATITUDE
 40
37.795
  9
$LONGITUDE
 40
-122.394
  9
$NORTHDIRECTION
 40
0.0
  9
$TIMEZONE
 70
 -8000
  9
$LIGHTGLYPHDISPLAY
280
     1
  9
$TILEMODELIGHTSYNCH
280
     1
  9
$CMATERIAL
347
EC
  9
$SOLIDHIST
280
     0
  9
$SHOWHIST
280
     1
  9
$DWFFRAME
280
     2
  9
$DGNFRAME
280
     0
  9
$REALWORLDSCALE
290
     1
  9
$INTERFERECOLOR
 62
     1
  9
$INTERFEREOBJVS
345
F9
  9
$INTERFEREVPVS
346
F6
  9
$CSHADOW
280
     0
  9
$SHADOWPLANELOCATION
 40
0.0
  0
ENDSEC
  0
SECTION
  2
CLASSES
  0
CLASS
  1
ACDBDICTIONARYWDFLT
  2
AcDbDictionaryWithDefault
  3
ObjectDBX Classes
 90
        0
 91
        1
280
     0
281
     0
  0
CLASS
  1
DICTIONARYVAR
  2
AcDbDictionaryVar
  3
ObjectDBX Classes
 90
        0
 91
       16
280
     0
281
     0
  0
CLASS
  1
TABLESTYLE
  2
AcDbTableStyle
  3
ObjectDBX Classes
 90
     4095
 91
        1
280
     0
281
     0
  0
CLASS
  1
MATERIAL
  2
AcDbMaterial
  3
ObjectDBX Classes
 90
     1153
 91
        3
280
     0
281
     0
  0
CLASS
  1
VISUALSTYLE
  2
AcDbVisualStyle
  3
ObjectDBX Classes
 90
     4095
 91
       25
280
     0
281
     0
  0
CLASS
  1
SCALE
  2
AcDbScale
  3
ObjectDBX Classes
 90
     1153
 91
       17
280
     0
281
     0
  0
CLASS
  1
MLEADERSTYLE
  2
AcDbMLeaderStyle
  3
ACDB_MLEADERSTYLE_CLASS
 90
     4095
 91
        2
280
     0
281
     0
  0
CLASS
  1
CELLSTYLEMAP
  2
AcDbCellStyleMap
  3
ObjectDBX Classes
 90
     1152
 91
        2
280
     0
281
     0
  0
CLASS
  1
EXACXREFPANELOBJECT
  2
ExAcXREFPanelObject
  3
EXAC_ESW
 90
     1025
 91
        0
280
     0
281
     0
  0
CLASS
  1
NPOCOLLECTION
  2
AcDbImpNonPersistentObjectsCollection
  3
ObjectDBX Classes
 90
     1153
 91
        0
280
     0
281
     0
  0
CLASS
  1
LAYER_INDEX
  2
AcDbLayerIndex
  3
ObjectDBX Classes
 90
        0
 91
        0
280
     0
281
     0
  0
CLASS
  1
SPATIAL_INDEX
  2
AcDbSpatialIndex
  3
ObjectDBX Classes
 90
        0
 91
        0
280
     0
281
     0
  0
CLASS
  1
IDBUFFER
  2
AcDbIdBuffer
  3
ObjectDBX Classes
 90
        0
 91
        0
280
     0
281
     0
  0
CLASS
  1
ACDBSECTIONVIEWSTYLE
  2
AcDbSectionViewStyle
  3
ObjectDBX Classes
 90
     1025
 91
        1
280
     0
281
     0
  0
CLASS
  1
ACDBDETAILVIEWSTYLE
  2
AcDbDetailViewStyle
  3
ObjectDBX Classes
 90
     1025
 91
        1
280
     0
281
     0
  0
CLASS
  1
DIMASSOC
  2
AcDbDimAssoc
  3
"AcDbDimAssoc|Product Desc:     AcDim ARX App For Dimension|Company:          Autodesk, Inc.|WEB Address:      www.autodesk.com"
 90
        0
 91
        3
280
     0
281
     0
  0
CLASS
  1
HELIX
  2
AcDbHelix
  3
ObjectDBX Classes
 90
     4095
 91
        1
280
     0
281
     1
  0
CLASS
  1
SORTENTSTABLE
  2
AcDbSortentsTable
  3
ObjectDBX Classes
 90
        0
 91
        0
280
     0
281
     0
  0
ENDSEC
  0
SECTION
  2
TABLES
  0
TABLE
  2
VPORT
  5
8
102
{ACAD_XDICTIONARY
360
58B
102
}
330
0
100
AcDbSymbolTable
 70
     1
  0
VPORT
  5
EA
330
8
100
AcDbSymbolTableRecord
100
AcDbViewportTableRecord
  2
*Active
 70
     0
 10
0.0
 20
0.0
 11
1.0
 21
1.0
 12
3674.05280973108
 22
4038.650390113678
 13
0.0
 23
0.0
 14
10.0
 24
10.0
 15
10.0
 25
10.0
 16
0.0
 26
0.0
 36
1.0
 17
0.0
 27
0.0
 37
0.0
 40
7338.304190908312
 41
0.7984496124031008
 42
50.0
 43
0.0
 44
0.0
 50
0.0
 51
0.0
 71
     0
 72
  1000
 73
     1
 74
     3
 75
     0
 76
     0
 77
     0
 78
     0
281
     0
 65
     1
110
0.0
120
0.0
130
0.0
111
1.0
121
0.0
131
0.0
112
0.0
122
1.0
132
0.0
 79
     0
146
0.0
348
F5
 60
     3
 61
     5
292
     1
282
     1
141
0.0
142
0.0
 63
   250
421
  3355443
1001
ACAD_NAV_VCDISPLAY
1070
     3
  0
ENDTAB
  0
TABLE
  2
LTYPE
  5
5
330
0
100
AcDbSymbolTable
 70
     3
  0
LTYPE
  5
14
330
5
100
AcDbSymbolTableRecord
100
AcDbLinetypeTableRecord
  2
ByBlock
 70
     0
  3

 72
    65
 73
     0
 40
0.0
  0
LTYPE
  5
15
330
5
100
AcDbSymbolTableRecord
100
AcDbLinetypeTableRecord
  2
ByLayer
 70
     0
  3

 72
    65
 73
     0
 40
0.0
  0
LTYPE
  5
16
330
5
100
AcDbSymbolTableRecord
100
AcDbLinetypeTableRecord
  2
Continuous
 70
     0
  3
Solid line
 72
    65
 73
     0
 40
0.0
  0
LTYPE
  5
2F2
330
5
100
AcDbSymbolTableRecord
100
AcDbLinetypeTableRecord
  2
CENTER2
 70
     0
  3
Center (.5x) ___ _ ___ _ ___ _ ___ _ ___ _ ___
 72
    65
 73
     4
 40
28.575
 49
19.05
 74
     0
 49
-3.174999999999999
 74
     0
 49
3.174999999999999
 74
     0
 49
-3.174999999999999
 74
     0
  0
LTYPE
  5
2F3
330
5
100
AcDbSymbolTableRecord
100
AcDbLinetypeTableRecord
  2
HIDDEN
 70
     0
  3
- - - - - - - - - - - - - - - - - - - -
 72
    65
 73
     2
 40
0.2
 49
0.1
 74
     0
 49
-0.1
 74
     0
  0
ENDTAB
  0
TABLE
  2
LAYER
  5
2
102
{ACAD_XDICTIONARY
360
1FF
102
}
330
0
100
AcDbSymbolTable
 70
     7
  0
LAYER
  5
10
102
{ACAD_XDICTIONARY
360
13C
102
}
330
2
100
AcDbSymbolTableRecord
100
AcDbLayerTableRecord
  2
0
 70
     0
 62
     7
  6
Continuous
370
    -3
390
F
347
EE
348
0
  0
LAYER
  5
2F4
330
2
100
AcDbSymbolTableRecord
100
AcDbLayerTableRecord
  2
外框线1
 70
     0
 62
     3
  6
Continuous
370
    -3
390
F
347
EE
348
0
1001
AcAecLayerStandard
1000

1000

1001
AcadStringInfo
1000
MIFCodePage
1070
     5
  0
LAYER
  5
2F5
330
2
100
AcDbSymbolTableRecord
100
AcDbLayerTableRecord
  2
注释
 70
     0
 62
     7
  6
Continuous
370
    15
390
F
347
EE
348
0
1001
AcAecLayerStandard
1000

1000

1001
AcadStringInfo
1000
MIFCodePage
1070
     5
  0
LAYER
  5
2F6
330
2
100
AcDbSymbolTableRecord
100
AcDbLayerTableRecord
  2
Defpoints
 70
     0
 62
     7
  6
Continuous
290
     0
370
    -3
390
F
347
EE
348
0
  0
LAYER
  5
2F7
330
2
100
AcDbSymbolTableRecord
100
AcDbLayerTableRecord
  2
外框线2
 70
     0
 62
     6
  6
Continuous
370
    -3
390
F
347
EE
348
0
1001
AcAecLayerStandard
1000

1000

1001
AcadStringInfo
1000
MIFCodePage
1070
     5
  0
LAYER
  5
2F8
330
2
100
AcDbSymbolTableRecord
100
AcDbLayerTableRecord
  2
标注
 70
     0
 62
     1
  6
Continuous
370
     9
390
F
347
EE
348
0
1001
AcAecLayerStandard
1000

1000

1001
AcadStringInfo
1000
MIFCodePage
1070
     5
  0
LAYER
  5
2F9
330
2
100
AcDbSymbolTableRecord
100
AcDbLayerTableRecord
  2
外框线3
 70
     0
 62
   128
  6
CENTER2
370
    15
390
F
347
EE
348
0
1001
AcAecLayerStandard
1000

1000

1001
AcadStringInfo
1000
MIFCodePage
1070
     5
  0
ENDTAB
  0
TABLE
  2
STYLE
  5
3
330
0
100
AcDbSymbolTable
 70
     3
  0
STYLE
  5
11
330
3
100
AcDbSymbolTableRecord
100
AcDbTextStyleTableRecord
  2
Standard
 70
     0
 40
0.0
 41
1.0
 50
0.0
 71
     0
 42
2.5
  3
arial.ttf
  4

1001
ACAD
1000
Arial
1071
       34
  0
STYLE
  5
132
330
3
100
AcDbSymbolTableRecord
100
AcDbTextStyleTableRecord
  2
Annotative
 70
     0
 40
0.0
 41
1.0
 50
0.0
 71
     0
 42
2.5
  3
arial.ttf
  4

1001
AcadAnnotative
1000
AnnotativeData
1002
{
1070
     1
1070
     1
1002
}
1001
ACAD
1000
Arial
1071
       34
  0
STYLE
  5
2FA
330
3
100
AcDbSymbolTableRecord
100
AcDbTextStyleTableRecord
  2
新宋体
 70
     0
 40
0.0
 41
1.0
 50
0.0
 71
     0
 42
3.0
  3

  4

1001
ACAD
1000
NSimSun
1071
    34353
1001
AcadStringInfo
1000
MIFCodePage
1070
     5
  0
ENDTAB
  0
TABLE
  2
VIEW
  5
6
330
0
100
AcDbSymbolTable
 70
     1
  0
ENDTAB
  0
TABLE
  2
UCS
  5
7
330
0
100
AcDbSymbolTable
 70
     0
  0
ENDTAB
  0
TABLE
  2
APPID
  5
9
330
0
100
AcDbSymbolTable
 70
    12
  0
APPID
  5
12
330
9
100
AcDbSymbolTableRecord
100
AcDbRegAppTableRecord
  2
ACAD
 70
     0
  0
APPID
  5
9E
330
9
100
AcDbSymbolTableRecord
100
AcDbRegAppTableRecord
  2
ACAD_PSEXT
 70
     0
  0
APPID
  5
133
330
9
100
AcDbSymbolTableRecord
100
AcDbRegAppTableRecord
  2
AcadAnnoPO
 70
     0
  0
APPID
  5
134
330
9
100
AcDbSymbolTableRecord
100
AcDbRegAppTableRecord
  2
AcadAnnotative
 70
     0
  0
APPID
  5
135
330
9
100
AcDbSymbolTableRecord
100
AcDbRegAppTableRecord
  2
ACAD_DSTYLE_DIMJAG
 70
     0
  0
APPID
  5
136
330
9
100
AcDbSymbolTableRecord
100
AcDbRegAppTableRecord
  2
ACAD_DSTYLE_DIMTALN
 70
     0
  0
APPID
  5
165
330
9
100
AcDbSymbolTableRecord
100
AcDbRegAppTableRecord
  2
ACAD_MLEADERVER
 70
     0
  0
APPID
  5
217
330
9
100
AcDbSymbolTableRecord
100
AcDbRegAppTableRecord
  2
ACAD_NAV_VCDISPLAY
 70
     0
  0
APPID
  5
300
330
9
100
AcDbSymbolTableRecord
100
AcDbRegAppTableRecord
  2
ACAD_DSTYLE_DIMBREAK
 70
     0
  0
APPID
  5
301
330
9
100
AcDbSymbolTableRecord
100
AcDbRegAppTableRecord
  2
AcAecLayerStandard
 70
     0
  0
APPID
  5
302
330
9
100
AcDbSymbolTableRecord
100
AcDbRegAppTableRecord
  2
ACAD_DSTYLE_DIMRADIAL_EXTENSION
 70
     0
  0
APPID
  5
5D6
330
9
100
AcDbSymbolTableRecord
100
AcDbRegAppTableRecord
  2
AcadStringInfo
 70
     0
  0
ENDTAB
  0
TABLE
  2
DIMSTYLE
  5
A
330
0
100
AcDbSymbolTable
 70
     8
100
AcDbDimStyleTable
 71
     2
340
27
340
137
  0
DIMSTYLE
105
1B0
330
A
100
AcDbSymbolTableRecord
100
AcDbDimStyleTableRecord
  2
Standard
 70
     0
340
11
  0
DIMSTYLE
105
137
330
A
100
AcDbSymbolTableRecord
100
AcDbDimStyleTableRecord
  2
Annotative
 70
     0
 40
0.0
 41
2.5
 42
0.625
 43
3.75
 44
1.25
 73
     0
 74
     0
 77
     1
 78
     8
140
2.5
141
2.5
143
0.03937007874016
147
0.625
171
     3
172
     1
271
     2
272
     2
274
     3
278
    44
283
     0
284
     8
340
11
1001
AcadAnnotative
1000
AnnotativeData
1002
{
1070
     1
1070
     1
1002
}
1001
ACAD_DSTYLE_DIMJAG
1070
   388
1040
1.5
1001
ACAD_DSTYLE_DIMTALN
1070
   392
1070
     0
  0
DIMSTYLE
105
27
330
A
100
AcDbSymbolTableRecord
100
AcDbDimStyleTableRecord
  2
ISO-25
 70
     0
 41
2.5
 42
0.625
 43
3.75
 44
1.25
 73
     0
 74
     0
 77
     1
 78
     8
140
2.5
141
2.5
143
0.03937007874016
147
0.625
171
     3
172
     1
271
     2
272
     2
274
     3
278
    44
283
     0
284
     8
340
11
  0
DIMSTYLE
105
2FB
102
{ACAD_REACTORS
330
410
330
411
330
412
330
413
330
418
330
3A1
330
3A2
330
3A3
330
3A4
330
3A6
330
3A8
330
3B2
330
3BF
330
3E7
102
}
330
A
100
AcDbSymbolTableRecord
100
AcDbDimStyleTableRecord
  2
1-8-L
 70
     0
 40
8.0
 41
1.5
 42
0.625
 43
3.75
 44
1.25
 73
     0
 74
     0
 77
     1
 78
     8
140
2.299999999999998
141
2.5
143
0.03937007874016
147
0.625
171
     8
172
     1
271
     2
272
     2
273
     7
274
     8
283
     0
284
     8
340
11
1001
ACAD_DSTYLE_DIMBREAK
1070
   391
1040
3.75
1001
ACAD_DSTYLE_DIMJAG
1070
   388
1040
1.5
1001
ACAD_DSTYLE_DIMTALN
1070
   392
1070
     0
  0
DIMSTYLE
105
2FC
330
A
100
AcDbSymbolTableRecord
100
AcDbDimStyleTableRecord
  2
1-2-L
 70
     0
 40
2.0
 41
1.5
 42
0.625
 43
3.75
 44
1.25
 73
     0
 74
     0
 77
     1
 78
     8
140
2.299999999999999
141
2.5
143
0.03937007874016
147
0.625
171
     8
172
     1
271
     2
272
     2
273
     7
274
     8
283
     0
284
     8
340
11
1001
ACAD_DSTYLE_DIMBREAK
1070
   391
1040
3.75
1001
ACAD_DSTYLE_DIMJAG
1070
   388
1040
1.5
1001
ACAD_DSTYLE_DIMTALN
1070
   392
1070
     0
  0
DIMSTYLE
105
2FD
330
A
100
AcDbSymbolTableRecord
100
AcDbDimStyleTableRecord
  2
1-6-L
 70
     0
 40
6.0
 41
1.5
 42
0.625
 43
3.75
 44
1.25
 73
     0
 74
     0
 77
     1
 78
     8
140
2.299999999999999
141
2.5
143
0.03937007874016
147
0.625
171
     8
172
     1
271
     2
272
     2
273
     7
274
     8
283
     0
284
     8
340
11
1001
ACAD_DSTYLE_DIMBREAK
1070
   391
1040
3.75
1001
ACAD_DSTYLE_DIMJAG
1070
   388
1040
1.5
1001
ACAD_DSTYLE_DIMTALN
1070
   392
1070
     0
  0
DIMSTYLE
105
2FE
330
A
100
AcDbSymbolTableRecord
100
AcDbDimStyleTableRecord
  2
1-4-L
 70
     0
 40
4.0
 41
1.5
 42
0.625
 43
3.75
 44
1.25
 73
     0
 74
     0
 77
     1
 78
     8
140
2.299999999999999
141
2.5
143
0.03937007874016
147
0.625
171
     8
172
     1
271
     2
272
     2
273
     7
274
     8
283
     0
284
     8
340
11
1001
ACAD_DSTYLE_DIMBREAK
1070
   391
1040
3.75
1001
ACAD_DSTYLE_DIMJAG
1070
   388
1040
1.5
1001
ACAD_DSTYLE_DIMTALN
1070
   392
1070
     0
  0
DIMSTYLE
105
2FF
330
A
100
AcDbSymbolTableRecord
100
AcDbDimStyleTableRecord
  2
1-5-L
 70
     0
 40
5.0
 41
1.5
 42
0.625
 43
3.75
 44
1.25
 73
     0
 74
     0
 77
     1
 78
     8
140
2.299999999999999
141
2.5
143
0.03937007874016
147
0.625
171
     8
172
     1
271
     2
272
     2
273
     7
274
     8
283
     0
284
     8
340
11
1001
ACAD_DSTYLE_DIMBREAK
1070
   391
1040
3.75
1001
ACAD_DSTYLE_DIMJAG
1070
   388
1040
1.5
1001
ACAD_DSTYLE_DIMTALN
1070
   392
1070
     0
  0
ENDTAB
  0
TABLE
  2
BLOCK_RECORD
  5
1
330
0
100
AcDbSymbolTable
 70
    29
  0
BLOCK_RECORD
  5
1F
102
{ACAD_XDICTIONARY
360
1CE
102
}
330
1
100
AcDbSymbolTableRecord
100
AcDbBlockTableRecord
  2
*Model_Space
340
22
 70
     0
280
     1
281
     0
  0
BLOCK_RECORD
  5
D2
330
1
100
AcDbSymbolTableRecord
100
AcDbBlockTableRecord
  2
*Paper_Space
340
D3
 70
     0
280
     1
281
     0
  0
BLOCK_RECORD
  5
D6
330
1
100
AcDbSymbolTableRecord
100
AcDbBlockTableRecord
  2
*Paper_Space0
340
D7
 70
     0
280
     1
281
     0
  0
BLOCK_RECORD
  5
41E
330
1
100
AcDbSymbolTableRecord
100
AcDbBlockTableRecord
  2
*D15
340
0
 70
     0
280
     1
281
     0
  0
BLOCK_RECORD
  5
42C
330
1
100
AcDbSymbolTableRecord
100
AcDbBlockTableRecord
  2
*D16
340
0
 70
     0
280
     1
281
     0
  0
BLOCK_RECORD
  5
438
330
1
100
AcDbSymbolTableRecord
100
AcDbBlockTableRecord
  2
*D17
340
0
 70
     0
280
     1
281
     0
  0
BLOCK_RECORD
  5
446
330
1
100
AcDbSymbolTableRecord
100
AcDbBlockTableRecord
  2
*D18
340
0
 70
     0
280
     1
281
     0
  0
BLOCK_RECORD
  5
452
330
1
100
AcDbSymbolTableRecord
100
AcDbBlockTableRecord
  2
*D19
340
0
 70
     0
280
     1
281
     0
  0
BLOCK_RECORD
  5
45E
330
1
100
AcDbSymbolTableRecord
100
AcDbBlockTableRecord
  2
*D20
340
0
 70
     0
280
     1
281
     0
  0
BLOCK_RECORD
  5
46A
330
1
100
AcDbSymbolTableRecord
100
AcDbBlockTableRecord
  2
*D21
340
0
 70
     0
280
     1
281
     0
  0
BLOCK_RECORD
  5
476
330
1
100
AcDbSymbolTableRecord
100
AcDbBlockTableRecord
  2
*D22
340
0
 70
     0
280
     1
281
     0
  0
BLOCK_RECORD
  5
482
330
1
100
AcDbSymbolTableRecord
100
AcDbBlockTableRecord
  2
*D23
340
0
 70
     0
280
     1
281
     0
  0
BLOCK_RECORD
  5
48E
330
1
100
AcDbSymbolTableRecord
100
AcDbBlockTableRecord
  2
*D24
340
0
 70
     0
280
     1
281
     0
  0
BLOCK_RECORD
  5
497
330
1
100
AcDbSymbolTableRecord
100
AcDbBlockTableRecord
  2
*D25
340
0
 70
     0
280
     1
281
     0
  0
BLOCK_RECORD
  5
4C7
330
1
100
AcDbSymbolTableRecord
100
AcDbBlockTableRecord
  2
*D26
340
0
 70
     0
280
     1
281
     0
  0
BLOCK_RECORD
  5
4FC
330
1
100
AcDbSymbolTableRecord
100
AcDbBlockTableRecord
  2
*D27
340
0
 70
     0
280
     1
281
     0
  0
BLOCK_RECORD
  5
513
330
1
100
AcDbSymbolTableRecord
100
AcDbBlockTableRecord
  2
*D28
340
0
 70
     0
280
     1
281
     0
  0
ENDTAB
  0
ENDSEC
  0
SECTION
  2
BLOCKS
  0
BLOCK
  5
20
330
1F
100
AcDbEntity
  8
0
100
AcDbBlockBegin
  2
*Model_Space
 70
     0
 10
0.0
 20
0.0
 30
0.0
  3
*Model_Space
  1

  0
ENDBLK
  5
21
330
1F
100
AcDbEntity
  8
0
100
AcDbBlockEnd
  0
BLOCK
  5
D4
330
D2
100
AcDbEntity
 67
     1
  8
0
100
AcDbBlockBegin
  2
*Paper_Space
 70
     0
 10
0.0
 20
0.0
 30
0.0
  3
*Paper_Space
  1

  0
ENDBLK
  5
D5
330
D2
100
AcDbEntity
 67
     1
  8
0
100
AcDbBlockEnd
  0
BLOCK
  5
D8
330
D6
100
AcDbEntity
 67
     1
  8
0
100
AcDbBlockBegin
  2
*Paper_Space0
 70
     0
 10
0.0
 20
0.0
 30
0.0
  3
*Paper_Space0
  1

  0
ENDBLK
  5
D9
330
D6
100
AcDbEntity
 67
     1
  8
0
100
AcDbBlockEnd
  0
BLOCK
  5
41F
330
41E
100
AcDbEntity
  8
0
100
AcDbBlockBegin
  2
*D15
 70
     1
 10
0.0
 20
0.0
 30
0.0
  3
*D15
  1

  0
LINE
  5
49F
330
41E
100
AcDbEntity
  8
标注
 62
     0
440
 16777216
370
    -2
100
AcDbLine
 10
3003.087597215834
 20
1225.357521427567
 30
0.0
 11
2938.280798165108
 21
1225.357521427567
 31
0.0
  0
LINE
  5
4A0
330
41E
100
AcDbEntity
  8
标注
 62
     0
440
 16777216
370
    -2
100
AcDbLine
 10
3026.337597215834
 20
1255.357521427567
 30
0.0
 11
2938.280798165108
 21
1255.357521427567
 31
0.0
  0
LINE
  5
4A1
330
41E
100
AcDbEntity
  8
标注
 62
     0
440
 16777216
370
    -2
100
AcDbLine
 10
2948.280798165108
 20
1267.357521427567
 30
0.0
 11
2948.280798165108
 21
1279.357521427567
 31
0.0
  0
LINE
  5
4A2
330
41E
100
AcDbEntity
  8
标注
 62
     0
440
 16777216
370
    -2
100
AcDbLine
 10
2948.280798165108
 20
1213.357521427567
 30
0.0
 11
2948.280798165108
 21
1154.767448848075
 31
0.0
  0
LINE
  5
4A3
330
41E
100
AcDbEntity
  8
标注
 62
     0
440
 16777216
370
    -2
100
AcDbLine
 10
2948.280798165108
 20
1255.357521427567
 30
0.0
 11
2948.280798165108
 21
1225.357521427567
 31
0.0
  0
SOLID
  5
4A4
330
41E
100
AcDbEntity
  8
标注
 62
     0
440
 16777216
100
AcDbTrace
 10
2946.280798165108
 20
1267.357521427567
 30
0.0
 11
2950.280798165108
 21
1267.357521427567
 31
0.0
 12
2948.280798165108
 22
1255.357521427567
 32
0.0
 13
2948.280798165108
 23
1255.357521427567
 33
0.0
  0
SOLID
  5
4A5
330
41E
100
AcDbEntity
  8
标注
 62
     0
440
 16777216
100
AcDbTrace
 10
2946.280798165108
 20
1213.357521427567
 30
0.0
 11
2950.280798165108
 21
1213.357521427567
 31
0.0
 12
2948.280798165108
 22
1225.357521427567
 32
0.0
 13
2948.280798165108
 23
1225.357521427567
 33
0.0
  0
MTEXT
  5
4A6
330
41E
100
AcDbEntity
  8
标注
 62
     0
440
 16777216
100
AcDbMText
 10
2933.87997961122
 20
1172.90851296813
 30
0.0
 40
18.39999999999998
 41
0.0
 46
0.0
 71
     5
 72
     1
  1
30
 11
0.0000000000000001
 21
1.0
 31
0.0
 73
     1
 44
1.0
  0
POINT
  5
4A7
330
41E
100
AcDbEntity
  8
Defpoints
 62
     0
440
 16777216
100
AcDbPoint
 10
3008.087597215834
 20
1225.357521427567
 30
0.0
  0
POINT
  5
4A8
330
41E
100
AcDbEntity
  8
Defpoints
 62
     0
440
 16777216
100
AcDbPoint
 10
3031.337597215834
 20
1255.357521427567
 30
0.0
  0
POINT
  5
4A9
330
41E
100
AcDbEntity
  8
Defpoints
 62
     0
440
 16777216
100
AcDbPoint
 10
2948.280798165108
 20
1255.357521427567
 30
0.0
  0
ENDBLK
  5
420
330
41E
100
AcDbEntity
  8
0
100
AcDbBlockEnd
  0
BLOCK
  5
42D
330
42C
100
AcDbEntity
  8
0
100
AcDbBlockBegin
  2
*D16
 70
     1
 10
0.0
 20
0.0
 30
0.0
  3
*D16
  1

  0
LINE
  5
4AA
330
42C
100
AcDbEntity
  8
标注
 62
     0
440
 16777216
370
    -2
100
AcDbLine
 10
3001.087597215834
 20
1202.857521427567
 30
0.0
 11
3001.087597215834
 21
1149.669393455912
 31
0.0
  0
LINE
  5
4AB
330
42C
100
AcDbEntity
  8
标注
 62
     0
440
 16777216
370
    -2
100
AcDbLine
 10
3061.587597215834
 20
1202.857521427567
 30
0.0
 11
3061.587597215834
 21
1149.669393455912
 31
0.0
  0
LINE
  5
4AC
330
42C
100
AcDbEntity
  8
标注
 62
     0
440
 16777216
370
    -2
100
AcDbLine
 10
3013.087597215834
 20
1159.669393455912
 30
0.0
 11
3049.587597215834
 21
1159.669393455912
 31
0.0
  0
SOLID
  5
4AD
330
42C
100
AcDbEntity
  8
标注
 62
     0
440
 16777216
100
AcDbTrace
 10
3013.087597215834
 20
1161.669393455912
 30
0.0
 11
3013.087597215834
 21
1157.669393455912
 31
0.0
 12
3001.087597215834
 22
1159.669393455912
 32
0.0
 13
3001.087597215834
 23
1159.669393455912
 33
0.0
  0
SOLID
  5
4AE
330
42C
100
AcDbEntity
  8
标注
 62
     0
440
 16777216
100
AcDbTrace
 10
3049.587597215834
 20
1161.669393455912
 30
0.0
 11
3049.587597215834
 21
1157.669393455912
 31
0.0
 12
3061.587597215834
 22
1159.669393455912
 32
0.0
 13
3061.587597215834
 23
1159.669393455912
 33
0.0
  0
MTEXT
  5
4AF
330
42C
100
AcDbEntity
  8
标注
 62
     0
440
 16777216
100
AcDbMText
 10
3031.337597215834
 20
1174.063936429991
 30
0.0
 40
18.39999999999998
 41
0.0
 46
0.0
 71
     5
 72
     1
  1
60.5
 73
     1
 44
1.0
  0
POINT
  5
4B0
330
42C
100
AcDbEntity
  8
Defpoints
 62
     0
440
 16777216
100
AcDbPoint
 10
3001.087597215834
 20
1207.857521427567
 30
0.0
  0
POINT
  5
4B1
330
42C
100
AcDbEntity
  8
Defpoints
 62
     0
440
 16777216
100
AcDbPoint
 10
3061.587597215834
 20
1207.857521427567
 30
0.0
  0
POINT
  5
4B2
330
42C
100
AcDbEntity
  8
Defpoints
 62
     0
440
 16777216
100
AcDbPoint
 10
3061.587597215834
 20
1159.669393455912
 30
0.0
  0
ENDBLK
  5
42E
330
42C
100
AcDbEntity
  8
0
100
AcDbBlockEnd
  0
BLOCK
  5
439
330
438
100
AcDbEntity
  8
0
100
AcDbBlockBegin
  2
*D17
 70
     1
 10
0.0
 20
0.0
 30
0.0
  3
*D17
  1

  0
LINE
  5
4B3
330
438
100
AcDbEntity
  8
标注
 62
     0
440
 16777216
370
    -2
100
AcDbLine
 10
3003.087597215834
 20
1225.357521427567
 30
0.0
 11
2971.183433874665
 21
1225.357521427567
 31
0.0
  0
LINE
  5
4B4
330
438
100
AcDbEntity
  8
标注
 62
     0
440
 16777216
370
    -2
100
AcDbLine
 10
3003.087597215834
 20
1200.857521427567
 30
0.0
 11
2971.183433874665
 21
1200.857521427567
 31
0.0
  0
LINE
  5
4B5
330
438
100
AcDbEntity
  8
标注
 62
     0
440
 16777216
370
    -2
100
AcDbLine
 10
2981.183433874665
 20
1237.357521427567
 30
0.0
 11
2981.183433874665
 21
1249.357521427567
 31
0.0
  0
LINE
  5
4B6
330
438
100
AcDbEntity
  8
标注
 62
     0
440
 16777216
370
    -2
100
AcDbLine
 10
2981.183433874665
 20
1188.857521427567
 30
0.0
 11
2981.183433874665
 21
1118.610863855943
 31
0.0
  0
LINE
  5
4B7
330
438
100
AcDbEntity
  8
标注
 62
     0
440
 16777216
370
    -2
100
AcDbLine
 10
2981.183433874665
 20
1225.357521427567
 30
0.0
 11
2981.183433874665
 21
1200.857521427567
 31
0.0
  0
SOLID
  5
4B8
330
438
100
AcDbEntity
  8
标注
 62
     0
440
 16777216
100
AcDbTrace
 10
2979.183433874665
 20
1237.357521427567
 30
0.0
 11
2983.183433874665
 21
1237.357521427567
 31
0.0
 12
2981.183433874665
 22
1225.357521427567
 32
0.0
 13
2981.183433874665
 23
1225.357521427567
 33
0.0
  0
SOLID
  5
4B9
330
438
100
AcDbEntity
  8
标注
 62
     0
440
 16777216
100
AcDbTrace
 10
2979.183433874665
 20
1188.857521427567
 30
0.0
 11
2983.183433874665
 21
1188.857521427567
 31
0.0
 12
2981.183433874665
 22
1200.857521427567
 32
0.0
 13
2981.183433874665
 23
1200.857521427567
 33
0.0
  0
MTEXT
  5
4BA
330
438
100
AcDbEntity
  8
标注
 62
     0
440
 16777216
100
AcDbMText
 10
2966.788890900586
 20
1147.734192641755
 30
0.0
 40
18.39999999999998
 41
0.0
 46
0.0
 71
     5
 72
     1
  1
24.5
 11
0.0000000000000001
 21
1.0
 31
0.0
 73
     1
 44
1.0
  0
POINT
  5
4BB
330
438
100
AcDbEntity
  8
Defpoints
 62
     0
440
 16777216
100
AcDbPoint
 10
3008.087597215834
 20
1225.357521427567
 30
0.0
  0
POINT
  5
4BC
330
438
100
AcDbEntity
  8
Defpoints
 62
     0
440
 16777216
100
AcDbPoint
 10
3008.087597215834
 20
1200.857521427567
 30
0.0
  0
POINT
  5
4BD
330
438
100
AcDbEntity
  8
Defpoints
 62
     0
440
 16777216
100
AcDbPoint
 10
2981.183433874665
 20
1200.857521427567
 30
0.0
  0
ENDBLK
  5
43A
330
438
100
AcDbEntity
  8
0
100
AcDbBlockEnd
  0
BLOCK
  5
447
330
446
100
AcDbEntity
  8
0
100
AcDbBlockBegin
  2
*D18
 70
     1
 10
0.0
 20
0.0
 30
0.0
  3
*D18
  1

  0
LINE
  5
4BE
330
446
100
AcDbEntity
  8
标注
 62
     0
440
 16777216
370
    -2
100
AcDbLine
 10
3005.418736045927
 20
1041.857521427574
 30
0.0
 11
2687.686555131945
 21
1041.857521427574
 31
0.0
  0
LINE
  5
4BF
330
446
100
AcDbEntity
  8
标注
 62
     0
440
 16777216
370
    -2
100
AcDbLine
 10
2756.337597215834
 20
1255.357521427567
 30
0.0
 11
2687.686555131945
 21
1255.357521427567
 31
0.0
  0
LINE
  5
4C0
330
446
100
AcDbEntity
  8
标注
 62
     0
440
 16777216
370
    -2
100
AcDbLine
 10
2697.686555131945
 20
1053.857521427574
 30
0.0
 11
2697.686555131945
 21
1243.357521427567
 31
0.0
  0
SOLID
  5
4C1
330
446
100
AcDbEntity
  8
标注
 62
     0
440
 16777216
100
AcDbTrace
 10
2695.686555131945
 20
1053.857521427574
 30
0.0
 11
2699.686555131945
 21
1053.857521427574
 31
0.0
 12
2697.686555131945
 22
1041.857521427574
 32
0.0
 13
2697.686555131945
 23
1041.857521427574
 33
0.0
  0
SOLID
  5
4C2
330
446
100
AcDbEntity
  8
标注
 62
     0
440
 16777216
100
AcDbTrace
 10
2695.686555131945
 20
1243.357521427567
 30
0.0
 11
2699.686555131945
 21
1243.357521427567
 31
0.0
 12
2697.686555131945
 22
1255.357521427567
 32
0.0
 13
2697.686555131945
 23
1255.357521427567
 33
0.0
  0
MTEXT
  5
4C3
330
446
100
AcDbEntity
  8
标注
 62
     0
440
 16777216
100
AcDbMText
 10
2683.285736578056
 20
1148.607521427581
 30
0.0
 40
18.39999999999998
 41
0.0
 46
0.0
 71
     5
 72
     1
  1
213.5
 11
0.0000000000000001
 21
1.0
 31
0.0
 73
     1
 44
1.0
  0
POINT
  5
4C4
330
446
100
AcDbEntity
  8
Defpoints
 62
     0
440
 16777216
100
AcDbPoint
 10
3010.418736045928
 20
1041.857521427574
 30
0.0
  0
POINT
  5
4C5
330
446
100
AcDbEntity
  8
Defpoints
 62
     0
440
 16777216
100
AcDbPoint
 10
2761.337597215834
 20
1255.357521427567
 30
0.0
  0
POINT
  5
4C6
330
446
100
AcDbEntity
  8
Defpoints
 62
     0
440
 16777216
100
AcDbPoint
 10
2697.686555131945
 20
1255.357521427567
 30
0.0
  0
ENDBLK
  5
448
330
446
100
AcDbEntity
  8
0
100
AcDbBlockEnd
  0
BLOCK
  5
453
330
452
100
AcDbEntity
  8
0
100
AcDbBlockBegin
  2
*D19
 70
     1
 10
0.0
 20
0.0
 30
0.0
  3
*D19
  1

  0
LINE
  5
4CF
330
452
100
AcDbEntity
  8
标注
 62
     0
440
 16777216
370
    -2
100
AcDbLine
 10
2786.337597215834
 20
1795.637044916821
 30
0.0
 11
2733.478988981801
 21
1795.637044916821
 31
0.0
  0
LINE
  5
4D0
330
452
100
AcDbEntity
  8
标注
 62
     0
440
 16777216
370
    -2
100
AcDbLine
 10
2786.337597215834
 20
1395.637044916822
 30
0.0
 11
2733.478988981801
 21
1395.637044916822
 31
0.0
  0
LINE
  5
4D1
330
452
100
AcDbEntity
  8
标注
 62
     0
440
 16777216
370
    -2
100
AcDbLine
 10
2743.478988981801
 20
1783.637044916822
 30
0.0
 11
2743.478988981801
 21
1407.637044916821
 31
0.0
  0
SOLID
  5
4D2
330
452
100
AcDbEntity
  8
标注
 62
     0
440
 16777216
100
AcDbTrace
 10
2741.478988981801
 20
1783.637044916822
 30
0.0
 11
2745.478988981801
 21
1783.637044916822
 31
0.0
 12
2743.478988981801
 22
1795.637044916821
 32
0.0
 13
2743.478988981801
 23
1795.637044916821
 33
0.0
  0
SOLID
  5
4D3
330
452
100
AcDbEntity
  8
标注
 62
     0
440
 16777216
100
AcDbTrace
 10
2741.478988981801
 20
1407.637044916821
 30
0.0
 11
2745.478988981801
 21
1407.637044916821
 31
0.0
 12
2743.478988981801
 22
1395.637044916822
 32
0.0
 13
2743.478988981801
 23
1395.637044916822
 33
0.0
  0
MTEXT
  5
4D4
330
452
100
AcDbEntity
  8
标注
 62
     0
440
 16777216
100
AcDbMText
 10
2729.084446007721
 20
1595.637044916836
 30
0.0
 40
18.39999999999998
 41
0.0
 46
0.0
 71
     5
 72
     1
  1
400
 11
0.0000000000000001
 21
1.0
 31
0.0
 73
     1
 44
1.0
  0
POINT
  5
4D5
330
452
100
AcDbEntity
  8
Defpoints
 62
     0
440
 16777216
100
AcDbPoint
 10
2791.337597215834
 20
1795.637044916821
 30
0.0
  0
POINT
  5
4D6
330
452
100
AcDbEntity
  8
Defpoints
 62
     0
440
 16777216
100
AcDbPoint
 10
2791.337597215834
 20
1395.637044916822
 30
0.0
  0
POINT
  5
4D7
330
452
100
AcDbEntity
  8
Defpoints
 62
     0
440
 16777216
100
AcDbPoint
 10
2743.478988981801
 20
1395.637044916822
 30
0.0
  0
ENDBLK
  5
454
330
452
100
AcDbEntity
  8
0
100
AcDbBlockEnd
  0
BLOCK
  5
45F
330
45E
100
AcDbEntity
  8
0
100
AcDbBlockBegin
  2
*D20
 70
     1
 10
0.0
 20
0.0
 30
0.0
  3
*D20
  1

  0
LINE
  5
4D8
330
45E
100
AcDbEntity
  8
标注
 62
     0
440
 16777216
370
    -2
100
AcDbLine
 10
2766.337597215834
 20
1815.637044916822
 30
0.0
 11
2695.083697483783
 21
1815.637044916822
 31
0.0
  0
LINE
  5
4D9
330
45E
100
AcDbEntity
  8
标注
 62
     0
440
 16777216
370
    -2
100
AcDbLine
 10
2766.337597215834
 20
1375.637044916821
 30
0.0
 11
2695.083697483783
 21
1375.637044916821
 31
0.0
  0
LINE
  5
4DA
330
45E
100
AcDbEntity
  8
标注
 62
     0
440
 16777216
370
    -2
100
AcDbLine
 10
2705.083697483783
 20
1803.637044916822
 30
0.0
 11
2705.083697483783
 21
1387.637044916822
 31
0.0
  0
SOLID
  5
4DB
330
45E
100
AcDbEntity
  8
标注
 62
     0
440
 16777216
100
AcDbTrace
 10
2703.083697483783
 20
1803.637044916822
 30
0.0
 11
2707.083697483783
 21
1803.637044916822
 31
0.0
 12
2705.083697483783
 22
1815.637044916822
 32
0.0
 13
2705.083697483783
 23
1815.637044916822
 33
0.0
  0
SOLID
  5
4DC
330
45E
100
AcDbEntity
  8
标注
 62
     0
440
 16777216
100
AcDbTrace
 10
2703.083697483783
 20
1387.637044916822
 30
0.0
 11
2707.083697483783
 21
1387.637044916822
 31
0.0
 12
2705.083697483783
 22
1375.637044916821
 32
0.0
 13
2705.083697483783
 23
1375.637044916821
 33
0.0
  0
MTEXT
  5
4DD
330
45E
100
AcDbEntity
  8
标注
 62
     0
440
 16777216
100
AcDbMText
 10
2690.689154509703
 20
1595.637044916836
 30
0.0
 40
18.39999999999998
 41
0.0
 46
0.0
 71
     5
 72
     1
  1
440%%P0.2
 11
0.0000000000000001
 21
1.0
 31
0.0
 73
     1
 44
1.0
  0
POINT
  5
4DE
330
45E
100
AcDbEntity
  8
Defpoints
 62
     0
440
 16777216
100
AcDbPoint
 10
2771.337597215834
 20
1815.637044916822
 30
0.0
  0
POINT
  5
4DF
330
45E
100
AcDbEntity
  8
Defpoints
 62
     0
440
 16777216
100
AcDbPoint
 10
2771.337597215834
 20
1375.637044916821
 30
0.0
  0
POINT
  5
4E0
330
45E
100
AcDbEntity
  8
Defpoints
 62
     0
440
 16777216
100
AcDbPoint
 10
2705.083697483783
 20
1375.637044916821
 30
0.0
  0
ENDBLK
  5
460
330
45E
100
AcDbEntity
  8
0
100
AcDbBlockEnd
  0
BLOCK
  5
46B
330
46A
100
AcDbEntity
  8
0
100
AcDbBlockBegin
  2
*D21
 70
     1
 10
0.0
 20
0.0
 30
0.0
  3
*D21
  1

  0
LINE
  5
4E1
330
46A
100
AcDbEntity
  8
标注
 62
     0
440
 16777216
370
    -2
100
AcDbLine
 10
2781.337597215834
 20
1790.637044916822
 30
0.0
 11
2781.337597215834
 21
1843.500054583751
 31
0.0
  0
LINE
  5
4E2
330
46A
100
AcDbEntity
  8
标注
 62
     0
440
 16777216
370
    -2
100
AcDbLine
 10
3281.337597215834
 20
1790.637044916822
 30
0.0
 11
3281.337597215834
 21
1843.500054583751
 31
0.0
  0
LINE
  5
4E3
330
46A
100
AcDbEntity
  8
标注
 62
     0
440
 16777216
370
    -2
100
AcDbLine
 10
2793.337597215834
 20
1833.500054583751
 30
0.0
 11
3269.337597215834
 21
1833.500054583751
 31
0.0
  0
SOLID
  5
4E4
330
46A
100
AcDbEntity
  8
标注
 62
     0
440
 16777216
100
AcDbTrace
 10
2793.337597215834
 20
1835.500054583751
 30
0.0
 11
2793.337597215834
 21
1831.500054583751
 31
0.0
 12
2781.337597215834
 22
1833.500054583751
 32
0.0
 13
2781.337597215834
 23
1833.500054583751
 33
0.0
  0
SOLID
  5
4E5
330
46A
100
AcDbEntity
  8
标注
 62
     0
440
 16777216
100
AcDbTrace
 10
3269.337597215834
 20
1835.500054583751
 30
0.0
 11
3269.337597215834
 21
1831.500054583751
 31
0.0
 12
3281.337597215834
 22
1833.500054583751
 32
0.0
 13
3281.337597215834
 23
1833.500054583751
 33
0.0
  0
MTEXT
  5
4E6
330
46A
100
AcDbEntity
  8
标注
 62
     0
440
 16777216
100
AcDbMText
 10
3031.337597215834
 20
1847.89459755783
 30
0.0
 40
18.39999999999998
 41
0.0
 46
0.0
 71
     5
 72
     1
  1
500
 73
     1
 44
1.0
  0
POINT
  5
4E7
330
46A
100
AcDbEntity
  8
Defpoints
 62
     0
440
 16777216
100
AcDbPoint
 10
2781.337597215834
 20
1785.637044916821
 30
0.0
  0
POINT
  5
4E8
330
46A
100
AcDbEntity
  8
Defpoints
 62
     0
440
 16777216
100
AcDbPoint
 10
3281.337597215834
 20
1785.637044916821
 30
0.0
  0
POINT
  5
4E9
330
46A
100
AcDbEntity
  8
Defpoints
 62
     0
440
 16777216
100
AcDbPoint
 10
3281.337597215834
 20
1833.500054583751
 30
0.0
  0
ENDBLK
  5
46C
330
46A
100
AcDbEntity
  8
0
100
AcDbBlockEnd
  0
BLOCK
  5
477
330
476
100
AcDbEntity
  8
0
100
AcDbBlockBegin
  2
*D22
 70
     1
 10
0.0
 20
0.0
 30
0.0
  3
*D22
  1

  0
LINE
  5
4EA
330
476
100
AcDbEntity
  8
标注
 62
     0
440
 16777216
370
    -2
100
AcDbLine
 10
2761.337597215834
 20
1810.637044916822
 30
0.0
 11
2761.337597215834
 21
1885.52778889272
 31
0.0
  0
LINE
  5
4EB
330
476
100
AcDbEntity
  8
标注
 62
     0
440
 16777216
370
    -2
100
AcDbLine
 10
3301.337597215834
 20
1810.637044916822
 30
0.0
 11
3301.337597215834
 21
1885.52778889272
 31
0.0
  0
LINE
  5
4EC
330
476
100
AcDbEntity
  8
标注
 62
     0
440
 16777216
370
    -2
100
AcDbLine
 10
2773.337597215834
 20
1875.52778889272
 30
0.0
 11
3289.337597215834
 21
1875.52778889272
 31
0.0
  0
SOLID
  5
4ED
330
476
100
AcDbEntity
  8
标注
 62
     0
440
 16777216
100
AcDbTrace
 10
2773.337597215834
 20
1877.52778889272
 30
0.0
 11
2773.337597215834
 21
1873.52778889272
 31
0.0
 12
2761.337597215834
 22
1875.52778889272
 32
0.0
 13
2761.337597215834
 23
1875.52778889272
 33
0.0
  0
SOLID
  5
4EE
330
476
100
AcDbEntity
  8
标注
 62
     0
440
 16777216
100
AcDbTrace
 10
3289.337597215834
 20
1877.52778889272
 30
0.0
 11
3289.337597215834
 21
1873.52778889272
 31
0.0
 12
3301.337597215834
 22
1875.52778889272
 32
0.0
 13
3301.337597215834
 23
1875.52778889272
 33
0.0
  0
MTEXT
  5
4EF
330
476
100
AcDbEntity
  8
标注
 62
     0
440
 16777216
100
AcDbMText
 10
3031.337597215834
 20
1889.922331866799
 30
0.0
 40
18.39999999999998
 41
0.0
 46
0.0
 71
     5
 72
     1
  1
540%%P0.2
 73
     1
 44
1.0
  0
POINT
  5
4F0
330
476
100
AcDbEntity
  8
Defpoints
 62
     0
440
 16777216
100
AcDbPoint
 10
2761.337597215834
 20
1805.637044916822
 30
0.0
  0
POINT
  5
4F1
330
476
100
AcDbEntity
  8
Defpoints
 62
     0
440
 16777216
100
AcDbPoint
 10
3301.337597215834
 20
1805.637044916822
 30
0.0
  0
POINT
  5
4F2
330
476
100
AcDbEntity
  8
Defpoints
 62
     0
440
 16777216
100
AcDbPoint
 10
3301.337597215834
 20
1875.52778889272
 30
0.0
  0
ENDBLK
  5
478
330
476
100
AcDbEntity
  8
0
100
AcDbBlockEnd
  0
BLOCK
  5
483
330
482
100
AcDbEntity
  8
0
100
AcDbBlockBegin
  2
*D23
 70
     1
 10
0.0
 20
0.0
 30
0.0
  3
*D23
  1

  0
LINE
  5
4F3
330
482
100
AcDbEntity
  8
标注
 62
     0
440
 16777216
370
    -2
100
AcDbLine
 10
3026.337597215834
 20
1675.637044916821
 30
0.0
 11
2935.853327009706
 21
1675.637044916821
 31
0.0
  0
LINE
  5
4F4
330
482
100
AcDbEntity
  8
标注
 62
     0
440
 16777216
370
    -2
100
AcDbLine
 10
3026.337597215834
 20
1795.637044916821
 30
0.0
 11
2935.853327009706
 21
1795.637044916821
 31
0.0
  0
LINE
  5
4F5
330
482
100
AcDbEntity
  8
标注
 62
     0
440
 16777216
370
    -2
100
AcDbLine
 10
2945.853327009706
 20
1687.637044916822
 30
0.0
 11
2945.853327009706
 21
1783.637044916822
 31
0.0
  0
SOLID
  5
4F6
330
482
100
AcDbEntity
  8
标注
 62
     0
440
 16777216
100
AcDbTrace
 10
2943.853327009705
 20
1687.637044916822
 30
0.0
 11
2947.853327009706
 21
1687.637044916822
 31
0.0
 12
2945.853327009706
 22
1675.637044916821
 32
0.0
 13
2945.853327009706
 23
1675.637044916821
 33
0.0
  0
SOLID
  5
4F7
330
482
100
AcDbEntity
  8
标注
 62
     0
440
 16777216
100
AcDbTrace
 10
2943.853327009705
 20
1783.637044916822
 30
0.0
 11
2947.853327009706
 21
1783.637044916822
 31
0.0
 12
2945.853327009706
 22
1795.637044916821
 32
0.0
 13
2945.853327009706
 23
1795.637044916821
 33
0.0
  0
MTEXT
  5
4F8
330
482
100
AcDbEntity
  8
标注
 62
     0
440
 16777216
100
AcDbMText
 10
2931.458784035626
 20
1735.637044916829
 30
0.0
 40
18.39999999999998
 41
0.0
 46
0.0
 71
     5
 72
     1
  1
120
 11
0.0000000000000001
 21
1.0
 31
0.0
 73
     1
 44
1.0
  0
POINT
  5
4F9
330
482
100
AcDbEntity
  8
Defpoints
 62
     0
440
 16777216
100
AcDbPoint
 10
3031.337597215834
 20
1675.637044916821
 30
0.0
  0
POINT
  5
4FA
330
482
100
AcDbEntity
  8
Defpoints
 62
     0
440
 16777216
100
AcDbPoint
 10
3031.337597215834
 20
1795.637044916821
 30
0.0
  0
POINT
  5
4FB
330
482
100
AcDbEntity
  8
Defpoints
 62
     0
440
 16777216
100
AcDbPoint
 10
2945.853327009706
 20
1795.637044916821
 30
0.0
  0
ENDBLK
  5
484
330
482
100
AcDbEntity
  8
0
100
AcDbBlockEnd
  0
BLOCK
  5
48F
330
48E
100
AcDbEntity
  8
0
100
AcDbBlockBegin
  2
*D24
 70
     1
 10
0.0
 20
0.0
 30
0.0
  3
*D24
  1

  0
LINE
  5
508
330
48E
100
AcDbEntity
  8
标注
  6
ByBlock
 62
     1
440
 16777216
370
    -2
100
AcDbLine
 10
3369.405694662808
 20
1296.524900742709
 30
0.0
 11
3305.834684470404
 21
1369.089100599201
 31
0.0
  0
MTEXT
  5
509
330
48E
100
AcDbEntity
  8
标注
 62
     0
440
 16777216
100
AcDbMText
 10
3362.472736316078
 20
1326.283027084491
 30
0.0
 40
18.39999999999998
 41
0.0
 46
0.0
 71
     5
 72
     1
  1
R10
 11
0.6589585115679079
 21
-0.7521792871597885
 31
0.0
 73
     1
 44
1.0
  0
LINE
  5
50A
330
48E
100
AcDbEntity
  8
标注
  6
ByBlock
 62
     1
440
 16777216
370
    -2
100
AcDbLine
 10
3291.337597215805
 20
1385.637044916836
 30
0.0
 11
3297.927182331588
 21
1378.115252045118
 31
0.0
  0
SOLID
  5
50B
330
48E
100
AcDbEntity
  8
标注
 62
     1
440
 16777216
100
AcDbTrace
 10
3307.339043044724
 20
1370.407017622337
 30
0.0
 11
3304.330325896084
 21
1367.771183576065
 31
0.0
 12
3297.927182331588
 22
1378.115252045118
 32
0.0
 13
3297.927182331588
 23
1378.115252045118
 33
0.0
  0
POINT
  5
50C
330
48E
100
AcDbEntity
  8
Defpoints
 62
     0
440
 16777216
100
AcDbPoint
 10
3297.927182331588
 20
1378.115252045118
 30
0.0
  0
POINT
  5
50D
330
48E
100
AcDbEntity
  8
Defpoints
 62
     0
440
 16777216
100
AcDbPoint
 10
3291.337597215805
 20
1385.637044916836
 30
0.0
  0
ENDBLK
  5
490
330
48E
100
AcDbEntity
  8
0
100
AcDbBlockEnd
  0
BLOCK
  5
498
330
497
100
AcDbEntity
  8
0
100
AcDbBlockBegin
  2
*D25
 70
     1
 10
0.0
 20
0.0
 30
0.0
  3
*D25
  1

  0
LINE
  5
50E
330
497
100
AcDbEntity
  8
标注
  6
ByBlock
 62
     0
440
 16777216
370
    -2
100
AcDbLine
 10
3227.784821431392
 20
1457.734098658992
 30
0.0
 11
3270.054821421001
 21
1407.171478447585
 31
0.0
  0
MTEXT
  5
50F
330
497
100
AcDbEntity
  8
标注
 62
     0
440
 16777216
100
AcDbMText
 10
3256.115228741407
 20
1446.288574797692
 30
0.0
 40
18.39999999999998
 41
0.0
 46
0.0
 71
     5
 72
     1
  1
R10
 11
0.6413878973988188
 21
-0.7672167653735953
 31
0.0
 73
     1
 44
1.0
  0
SOLID
  5
510
330
497
100
AcDbEntity
  8
标注
 62
     0
440
 16777216
100
AcDbTrace
 10
3271.589254951747
 20
1408.454254242382
 30
0.0
 11
3268.520387890253
 21
1405.888702652787
 31
0.0
 12
3277.751476189786
 22
1397.964877263102
 32
0.0
 13
3277.751476189786
 23
1397.964877263102
 33
0.0
  0
POINT
  5
511
330
497
100
AcDbEntity
  8
Defpoints
 62
     0
440
 16777216
100
AcDbPoint
 10
3277.751476189786
 20
1397.964877263102
 30
0.0
  0
POINT
  5
512
330
497
100
AcDbEntity
  8
Defpoints
 62
     0
440
 16777216
100
AcDbPoint
 10
3271.337597215805
 20
1405.637044916829
 30
0.0
  0
ENDBLK
  5
499
330
497
100
AcDbEntity
  8
0
100
AcDbBlockEnd
  0
BLOCK
  5
4C8
330
4C7
100
AcDbEntity
  8
0
100
AcDbBlockBegin
  2
*D26
 70
     1
 10
0.0
 20
0.0
 30
0.0
  3
*D26
  1

  0
LINE
  5
51E
330
4C7
100
AcDbEntity
  8
标注
  6
ByBlock
 62
     0
440
 16777216
370
    -2
100
AcDbLine
 10
3207.314945148549
 20
1120.996703253563
 30
0.0
 11
3262.153208021742
 21
1084.444050999382
 31
0.0
  0
MTEXT
  5
51F
330
4C7
100
AcDbEntity
  8
标注
 62
     0
440
 16777216
100
AcDbMText
 10
3237.725234588193
 20
1118.025795815075
 30
0.0
 40
18.39999999999998
 41
0.0
 46
0.0
 71
     5
 72
     1
  1
R10
 11
0.8320936392213788
 21
-0.5546351733953787
 31
0.0
 73
     1
 44
1.0
  0
SOLID
  5
520
330
4C7
100
AcDbEntity
  8
标注
 62
     0
440
 16777216
100
AcDbTrace
 10
3263.262478368533
 20
1086.108238277825
 30
0.0
 11
3261.043937674952
 21
1082.779863720939
 31
0.0
 12
3272.138331692399
 22
1077.788428918638
 32
0.0
 13
3272.138331692399
 23
1077.788428918638
 33
0.0
  0
POINT
  5
521
330
4C7
100
AcDbEntity
  8
Defpoints
 62
     0
440
 16777216
100
AcDbPoint
 10
3272.138331692399
 20
1077.788428918638
 30
0.0
  0
POINT
  5
522
330
4C7
100
AcDbEntity
  8
Defpoints
 62
     0
440
 16777216
100
AcDbPoint
 10
3263.817395300264
 20
1083.334780652539
 30
0.0
  0
ENDBLK
  5
4C9
330
4C7
100
AcDbEntity
  8
0
100
AcDbBlockEnd
  0
BLOCK
  5
4FD
330
4FC
100
AcDbEntity
  8
0
100
AcDbBlockBegin
  2
*D27
 70
     1
 10
0.0
 20
0.0
 30
0.0
  3
*D27
  1

  0
LINE
  5
4FF
330
4FC
100
AcDbEntity
  8
标注
 62
     0
440
 16777216
370
    -2
100
AcDbLine
 10
2756.337597215834
 20
1255.357521427567
 30
0.0
 11
2730.93330551113
 21
1255.357521427567
 31
0.0
  0
LINE
  5
500
330
4FC
100
AcDbEntity
  8
标注
 62
     0
440
 16777216
370
    -2
100
AcDbLine
 10
2964.337597215863
 20
1070.357521427581
 30
0.0
 11
2730.93330551113
 21
1070.357521427581
 31
0.0
  0
LINE
  5
501
330
4FC
100
AcDbEntity
  8
标注
 62
     0
440
 16777216
370
    -2
100
AcDbLine
 10
2740.93330551113
 20
1243.357521427567
 30
0.0
 11
2740.93330551113
 21
1082.357521427582
 31
0.0
  0
SOLID
  5
502
330
4FC
100
AcDbEntity
  8
标注
 62
     0
440
 16777216
100
AcDbTrace
 10
2738.93330551113
 20
1243.357521427567
 30
0.0
 11
2742.93330551113
 21
1243.357521427567
 31
0.0
 12
2740.93330551113
 22
1255.357521427567
 32
0.0
 13
2740.93330551113
 23
1255.357521427567
 33
0.0
  0
SOLID
  5
503
330
4FC
100
AcDbEntity
  8
标注
 62
     0
440
 16777216
100
AcDbTrace
 10
2738.93330551113
 20
1082.357521427582
 30
0.0
 11
2742.93330551113
 21
1082.357521427582
 31
0.0
 12
2740.93330551113
 22
1070.357521427581
 32
0.0
 13
2740.93330551113
 23
1070.357521427581
 33
0.0
  0
MTEXT
  5
504
330
4FC
100
AcDbEntity
  8
标注
 62
     0
440
 16777216
100
AcDbMText
 10
2726.53876253705
 20
1162.857521427589
 30
0.0
 40
18.39999999999998
 41
0.0
 46
0.0
 71
     5
 72
     1
  1
185
 11
0.0000000000000001
 21
1.0
 31
0.0
 73
     1
 44
1.0
  0
POINT
  5
505
330
4FC
100
AcDbEntity
  8
Defpoints
 62
     0
440
 16777216
100
AcDbPoint
 10
2761.337597215834
 20
1255.357521427567
 30
0.0
  0
POINT
  5
506
330
4FC
100
AcDbEntity
  8
Defpoints
 62
     0
440
 16777216
100
AcDbPoint
 10
2969.337597215863
 20
1070.357521427581
 30
0.0
  0
POINT
  5
507
330
4FC
100
AcDbEntity
  8
Defpoints
 62
     0
440
 16777216
100
AcDbPoint
 10
2740.93330551113
 20
1070.357521427581
 30
0.0
  0
ENDBLK
  5
4FE
330
4FC
100
AcDbEntity
  8
0
100
AcDbBlockEnd
  0
BLOCK
  5
514
330
513
100
AcDbEntity
  8
0
100
AcDbBlockBegin
  2
*D28
 70
     1
 10
0.0
 20
0.0
 30
0.0
  3
*D28
  1

  0
LINE
  5
523
330
513
100
AcDbEntity
  8
标注
 62
     0
440
 16777216
370
    -2
100
AcDbLine
 10
3160.43076088268
 20
1640.855794033534
 30
0.0
 11
3090.720032400334
 21
1659.637782697609
 31
0.0
  0
LINE
  5
524
330
513
100
AcDbEntity
  8
标注
 62
     0
440
 16777216
370
    -2
100
AcDbLine
 10
2971.955162031378
 20
1691.636307135993
 30
0.0
 11
2960.368345410012
 21
1694.758114398275
 31
0.0
  0
MTEXT
  5
525
102
{ACAD_XDICTIONARY
360
5CC
102
}
330
513
100
AcDbEntity
  8
标注
 62
     0
440
 16777216
100
AcDbMText
 10
3137.07351388235
 20
1662.589676407163
 30
0.0
 40
18.39999999999998
 41
0.0
 46
0.0
 71
     5
 72
     1
  1
∅99
 11
0.9655680517804869
 21
-0.260150605190215
 31
0.0
 73
     1
 44
1.0
  0
LINE
  5
526
330
513
100
AcDbEntity
  8
标注
 62
     0
440
 16777216
370
    -2
100
AcDbLine
 10
2983.541978652744
 20
1688.51449987371
 30
0.0
 11
3079.133215778968
 21
1662.759589959891
 31
0.0
  0
SOLID
  5
527
330
513
100
AcDbEntity
  8
标注
 62
     0
440
 16777216
100
AcDbTrace
 10
2972.475463241759
 20
1693.567443239554
 30
0.0
 11
2971.434860820997
 21
1689.705171032431
 31
0.0
 12
2983.541978652744
 22
1688.51449987371
 32
0.0
 13
2983.541978652744
 23
1688.51449987371
 33
0.0
  0
SOLID
  5
528
330
513
100
AcDbEntity
  8
标注
 62
     0
440
 16777216
100
AcDbTrace
 10
3091.240333610714
 20
1661.56891880117
 30
0.0
 11
3090.199731189953
 21
1657.706646594047
 31
0.0
 12
3079.133215778968
 22
1662.759589959891
 32
0.0
 13
3079.133215778968
 23
1662.759589959891
 33
0.0
  0
POINT
  5
529
330
513
100
AcDbEntity
  8
Defpoints
 62
     0
440
 16777216
100
AcDbPoint
 10
3079.133215778968
 20
1662.759589959891
 30
0.0
  0
POINT
  5
52A
330
513
100
AcDbEntity
  8
Defpoints
 62
     0
440
 16777216
100
AcDbPoint
 10
2983.541978652744
 20
1688.51449987371
 30
0.0
  0
ENDBLK
  5
515
330
513
100
AcDbEntity
  8
0
100
AcDbBlockEnd
  0
ENDSEC
  0
SECTION
  2
ENTITIES
  0
LINE
  5
395
102
{ACAD_REACTORS
330
3AA
102
}
330
1F
100
AcDbEntity
  8
外框线1
100
AcDbLine
 10
2761.337597215834
 20
1255.357521427567
 30
0.0
 11
3301.337597215834
 21
1255.357521427567
 31
0.0
  0
ARC
  5
396
330
1F
100
AcDbEntity
  8
外框线1
100
AcDbCircle
 10
3284.688118313725
 20
1251.857521427567
 30
0.0
 40
3.5
100
AcDbArc
 50
90.0
 51
177.4999999998253
  0
ARC
  5
397
330
1F
100
AcDbEntity
  8
外框线1
100
AcDbCircle
 10
2777.987076117943
 20
1251.857521427567
 30
0.0
 40
3.5
100
AcDbArc
 50
2.500000000174698
 51
90.0
  0
LWPOLYLINE
  5
398
330
1F
100
AcDbEntity
  8
外框线1
100
AcDbPolyline
 90
        8
 70
     1
 43
0.0
 10
2791.337597215834
 20
1395.637044916822
 10
3271.337597215834
 20
1395.637044916822
 42
0.4142135623730951
 10
3281.337597215834
 20
1405.637044916822
 10
3281.337597215834
 20
1785.637044916821
 42
0.4142135623730951
 10
3271.337597215834
 20
1795.637044916821
 10
2791.337597215834
 20
1795.637044916821
 42
0.4142135623730951
 10
2781.337597215834
 20
1785.637044916821
 10
2781.337597215834
 20
1405.637044916822
 42
0.4142135623730948
  0
LINE
  5
399
330
1F
100
AcDbEntity
  8
外框线1
100
AcDbLine
 10
2771.337597215834
 20
1375.637044916821
 30
0.0
 11
3291.337597215834
 21
1375.637044916821
 31
0.0
  0
ARC
  5
39A
330
1F
100
AcDbEntity
  8
外框线1
100
AcDbCircle
 10
3291.337597215834
 20
1385.637044916822
 30
0.0
 40
10.0
100
AcDbArc
 50
270.0
 51
0.0
  0
LINE
  5
39B
330
1F
100
AcDbEntity
  8
外框线1
100
AcDbLine
 10
3301.337597215834
 20
1385.637044916822
 30
0.0
 11
3301.337597215834
 21
1805.637044916822
 31
0.0
  0
ARC
  5
39C
330
1F
100
AcDbEntity
  8
外框线1
100
AcDbCircle
 10
3291.337597215834
 20
1805.637044916822
 30
0.0
 40
10.0
100
AcDbArc
 50
0.0
 51
90.0
  0
LINE
  5
39D
330
1F
100
AcDbEntity
  8
外框线1
100
AcDbLine
 10
3291.337597215834
 20
1815.637044916822
 30
0.0
 11
2771.337597215834
 21
1815.637044916822
 31
0.0
  0
ARC
  5
39E
330
1F
100
AcDbEntity
  8
外框线1
100
AcDbCircle
 10
2771.337597215834
 20
1805.637044916822
 30
0.0
 40
10.0
100
AcDbArc
 50
90.0
 51
180.0
  0
LINE
  5
39F
330
1F
100
AcDbEntity
  8
外框线1
100
AcDbLine
 10
2761.337597215834
 20
1805.637044916822
 30
0.0
 11
2761.337597215834
 21
1385.637044916822
 31
0.0
  0
ARC
  5
3A0
330
1F
100
AcDbEntity
  8
外框线1
100
AcDbCircle
 10
2771.337597215834
 20
1385.637044916822
 30
0.0
 40
10.0
100
AcDbArc
 50
180.0
 51
270.0
  0
DIMENSION
  5
3A1
330
1F
100
AcDbEntity
  8
标注
100
AcDbDimension
280
     0
  2
*D19
 10
2743.478988981801
 20
1395.637044916822
 30
0.0
 11
2743.4789889818
 21
1595.637044916836
 31
0.0
 70
   160
 71
     5
 42
400.0
 73
     0
 74
     0
 75
     0
  3
1-8-L
100
AcDbAlignedDimension
 13
2791.337597215834
 23
1795.637044916821
 33
0.0
 14
2791.337597215834
 24
1395.637044916822
 34
0.0
 50
90.0
100
AcDbRotatedDimension
  0
DIMENSION
  5
3A2
330
1F
100
AcDbEntity
  8
标注
100
AcDbDimension
280
     0
  2
*D20
 10
2705.083697483783
 20
1375.637044916821
 30
0.0
 11
2705.083697483782
 21
1595.637044916836
 31
0.0
 70
   160
  1
<>%%P0.2
 71
     5
 42
440.0
 73
     0
 74
     0
 75
     0
  3
1-8-L
100
AcDbAlignedDimension
 13
2771.337597215834
 23
1815.637044916822
 33
0.0
 14
2771.337597215834
 24
1375.637044916821
 34
0.0
 50
90.0
100
AcDbRotatedDimension
  0
DIMENSION
  5
3A3
330
1F
100
AcDbEntity
  8
标注
100
AcDbDimension
280
     0
  2
*D21
 10
3281.337597215834
 20
1833.500054583751
 30
0.0
 11
3031.337597215834
 21
1833.500054583751
 31
0.0
 70
   160
 71
     5
 42
500.0
 73
     0
 74
     0
 75
     0
  3
1-8-L
100
AcDbAlignedDimension
 13
2781.337597215834
 23
1785.637044916821
 33
0.0
 14
3281.337597215834
 24
1785.637044916821
 34
0.0
100
AcDbRotatedDimension
  0
DIMENSION
  5
3A4
330
1F
100
AcDbEntity
  8
标注
100
AcDbDimension
280
     0
  2
*D22
 10
3301.337597215834
 20
1875.52778889272
 30
0.0
 11
3031.337597215834
 21
1875.52778889272
 31
0.0
 70
   160
  1
<>%%P0.2
 71
     5
 42
540.0
 73
     0
 74
     0
 75
     0
  3
1-8-L
100
AcDbAlignedDimension
 13
2761.337597215834
 23
1805.637044916822
 33
0.0
 14
3301.337597215834
 24
1805.637044916822
 34
0.0
100
AcDbRotatedDimension
  0
LINE
  5
3A5
330
1F
100
AcDbEntity
  8
外框线1
100
AcDbLine
 10
3082.337597215834
 20
1070.357521427567
 30
0.0
 11
2980.337597215834
 21
1070.357521427567
 31
0.0
  0
DIMENSION
  5
3A6
330
1F
100
AcDbEntity
  8
标注
100
AcDbDimension
280
     0
  2
*D23
 10
2945.853327009706
 20
1795.637044916821
 30
0.0
 11
2945.853327009705
 21
1735.637044916829
 31
0.0
 70
   160
 71
     5
 42
120.0
 73
     0
 74
     0
 75
     0
  3
1-8-L
100
AcDbAlignedDimension
 13
3031.337597215834
 23
1675.637044916821
 33
0.0
 14
3031.337597215834
 24
1795.637044916821
 34
0.0
 50
90.0
100
AcDbRotatedDimension
  0
LINE
  5
3A7
330
1F
100
AcDbEntity
  8
标注
100
AcDbLine
 10
2981.337597215834
 20
1795.637044916829
 30
0.0
 11
3081.337597215834
 21
1795.637044916814
 31
0.0
  0
DIMENSION
  5
3A8
102
{ACAD_XDICTIONARY
360
3A9
102
}
102
{ACAD_REACTORS
330
3AA
102
}
330
1F
100
AcDbEntity
  8
标注
100
AcDbDimension
280
     0
  2
*D27
 10
2740.93330551113
 20
1070.357521427581
 30
0.0
 11
2740.933305511129
 21
1162.857521427589
 31
0.0
 70
   160
 71
     5
 42
184.9999999999854
 73
     0
 74
     0
 75
     0
  3
1-8-L
100
AcDbAlignedDimension
 13
2761.337597215834
 23
1255.357521427567
 33
0.0
 14
2969.337597215863
 24
1070.357521427581
 34
0.0
 50
90.0
100
AcDbRotatedDimension
  0
SOLID
  5
3AB
330
1F
100
AcDbEntity
  8
外框线1
100
AcDbTrace
 10
3029.825960460667
 20
1782.669086242848
 30
0.0
 11
3031.825960460667
 21
1794.669086242848
 31
0.0
 12
3033.825960460667
 22
1782.669086242848
 32
0.0
 13
3033.825960460667
 23
1782.669086242848
 33
0.0
1001
ACAD
1000
DSTYLE
1002
{
1070
   147
1040
0.625
1070
    77
1070
     0
1002
}
  0
LWPOLYLINE
  5
3AC
330
1F
100
AcDbEntity
  8
外框线1
100
AcDbPolyline
 90
        2
 70
     0
 43
0.0
 10
3031.825960460667
 20
1782.669086242848
 10
3031.825960460667
 20
1759.322024097838
1001
ACAD
1000
DSTYLE
1002
{
1070
   147
1040
0.625
1070
    77
1070
     0
1002
}
  0
LWPOLYLINE
  5
3AD
330
1F
100
AcDbEntity
  8
外框线2
100
AcDbPolyline
 90
        6
 70
     1
 43
0.0
 10
2770.637076117937
 20
1254.557521427578
 10
2770.637076117937
 20
1240.357521427581
 10
2769.837076117949
 20
1240.357521427581
 10
2769.837076117949
 20
1255.357521427581
 10
2777.987076117943
 20
1255.357521427574
 10
2777.987076117943
 20
1254.557521427571
  0
LWPOLYLINE
  5
3AE
330
1F
100
AcDbEntity
  8
外框线2
100
AcDbPolyline
 90
        6
 70
     1
 43
0.0
 10
3292.038118313731
 20
1254.557521427571
 10
3292.038118313731
 20
1240.357521427574
 10
3292.838118313719
 20
1240.357521427574
 10
3292.838118313719
 20
1255.357521427574
 10
3284.688118313725
 20
1255.357521427567
 10
3284.688118313725
 20
1254.557521427564
  0
LINE
  5
3AF
330
1F
100
AcDbEntity
  8
外框线1
100
AcDbLine
 10
2969.337597215863
 20
1070.357521427581
 30
0.0
 11
3093.337597215863
 21
1070.357521427581
 31
0.0
  0
LINE
  5
3B0
330
1F
100
AcDbEntity
  8
0
 62
     3
370
    -3
100
AcDbLine
 10
2969.337597215863
 20
1070.357521427581
 30
0.0
 11
2798.683275067024
 21
1073.336303700974
 31
0.0
  0
LINE
  5
3B1
330
1F
100
AcDbEntity
  8
0
 62
     3
370
    -3
100
AcDbLine
 10
3093.337597215863
 20
1070.357521427581
 30
0.0
 11
3263.991919364644
 21
1073.336303700974
 31
0.0
  0
DIMENSION
  5
3B2
330
1F
100
AcDbEntity
  8
标注
100
AcDbDimension
280
     0
  2
*D24
 10
3291.337597215805
 20
1385.637044916836
 30
0.0
 11
3351.645459242845
 21
1316.797620471591
 31
0.0
 70
   164
 71
     5
 42
10.00000000015939
 73
     0
 74
     0
 75
     0
  3
1-8-L
100
AcDbRadialDimension
 15
3297.927182331588
 25
1378.115252045118
 35
0.0
 40
0.0
1001
ACAD
1000
DSTYLE
1002
{
1070
    49
1040
5.0
1070
    50
1040
1.570796326794896
1070
    70
1070
   256
1070
    90
1070
     1
1070
   176
1070
     1
1070
   288
1070
     1
1070
   290
1070
     1
1070
   345
1005
14
1002
}
1001
ACAD_DSTYLE_DIMRADIAL_EXTENSION
1000

  0
LWPOLYLINE
  5
3B3
330
1F
100
AcDbEntity
  8
外框线2
  6
HIDDEN
 48
0.2
100
AcDbPolyline
 90
        2
 70
     1
 43
0.0
 10
2902.787597215846
 20
1240.357521427574
 10
2929.787597215846
 20
1240.357521427574
  0
LWPOLYLINE
  5
3B4
330
1F
100
AcDbEntity
  8
外框线2
100
AcDbPolyline
 90
       10
 70
     1
 43
0.0
 10
2891.337597215834
 20
1254.557521427571
 10
2891.337597215834
 20
1255.357521427567
 10
2941.337597215834
 20
1255.357521427574
 10
2941.337597215834
 20
1254.557521427571
 10
2936.387597215822
 20
1254.557521427571
 10
2936.387597215822
 20
1246.757521427568
 10
2929.987597215828
 20
1240.357521427567
 10
2902.68759721584
 20
1240.357521427567
 10
2896.287597215846
 20
1246.757521427568
 10
2896.287597215846
 20
1254.557521427571
  0
LWPOLYLINE
  5
3B5
330
1F
100
AcDbEntity
  8
外框线2
100
AcDbPolyline
 90
        4
 70
     1
 43
0.0
 10
2908.887597215851
 20
1244.457521427573
 10
2923.787597215845
 20
1244.457521427573
 10
2923.787597215845
 20
1248.357521427567
 10
2908.887597215851
 20
1248.357521427567
  0
LWPOLYLINE
  5
3B6
330
1F
100
AcDbEntity
  8
外框线2
  6
HIDDEN
 48
0.2
100
AcDbPolyline
 90
        2
 70
     1
 43
0.0
 10
3159.887597215822
 20
1240.357521427574
 10
3132.887597215822
 20
1240.357521427574
  0
LWPOLYLINE
  5
3B7
330
1F
100
AcDbEntity
  8
外框线2
100
AcDbPolyline
 90
       10
 70
     1
 43
0.0
 10
3171.337597215834
 20
1254.557521427571
 10
3171.337597215834
 20
1255.357521427567
 10
3121.337597215834
 20
1255.357521427574
 10
3121.337597215834
 20
1254.557521427571
 10
3126.287597215846
 20
1254.557521427571
 10
3126.287597215846
 20
1246.757521427568
 10
3132.68759721584
 20
1240.357521427567
 10
3159.987597215828
 20
1240.357521427567
 10
3166.387597215822
 20
1246.757521427568
 10
3166.387597215822
 20
1254.557521427571
  0
LWPOLYLINE
  5
3B8
330
1F
100
AcDbEntity
  8
外框线2
100
AcDbPolyline
 90
        4
 70
     1
 43
0.0
 10
3153.787597215831
 20
1244.457521427573
 10
3138.887597215822
 20
1244.457521427573
 10
3138.887597215822
 20
1248.357521427567
 10
3153.787597215831
 20
1248.357521427567
  0
LWPOLYLINE
  5
3B9
330
1F
100
AcDbEntity
  8
外框线2
100
AcDbPolyline
 90
       10
 70
     1
 43
0.0
 10
2891.337597215819
 20
1392.287044916823
 10
2891.337597215819
 20
1386.187044916824
 10
2896.287597215846
 20
1386.187044916824
 10
2896.287597215846
 20
1384.937044916825
 10
2896.287597215846
 20
1384.137044916821
 10
2936.387597215822
 20
1384.137044916821
 10
2936.387597215822
 20
1384.937044916825
 10
2936.387597215822
 20
1386.187044916824
 10
2941.337597215805
 20
1386.187044916824
 10
2941.337597215805
 20
1392.287044916823
  0
LWPOLYLINE
  5
3BA
330
1F
100
AcDbEntity
  8
外框线2
100
AcDbPolyline
 90
       10
 70
     1
 43
0.0
 10
3284.687597215825
 20
1570.637044916829
 10
3290.787597215817
 20
1570.637044916829
 10
3290.787597215817
 20
1575.587044916848
 10
3292.037597215816
 20
1575.587044916848
 10
3292.837597215834
 20
1575.587044916848
 10
3292.837597215834
 20
1615.687044916839
 10
3292.037597215816
 20
1615.687044916824
 10
3290.787597215817
 20
1615.687044916824
 10
3290.787597215817
 20
1620.637044916821
 10
3284.687597215825
 20
1620.637044916821
  0
LWPOLYLINE
  5
3BB
330
1F
100
AcDbEntity
  8
外框线2
100
AcDbPolyline
 90
       10
 70
     1
 43
0.0
 10
2777.987076117928
 20
1570.637044916829
 10
2771.887076117937
 20
1570.637044916829
 10
2771.887076117937
 20
1575.587044916848
 10
2770.637076117937
 20
1575.587044916848
 10
2769.837076117934
 20
1575.587044916848
 10
2769.837076117934
 20
1615.687044916839
 10
2770.637076117937
 20
1615.687044916824
 10
2771.887076117937
 20
1615.687044916824
 10
2771.887076117937
 20
1620.637044916821
 10
2777.987076117928
 20
1620.637044916821
  0
LWPOLYLINE
  5
3BC
330
1F
100
AcDbEntity
  8
外框线2
100
AcDbPolyline
 90
       10
 70
     1
 43
0.0
 10
3171.337597215819
 20
1392.287044916823
 10
3171.337597215819
 20
1386.187044916824
 10
3166.387597215808
 20
1386.187044916824
 10
3166.387597215808
 20
1384.937044916825
 10
3166.387597215808
 20
1384.137044916821
 10
3126.287597215816
 20
1384.137044916821
 10
3126.287597215831
 20
1384.937044916825
 10
3126.287597215831
 20
1386.187044916824
 10
3121.337597215834
 20
1386.187044916824
 10
3121.337597215834
 20
1392.287044916823
  0
LWPOLYLINE
  5
3BD
330
1F
100
AcDbEntity
  8
外框线2
100
AcDbPolyline
 90
       10
 70
     1
 43
0.0
 10
2891.337597215819
 20
1798.98704491682
 10
2891.337597215819
 20
1805.087044916819
 10
2896.287597215846
 20
1805.087044916819
 10
2896.287597215846
 20
1806.337044916818
 10
2896.287597215846
 20
1807.137044916814
 10
2936.387597215822
 20
1807.137044916814
 10
2936.387597215822
 20
1806.337044916818
 10
2936.387597215822
 20
1805.087044916819
 10
2941.337597215805
 20
1805.087044916819
 10
2941.337597215805
 20
1798.98704491682
  0
LWPOLYLINE
  5
3BE
330
1F
100
AcDbEntity
  8
外框线2
100
AcDbPolyline
 90
       10
 70
     1
 43
0.0
 10
3171.337597215819
 20
1798.98704491682
 10
3171.337597215819
 20
1805.087044916819
 10
3166.387597215808
 20
1805.087044916819
 10
3166.387597215808
 20
1806.337044916818
 10
3166.387597215808
 20
1807.137044916814
 10
3126.287597215816
 20
1807.137044916814
 10
3126.287597215831
 20
1806.337044916818
 10
3126.287597215831
 20
1805.087044916819
 10
3121.337597215834
 20
1805.087044916819
 10
3121.337597215834
 20
1798.98704491682
  0
DIMENSION
  5
3BF
330
1F
100
AcDbEntity
  8
标注
100
AcDbDimension
280
     0
  2
*D25
 10
3271.337597215805
 20
1405.637044916829
 30
0.0
 11
3245.071494041802
 21
1437.05608914553
 31
0.0
 70
   164
 71
     5
 42
9.999999999988403
 73
     0
 74
     0
 75
     0
  3
1-8-L
100
AcDbRadialDimension
 15
3277.751476189786
 25
1397.964877263102
 35
0.0
 40
0.0
1001
ACAD
1000
DSTYLE
1002
{
1070
    49
1040
5.0
1070
    50
1040
1.570796326794896
1070
    90
1070
     1
1070
   288
1070
     1
1070
   290
1070
     1
1070
   345
1005
14
1002
}
1001
ACAD_DSTYLE_DIMRADIAL_EXTENSION
1000

  0
CIRCLE
  5
3C0
102
{ACAD_REACTORS
330
3E9
102
}
330
1F
100
AcDbEntity
  8
0
 62
     3
370
    -3
100
AcDbCircle
 10
3031.337597215834
 20
1675.637044916807
 30
0.0
 40
49.5
  0
ARC
  5
3C1
330
1F
100
AcDbEntity
  8
0
 62
     3
370
    -3
100
AcDbCircle
 10
3031.337597215834
 20
1675.637044916807
 30
0.0
 40
19.0
100
AcDbArc
 50
48.87650363046812
 51
71.12349636959449
  0
ARC
  5
3C2
330
1F
100
AcDbEntity
  8
0
 62
     3
370
    -3
100
AcDbCircle
 10
3042.51822893158
 20
1688.443038608694
 30
0.0
 40
2.0
100
AcDbArc
 50
299.9999999999682
 51
48.87650363046812
  0
ARC
  5
3C3
330
1F
100
AcDbEntity
  8
0
 62
     3
370
    -3
100
AcDbCircle
 10
3036.837597215834
 20
1691.722752858954
 30
0.0
 40
2.0
100
AcDbArc
 50
71.12349636959449
 51
180.0
  0
ARC
  5
3C4
330
1F
100
AcDbEntity
  8
0
 62
     3
370
    -3
100
AcDbCircle
 10
3031.337597215834
 20
1675.637044916807
 30
0.0
 40
19.0
100
AcDbArc
 50
108.8765036304055
 51
131.1234963695318
  0
ARC
  5
3C5
330
1F
100
AcDbEntity
  8
0
 62
     3
370
    -3
100
AcDbCircle
 10
3020.156965500088
 20
1688.443038608694
 30
0.0
 40
2.0
100
AcDbArc
 50
131.1234963695318
 51
240.0000000000318
  0
ARC
  5
3C6
330
1F
100
AcDbEntity
  8
0
 62
     3
370
    -3
100
AcDbCircle
 10
3025.837597215834
 20
1691.722752858954
 30
0.0
 40
2.0
100
AcDbArc
 50
0.0
 51
108.8765036304055
  0
ARC
  5
3C7
330
1F
100
AcDbEntity
  8
0
 62
     3
370
    -3
100
AcDbCircle
 10
3031.337597215834
 20
1675.637044916807
 30
0.0
 40
19.0
100
AcDbArc
 50
168.8765036531282
 51
191.1234963926637
  0
ARC
  5
3C8
330
1F
100
AcDbEntity
  8
0
 62
     3
370
    -3
100
AcDbCircle
 10
3014.656965501427
 20
1672.357330659758
 30
0.0
 40
2.0
100
AcDbArc
 50
191.1234963924491
 51
299.9999998555889
  0
ARC
  5
3C9
330
1F
100
AcDbEntity
  8
0
 62
     3
370
    -3
100
AcDbCircle
 10
3014.656965498749
 20
1678.916759160272
 30
0.0
 40
2.0
100
AcDbArc
 50
59.99999985463126
 51
168.8765036531282
  0
ARC
  5
3CA
330
1F
100
AcDbEntity
  8
0
 62
     3
370
    -3
100
AcDbCircle
 10
3031.337597215834
 20
1675.637044916807
 30
0.0
 40
19.0
100
AcDbArc
 50
228.8765036304681
 51
251.1234963695945
  0
ARC
  5
3CB
330
1F
100
AcDbEntity
  8
0
 62
     3
370
    -3
100
AcDbCircle
 10
3020.156965500088
 20
1662.83105122492
 30
0.0
 40
2.0
100
AcDbArc
 50
119.9999999999682
 51
228.8765036304681
  0
ARC
  5
3CC
330
1F
100
AcDbEntity
  8
0
 62
     3
370
    -3
100
AcDbCircle
 10
3025.837597215834
 20
1659.551336974659
 30
0.0
 40
2.0
100
AcDbArc
 50
251.1234963695945
 51
0.0
  0
ARC
  5
3CD
330
1F
100
AcDbEntity
  8
0
 62
     3
370
    -3
100
AcDbCircle
 10
3031.337597215834
 20
1675.637044916807
 30
0.0
 40
19.0
100
AcDbArc
 50
288.8765036304055
 51
311.1234963695319
  0
ARC
  5
3CE
330
1F
100
AcDbEntity
  8
0
 62
     3
370
    -3
100
AcDbCircle
 10
3036.837597215834
 20
1659.551336974659
 30
0.0
 40
2.0
100
AcDbArc
 50
180.0
 51
288.8765036304055
  0
ARC
  5
3CF
330
1F
100
AcDbEntity
  8
0
 62
     3
370
    -3
100
AcDbCircle
 10
3042.51822893158
 20
1662.83105122492
 30
0.0
 40
2.0
100
AcDbArc
 50
311.1234963695319
 51
60.0000000000318
  0
ARC
  5
3D0
330
1F
100
AcDbEntity
  8
0
 62
     3
370
    -3
100
AcDbCircle
 10
3031.337597215834
 20
1675.637044916807
 30
0.0
 40
19.0
100
AcDbArc
 50
348.8765036304379
 51
11.12349636956211
  0
ARC
  5
3D1
330
1F
100
AcDbEntity
  8
0
 62
     3
370
    -3
100
AcDbCircle
 10
3048.01822893158
 20
1672.357330666547
 30
0.0
 40
2.0
100
AcDbArc
 50
240.0000000000318
 51
348.8765036304379
  0
ARC
  5
3D2
330
1F
100
AcDbEntity
  8
0
 62
     3
370
    -3
100
AcDbCircle
 10
3048.01822893158
 20
1678.91675916706
 30
0.0
 40
2.0
100
AcDbArc
 50
11.12349636956211
 51
119.9999999999682
  0
CIRCLE
  5
3D3
330
1F
100
AcDbEntity
  8
0
 62
     3
370
    -3
100
AcDbCircle
 10
3031.337597215834
 20
1675.637044916807
 30
0.0
 40
23.5
  0
LINE
  5
3D4
330
1F
100
AcDbEntity
  8
0
 62
     3
370
    -3
100
AcDbLine
 10
3027.837597215834
 20
1691.722752858954
 30
0.0
 11
3027.837597215834
 21
1685.163324358434
 31
0.0
  0
LINE
  5
3D5
330
1F
100
AcDbEntity
  8
0
 62
     3
370
    -3
100
AcDbLine
 10
3027.837597215834
 20
1666.110765475173
 30
0.0
 11
3027.837597215834
 21
1659.551336974659
 31
0.0
  0
LINE
  5
3D6
330
1F
100
AcDbEntity
  8
0
 62
     3
370
    -3
100
AcDbLine
 10
3034.837597215834
 20
1691.722752858954
 30
0.0
 11
3034.837597215834
 21
1685.163324358434
 31
0.0
  0
LINE
  5
3D7
330
1F
100
AcDbEntity
  8
0
 62
     3
370
    -3
100
AcDbLine
 10
3034.837597215834
 20
1666.11076547518
 30
0.0
 11
3034.837597215834
 21
1659.551336974659
 31
0.0
  0
ARC
  5
3D8
330
1F
100
AcDbEntity
  8
0
 62
     3
370
    -3
100
AcDbCircle
 10
3036.837597215834
 20
1666.11076547518
 30
0.0
 40
2.0
100
AcDbArc
 50
60.0000000000318
 51
180.0
  0
LINE
  5
3D9
330
1F
100
AcDbEntity
  8
0
 62
     3
370
    -3
100
AcDbLine
 10
3015.656965503115
 20
1680.648809965304
 30
0.0
 11
3021.337597215834
 21
1677.36909569764
 31
0.0
  0
ARC
  5
3DA
330
1F
100
AcDbEntity
  8
0
 62
     3
370
    -3
100
AcDbCircle
 10
3020.337597215834
 20
1675.637044890075
 30
0.0
 40
2.0
100
AcDbArc
 50
299.9999999999682
 51
60.0000000000318
  0
LINE
  5
3DB
330
1F
100
AcDbEntity
  8
0
 62
     3
370
    -3
100
AcDbLine
 10
3037.837597215834
 20
1667.842816282745
 30
0.0
 11
3043.51822893158
 21
1664.563102032484
 31
0.0
  0
LINE
  5
3DC
330
1F
100
AcDbEntity
  8
0
 62
     3
370
    -3
100
AcDbLine
 10
3019.156965500088
 20
1686.710987801122
 30
0.0
 11
3024.837597215834
 21
1683.431273550869
 31
0.0
  0
ARC
  5
3DD
330
1F
100
AcDbEntity
  8
0
 62
     3
370
    -3
100
AcDbCircle
 10
3025.837597215834
 20
1685.163324358434
 30
0.0
 40
2.0
100
AcDbArc
 50
240.0000000000318
 51
0.0
  0
LINE
  5
3DE
330
1F
100
AcDbEntity
  8
0
 62
     3
370
    -3
100
AcDbLine
 10
3041.337597215834
 20
1673.904994109242
 30
0.0
 11
3047.01822893158
 21
1670.625279858982
 31
0.0
  0
ARC
  5
3DF
330
1F
100
AcDbEntity
  8
0
 62
     3
370
    -3
100
AcDbCircle
 10
3042.337597215834
 20
1675.637044916807
 30
0.0
 40
2.0
100
AcDbArc
 50
119.9999999999682
 51
240.0000000000318
  0
LINE
  5
3E0
330
1F
100
AcDbEntity
  8
0
 62
     3
370
    -3
100
AcDbLine
 10
3019.156965500088
 20
1664.563102032484
 30
0.0
 11
3024.837597215834
 21
1667.842816282745
 31
0.0
  0
ARC
  5
3E1
330
1F
100
AcDbEntity
  8
0
 62
     3
370
    -3
100
AcDbCircle
 10
3025.837597215834
 20
1666.110765475173
 30
0.0
 40
2.0
100
AcDbArc
 50
0.0
 51
119.9999999999682
  0
LINE
  5
3E2
330
1F
100
AcDbEntity
  8
0
 62
     3
370
    -3
100
AcDbLine
 10
3041.337597215834
 20
1677.369095724379
 30
0.0
 11
3047.01822893158
 21
1680.648809974632
 31
0.0
  0
LINE
  5
3E3
330
1F
100
AcDbEntity
  8
0
 62
     3
370
    -3
100
AcDbLine
 10
3015.656965497032
 20
1670.625279849654
 30
0.0
 11
3021.337597215834
 21
1673.904994082503
 31
0.0
  0
LINE
  5
3E4
330
1F
100
AcDbEntity
  8
0
 62
     3
370
    -3
100
AcDbLine
 10
3037.837597215834
 20
1683.431273550869
 30
0.0
 11
3043.51822893158
 21
1686.71098780113
 31
0.0
  0
ARC
  5
3E5
330
1F
100
AcDbEntity
  8
0
 62
     3
370
    -3
100
AcDbCircle
 10
3036.837597215834
 20
1685.163324358434
 30
0.0
 40
2.0
100
AcDbArc
 50
180.0
 51
299.9999999999682
  0
CIRCLE
  5
3E6
330
1F
100
AcDbEntity
  8
0
 62
     3
370
    -3
100
AcDbCircle
 10
3031.337597215834
 20
1675.637044916807
 30
0.0
 40
22.0
  0
DIMENSION
  5
3E7
102
{ACAD_XDICTIONARY
360
3E8
102
}
102
{ACAD_REACTORS
330
3E9
102
}
330
1F
100
AcDbEntity
  8
标注
100
AcDbDimension
280
     0
  2
*D28
 10
2983.541978652744
 20
1688.51449987371
 30
0.0
 11
3133.194891953618
 21
1648.193886643073
 31
0.0
 70
   163
 71
     5
 42
98.99999999995408
 73
     0
 74
     0
 75
     0
  3
1-8-L
100
AcDbDiametricDimension
 15
3079.133215778968
 25
1662.759589959891
 35
0.0
 40
0.0
1001
ACAD_DSTYLE_DIMRADIAL_EXTENSION
1000

  0
CIRCLE
  5
3EA
330
1F
100
AcDbEntity
  8
0
 62
     3
370
    -3
100
AcDbCircle
 10
3031.337597215834
 20
1675.637044916807
 30
0.0
 40
6.049999999999999
  0
LINE
  5
3EB
330
1F
100
AcDbEntity
  8
外框线1
100
AcDbLine
 10
2969.337597215776
 20
1070.357521427567
 30
0.0
 11
3093.337597215775
 21
1070.357521427567
 31
0.0
  0
LINE
  5
3EC
330
1F
100
AcDbEntity
  8
0
 62
     3
370
    -3
100
AcDbLine
 10
3052.256458385755
 20
1041.857521427574
 30
0.0
 11
3031.337597215834
 21
1041.857521427574
 31
0.0
  0
LINE
  5
3ED
330
1F
100
AcDbEntity
  8
0
 62
     3
370
    -3
100
AcDbLine
 10
3068.337597215834
 20
1046.357521427567
 30
0.0
 11
3055.918736045927
 21
1046.357521427574
 31
0.0
  0
LINE
  5
3EE
330
1F
100
AcDbEntity
  8
0
 62
     3
370
    -3
100
AcDbLine
 10
3080.837597215834
 20
1070.357521427567
 30
0.0
 11
3080.837597215834
 21
1058.857521427567
 31
0.0
  0
ARC
  5
3EF
330
1F
100
AcDbEntity
  8
0
 62
     3
370
    -3
100
AcDbCircle
 10
3083.837597215834
 20
1067.357521427567
 30
0.0
 40
3.0
100
AcDbArc
 50
90.0
 51
180.0
  0
ARC
  5
3F0
330
1F
100
AcDbEntity
  8
0
 62
     3
370
    -3
100
AcDbCircle
 10
3068.337597215834
 20
1058.857521427567
 30
0.0
 40
12.5
100
AcDbArc
 50
270.0
 51
0.0
  0
LINE
  5
3F1
330
1F
100
AcDbEntity
  8
0
 62
     3
370
    -3
100
AcDbLine
 10
3054.495711098856
 20
1045.331863076598
 30
0.0
 11
3053.679483332841
 21
1042.883179778543
 31
0.0
  0
ARC
  5
3F2
330
1F
100
AcDbEntity
  8
0
 62
     3
370
    -3
100
AcDbCircle
 10
3055.918736045927
 20
1044.857521427574
 30
0.0
 40
1.5
100
AcDbArc
 50
90.0
 51
161.5650511766866
  0
ARC
  5
3F3
330
1F
100
AcDbEntity
  8
0
 62
     3
370
    -3
100
AcDbCircle
 10
3052.256458385755
 20
1043.357521427574
 30
0.0
 40
1.5
100
AcDbArc
 50
270.0
 51
341.5650511766866
  0
LINE
  5
3F4
330
1F
100
AcDbEntity
  8
0
 62
     3
370
    -3
100
AcDbLine
 10
3080.837597215819
 20
1070.357521427567
 30
0.0
 11
3031.337597215834
 21
1070.357521427567
 31
0.0
  0
LINE
  5
3F5
330
1F
100
AcDbEntity
  8
0
 62
     3
370
    -3
100
AcDbLine
 10
3010.418736045928
 20
1041.857521427574
 30
0.0
 11
3031.337597215834
 21
1041.857521427574
 31
0.0
  0
LINE
  5
3F6
330
1F
100
AcDbEntity
  8
0
 62
     3
370
    -3
100
AcDbLine
 10
2994.337597215834
 20
1046.357521427567
 30
0.0
 11
3006.756458385755
 21
1046.357521427574
 31
0.0
  0
LINE
  5
3F7
330
1F
100
AcDbEntity
  8
0
 62
     3
370
    -3
100
AcDbLine
 10
2981.837597215834
 20
1070.357521427567
 30
0.0
 11
2981.837597215834
 21
1058.857521427567
 31
0.0
  0
ARC
  5
3F8
330
1F
100
AcDbEntity
  8
0
 62
     3
370
    -3
100
AcDbCircle
 10
2978.837597215834
 20
1067.357521427567
 30
0.0
 40
3.0
100
AcDbArc
 50
0.0
 51
90.0
  0
ARC
  5
3F9
330
1F
100
AcDbEntity
  8
0
 62
     3
370
    -3
100
AcDbCircle
 10
2994.337597215834
 20
1058.857521427567
 30
0.0
 40
12.5
100
AcDbArc
 50
180.0
 51
270.0
  0
LINE
  5
3FA
330
1F
100
AcDbEntity
  8
0
 62
     3
370
    -3
100
AcDbLine
 10
3008.179483332841
 20
1045.331863076598
 30
0.0
 11
3008.995711098857
 21
1042.883179778543
 31
0.0
  0
ARC
  5
3FB
330
1F
100
AcDbEntity
  8
0
 62
     3
370
    -3
100
AcDbCircle
 10
3006.756458385755
 20
1044.857521427574
 30
0.0
 40
1.5
100
AcDbArc
 50
18.43494882331338
 51
90.0
  0
ARC
  5
3FC
330
1F
100
AcDbEntity
  8
0
 62
     3
370
    -3
100
AcDbCircle
 10
3010.418736045928
 20
1043.357521427574
 30
0.0
 40
1.5
100
AcDbArc
 50
198.4349488233133
 51
270.0
  0
LINE
  5
3FD
330
1F
100
AcDbEntity
  8
0
 62
     3
370
    -3
100
AcDbLine
 10
2981.837597215834
 20
1070.357521427567
 30
0.0
 11
3031.337597215834
 21
1070.357521427567
 31
0.0
  0
LINE
  5
3FE
330
1F
100
AcDbEntity
  8
外框线1
100
AcDbLine
 10
2969.337597215834
 20
1070.357521427567
 30
0.0
 11
3093.337597215834
 21
1070.357521427567
 31
0.0
  0
LINE
  5
3FF
330
1F
100
AcDbEntity
  8
外框线1
100
AcDbLine
 10
3082.337597215834
 20
1070.357521427567
 30
0.0
 11
2980.337597215834
 21
1070.357521427567
 31
0.0
  0
LINE
  5
400
330
1F
100
AcDbEntity
  8
外框线1
100
AcDbLine
 10
3008.087597215834
 20
1200.857521427567
 30
0.0
 11
3054.587597215834
 21
1200.857521427567
 31
0.0
  0
ARC
  5
401
330
1F
100
AcDbEntity
  8
外框线1
100
AcDbCircle
 10
3008.087597215834
 20
1207.857521427567
 30
0.0
 40
7.0
100
AcDbArc
 50
180.0
 51
270.0
  0
LINE
  5
402
330
1F
100
AcDbEntity
  8
外框线1
100
AcDbLine
 10
3061.587597215834
 20
1207.857521427567
 30
0.0
 11
3061.587597215834
 21
1218.357521427567
 31
0.0
  0
ARC
  5
403
330
1F
100
AcDbEntity
  8
外框线1
100
AcDbCircle
 10
3054.587597215834
 20
1207.857521427567
 30
0.0
 40
7.0
100
AcDbArc
 50
270.0
 51
0.0
  0
LINE
  5
404
330
1F
100
AcDbEntity
  8
外框线1
100
AcDbLine
 10
3054.587597215834
 20
1225.357521427567
 30
0.0
 11
3008.087597215834
 21
1225.357521427567
 31
0.0
  0
ARC
  5
405
330
1F
100
AcDbEntity
  8
外框线1
100
AcDbCircle
 10
3054.587597215834
 20
1218.357521427567
 30
0.0
 40
7.0
100
AcDbArc
 50
0.0
 51
90.0
  0
LINE
  5
406
330
1F
100
AcDbEntity
  8
外框线1
100
AcDbLine
 10
3001.087597215834
 20
1218.357521427567
 30
0.0
 11
3001.087597215834
 21
1207.857521427567
 31
0.0
  0
ARC
  5
407
330
1F
100
AcDbEntity
  8
外框线1
100
AcDbCircle
 10
3008.087597215834
 20
1218.357521427567
 30
0.0
 40
7.0
100
AcDbArc
 50
90.0
 51
180.0
  0
LINE
  5
408
330
1F
100
AcDbEntity
  8
外框线1
100
AcDbLine
 10
3008.087597215834
 20
1200.857521427567
 30
0.0
 11
3054.587597215834
 21
1200.857521427567
 31
0.0
  0
ARC
  5
409
330
1F
100
AcDbEntity
  8
外框线1
100
AcDbCircle
 10
3008.087597215834
 20
1207.857521427567
 30
0.0
 40
7.0
100
AcDbArc
 50
180.0
 51
270.0
  0
LINE
  5
40A
330
1F
100
AcDbEntity
  8
外框线1
100
AcDbLine
 10
3061.587597215834
 20
1207.857521427567
 30
0.0
 11
3061.587597215834
 21
1218.357521427567
 31
0.0
  0
ARC
  5
40B
330
1F
100
AcDbEntity
  8
外框线1
100
AcDbCircle
 10
3054.587597215834
 20
1207.857521427567
 30
0.0
 40
7.0
100
AcDbArc
 50
270.0
 51
0.0
  0
LINE
  5
40C
330
1F
100
AcDbEntity
  8
外框线1
100
AcDbLine
 10
3054.587597215834
 20
1225.357521427567
 30
0.0
 11
3008.087597215834
 21
1225.357521427567
 31
0.0
  0
ARC
  5
40D
330
1F
100
AcDbEntity
  8
外框线1
100
AcDbCircle
 10
3054.587597215834
 20
1218.357521427567
 30
0.0
 40
7.0
100
AcDbArc
 50
0.0
 51
90.0
  0
LINE
  5
40E
330
1F
100
AcDbEntity
  8
外框线1
100
AcDbLine
 10
3001.087597215834
 20
1218.357521427567
 30
0.0
 11
3001.087597215834
 21
1207.857521427567
 31
0.0
  0
ARC
  5
40F
330
1F
100
AcDbEntity
  8
外框线1
100
AcDbCircle
 10
3008.087597215834
 20
1218.357521427567
 30
0.0
 40
7.0
100
AcDbArc
 50
90.0
 51
180.0
  0
DIMENSION
  5
410
330
1F
100
AcDbEntity
  8
标注
100
AcDbDimension
280
     0
  2
*D15
 10
2948.280798165108
 20
1255.357521427567
 30
0.0
 11
2948.280798165108
 21
1172.90851296813
 31
0.0
 70
   160
 71
     5
 42
30.0
 73
     0
 74
     0
 75
     0
  3
1-8-L
100
AcDbAlignedDimension
 13
3008.087597215834
 23
1225.357521427567
 33
0.0
 14
3031.337597215834
 24
1255.357521427567
 34
0.0
 50
90.0
100
AcDbRotatedDimension
  0
DIMENSION
  5
411
330
1F
100
AcDbEntity
  8
标注
100
AcDbDimension
280
     0
  2
*D16
 10
3061.587597215834
 20
1159.669393455912
 30
0.0
 11
3031.337597215834
 21
1174.063936429991
 31
0.0
 70
    32
 71
     5
 42
60.5
 73
     0
 74
     0
 75
     0
  3
1-8-L
100
AcDbAlignedDimension
 13
3001.087597215834
 23
1207.857521427567
 33
0.0
 14
3061.587597215834
 24
1207.857521427567
 34
0.0
100
AcDbRotatedDimension
  0
DIMENSION
  5
412
330
1F
100
AcDbEntity
  8
标注
100
AcDbDimension
280
     0
  2
*D17
 10
2981.183433874665
 20
1200.857521427567
 30
0.0
 11
2966.788890900586
 21
1147.734192641755
 31
0.0
 70
    32
 71
     5
 42
24.5
 73
     0
 74
     0
 75
     0
  3
1-8-L
100
AcDbAlignedDimension
 13
3008.087597215834
 23
1225.357521427567
 33
0.0
 14
3008.087597215834
 24
1200.857521427567
 34
0.0
 50
90.0
100
AcDbRotatedDimension
  0
DIMENSION
  5
413
330
1F
100
AcDbEntity
  8
标注
100
AcDbDimension
280
     0
  2
*D18
 10
2697.686555131945
 20
1255.357521427567
 30
0.0
 11
2697.686555131944
 21
1148.607521427581
 31
0.0
 70
   160
 71
     5
 42
213.4999999999927
 73
     0
 74
     0
 75
     0
  3
1-8-L
100
AcDbAlignedDimension
 13
3010.418736045928
 23
1041.857521427574
 33
0.0
 14
2761.337597215834
 24
1255.357521427567
 34
0.0
 50
90.0
100
AcDbRotatedDimension
  0
LINE
  5
414
330
1F
100
AcDbEntity
  8
外框线1
100
AcDbLine
 10
2781.48374489348
 20
1252.010189283345
 30
0.0
 11
2788.86731691559
 21
1082.898586778891
 31
0.0
  0
ARC
  5
415
330
1F
100
AcDbEntity
  8
外框线1
100
AcDbCircle
 10
2798.857799131403
 20
1083.334780652539
 30
0.0
 40
10.0
100
AcDbArc
 50
182.5000000001747
 51
269.0000000001285
  0
LINE
  5
416
330
1F
100
AcDbEntity
  8
外框线1
100
AcDbLine
 10
3281.191449538188
 20
1252.010189283345
 30
0.0
 11
3273.807877516077
 21
1082.898586778884
 31
0.0
  0
ARC
  5
417
102
{ACAD_REACTORS
330
41A
102
}
330
1F
100
AcDbEntity
  8
外框线1
100
AcDbCircle
 10
3263.817395300264
 20
1083.334780652539
 30
0.0
 40
10.0
100
AcDbArc
 50
270.9999999998715
 51
357.4999999998253
  0
DIMENSION
  5
418
102
{ACAD_XDICTIONARY
360
419
102
}
102
{ACAD_REACTORS
330
41A
102
}
330
1F
100
AcDbEntity
  8
标注
100
AcDbDimension
280
     0
  2
*D26
 10
3263.817395300264
 20
1083.334780652539
 30
0.0
 11
3229.741514749817
 21
1106.048188166845
 31
0.0
 70
   164
 71
     5
 42
9.999999999904957
 73
     0
 74
     0
 75
     0
  3
1-8-L
100
AcDbRadialDimension
 15
3272.138331692399
 25
1077.788428918638
 35
0.0
 40
0.0
1001
ACAD
1000
DSTYLE
1002
{
1070
    49
1040
5.0
1070
    50
1040
1.570796326794896
1070
    90
1070
     1
1070
   288
1070
     1
1070
   290
1070
     1
1070
   345
1005
14
1002
}
1001
ACAD_DSTYLE_DIMRADIAL_EXTENSION
1070
   387
1070
     1
1070
   388
1040
4.72984227290239
1070
   390
1040
6.239552075876678
  0
LINE
  5
41B
330
1F
100
AcDbEntity
  8
标注
100
AcDbLine
 10
3031.337597215834
 20
1675.637044916821
 30
0.0
 11
3098.159832337924
 21
1675.637044916821
 31
0.0
  0
TEXT
  5
41C
330
1F
100
AcDbEntity
  8
注释
100
AcDbText
 10
3020.573290012338
 20
1435.295682145691
 30
-0.1148888220597928
 40
12.87982080000001
  1
Direction
  7
新宋体
 72
     1
 11
3060.439402012339
 21
1441.735592545691
 31
-0.1148888220597928
100
AcDbText
 73
     2
  0
HELIX
  5
41D
330
1F
100
AcDbEntity
  8
外框线3
160
              4628
310
14120000010000000C12000006000000C000000014C2BD1260E6A740441420AF59239740E33A6C955A69BDBF5155404D22E6A7400E8519A0FB229740BA689B85DB56BCBFE17D278DEAE5A740330713BF842297409096CA755C44BBBF09C1D956BAE5A7400FAE8474F721974067C4F965DD31BABF13A4BD2E93E5A740FF8CE6
310
28562197403EF228565E1FB9BF45AC399976E5A7405FB7B044A320974014205846DF0CB8BFE95EB41A66E5A7408B405B30E11F9740EB4D873660FAB6BF4441943763E5A740DF3B5E54121F9740C27BB626E1E7B5BF73EE19FA6FE5A7407316D0E0391E974099A9E51662D5B4BF1E6EF0988DE5A740FDE727875C1D974070D7
310
1407E3C2B3BF4DA26C93BBE5A7402F2310677E1C9740460544F763B0B2BF3E15B963F9E5A7400449679CA31B97401D3373E7E49DB1BF2E51008446E6A74077DA0B43D01A9740F460A2D7658BB0BF5DE06C6EA2E6A7408458DC76081A9740961DA38FCDF1AEBF084D299D0CE7A7402644B7535019974044790170CFCCACBF6F
310
21608A84E7A740571E7BF5AB189740F2D45F50D1A7AABFCFE73BB009E8A740146806781F189740A030BE30D382A8BF662AE7889BE8A74058A237F7AE1797404E8C1C11D55DA6BF74738C8E39E9A7401E4EED8E5E179740FCE77AF1D638A4BF0EAAC982E2E9A740E4A8336233179740A643D9D1D813A2BF178BF33D93EAA740
310
5CDCC29B31179740A83E6F64B5DD9FBF7DEB0F2C49EBA74026AEA35F5917974001F62B25B9939BBFF57AE4C201ECA740AD5B5FB6AA1797405CADE8E5BC4997BF30E93678BAECA7405B227FA825189740B864A5A6C0FF92BFE2E5CCC170EDA7409D3F8C3ECA1897402838C4CE886B8DBFBD206C1522EEA740DEF00F81981997
310
40E0A63D5090D784BF7649DAE8CBEEA7408A739378901A97402C2B6EA32F8778BFBE0FDDB16BEFA7400B05A02DB21B974080228499FA7C5DBF48233AE6FEEFA740CDE2BEA8FD1C9740F03358AD6491633FC933B7FB82F0A7403D4A79F2721E9740883CB953A3F07A3F42A8C5C2F4F0A740D30B6B2611209740872F63284A0C
310
863FC030FBA450F1A74014091BE3D2219740D0C0E9A642A08E3F52A5238495F1A740A378DE51B22397400D29B8921D9A933F5BCFF362C2F1A74082BD92AEA9259740B271FBD119E4973F3C782044D6F1A740B63A1535B327974056BA3E11162E9C3F56695E2AD0F1A74042534321C92997407E014128093CA03F0C6C6218AF
310
F1A7402A6AFAAEE52B9740D0A5E2470761A23FBF49E11072F1A74071E2171A032E9740234A84670586A43FD0CB8F1618F1A7401B1F799E1B30974075EE258703ABA63FA3BB222CA0F0A7402B83FB7729329740C892C7A601D0A83F97E24E5409F0A740A5717CE2263497401A3769C6FFF4AA3F511CE2BF52EFA740AB0ACCBB
310
0C3697406EDB0AE6FD19AD3FB3BF4AC47DEEA74021FB7DCBD0379740C07FAC05FC3EAF3FE3EA8E1D8DEDA740FAD3EDF16D3997400912A712FDB1B03F5A7DC98D83ECA7400E12D288DF3A974032E477227CC4B13F955615D763EBA7403432E1E9203C97405BB64832FBD6B23F0E568DBB30EAA74046B1D16E2D3D9740848819
310
427AE9B33F415B4CFDECE8A740190C5A71003E9740AD5AEA51F9FBB43FA8456D5E9BE7A74086BF304B953E9740D62CBB61780EB63FBFF40AA13EE6A74065480C56E73E9740FEFE8B71F720B73F00484087D9E4A7408D23A3EBF13E974028D15C817633B83FE71E28D36EE3A740D5CDAB65B03E974051A32D91F545B93F34CE
310
87E201E2A740829828F31D3E97407B75FEA07458BA3FF3A622C198E0A740E0C3CB91383D9740A447CFB0F36ABB3FDC43078437DFA740AF2DDDB0033C9740CD19A0C0727DBC3F7900A3E8E1DDA740D78C9F1F833A9740F6EB70D0F18FBD3F553863AC9BDCA740409855ADBA3897401EBE41E070A2BE3FF946B58C68DBA740D4
310
064229AE369740479012F0EFB4BF3FEF8706474CDAA7407A8FA7626134974038B1F17FB763C03FC356C4984AD9A7401BE9C828D83197404C1ADA07F7ECC03FFE0E5C3F67D8A7409FCAE84A162F97406083C28F3676C13F2A0C3BF8A5D7A740EEEA49981F2C974075ECAA1776FFC13FD1A9CE800AD7A740F1002FE0F7289740
310
8A55939FB588C23F5A0B82DB98D6A74082AE18D1A32597409DBE7B27F511C33FBD485A0555D6A740E4867AE82E229740B22764AF349BC33F1C7AF3383FD6A740CEA06779A31E9740C6904C377424C43F92FB3D3657D6A7401B0F5C1D0B1B9740DBF934BFB3ADC43F3B292ABD9CD6A740A4E4D36D6F179740EF621D47F336C5
310
3F335FA88D0FD7A74042344B04DA13974004CC05CF32C0C53F96F9A867AFD7A740D0103E7A541097401835EE567249C63F80541C0B7CD8A740268D2869E80C97402D9ED6DEB1D2C63F0CCCF23775D9A7401FBC866A9F0997404207BF66F15BC73F57BC1CAE9ADAA74093B0D417830697405670A7EE30E5C73F7C818A2DECDB
310
A7405D7D8E0A9D0397406AD98F76706EC83F430E6D2D69DDA74061FECE44F7009740804278FEAFF7C83FE0B1D8680DDFA7403C5CEC759DFE964095AB6086EF80C93F6B7284BCD3E0A740DEA2BCBE95FC9640A914490E2F0ACA3F5793CC57B7E2A74042D8CA23E5FA9640BE7D31966E93CA3F19580D6AB3E4A7406302A2A990
310
F99640D2E6191EAE1CCB3F2504A322C3E6A7403E27CD549DF89640E74F02A6EDA5CB3FF1DAE9B0E1E8A740CD4CD72910F89640FCB8EA2D2D2FCC3FF01F3E440AEBA7400D794B2DEEF796401022D3B56CB8CC3F9716FC0B38EDA740F8B1B4633CF89640258BBB3DAC41CD3FA515301F66EFA740A3BB4BD4FFF8964039F4A3C5
310
EBCACD3F4BD2C7768DF1A740AAE3B2113BFA96404F5D8C4D2B54CE3F420CB0EDA7F3A7407B0806EEE9FB964065C674D56ADDCE3F543B5B2AB0F5A74063444B2E07FE96407A2F5D5DAA66CF3F4DD73BD3A0F7A740B2B188978D009740909845E5E9EFCF3FF757C48E74F9A740B66AC4EE77039740D30097B6943CD03F1D3567
310
0326FBA740BF8904F9C00697405E358B7A3481D03F8AE696D7AFFCA7401A294F7B630A9740E9697F3ED4C5D03F09E4C5B10CFEA7401763AA3A5A0E9740749E7302740AD13FEDA3F13537FFA7407E000FF79F129740FFD267C6134FD13F8E217F8A2900A84087A9D23D2B1797408A075C8AB393D13F31EC88FAE000A84022D2
310
AD6BEE1B9740153C504E53D8D13F0F97C8525C01A8400B03AAC1DC209740A0704412F31CD23F62B5F75F9A01A840FEC4D080E92597402BA538D69261D23F66DACFEE9901A840B7A02BEA072B9740B6D92C9A32A6D23F54990ACC5901A840F41EC43E2B309740410E215ED2EAD23F678561C4D800A8406FC8A3BF46359740CC
310
421522722FD33FDA318EA41500A840E625D4AD4D3A9740577709E61174D33FE6314A390FFFA74014C05E4A333F9740E2ABFDA9B1B8D33FE0B79149C5FDA740F034A51FE84397406DE0F16D51FDD33F5AC357973BFCA7405FCB5A675D489740F814E631F141D43F837A29DE76FAA740D80839BF884C97408349DAF59086D43F
310
5A2A6CD97BF8A740A8F308C95F5097400E7ECEB930CBD43FDF1F85444FF6A7401E929326D853974099B2C27DD00FD53F11A8D9DAF5F3A74088EAA179E756974024E7B6417054D53FF00FCF5774F1A7403303FD6383599740AF1BAB051099D53F7BA4CA76CFEEA7406EE26D87A15B97403A509FC9AFDDD53FB1B231F30BECA7
310
40878EBD85375D9740C584938D4F22D63FD4914FB92FE9A740BDA3EEC93A5E974050B98751EF66D63F29B602AB43E6A740F7C422A4A65E9740DBED7B158FABD63F91A469624FE3A7405E7C19597C5E9740662270D92EF0D63F5FC6A6655AE0A740B5BDF14BBD5D9740F156649DCE34D73FE884DC3A6CDDA740BE7CCADF6A5C
310
97407C8B58616E79D73F81492D688CDAA7403BADC277865A974007C04C250EBED73F7E7DBB73C2D7A740F042F9761158974092F440E9AD02D83F348AA9E315D5A7409F318D400D5597401D2935AD4D47D83FF8D8193E8ED2A7400A6D9D377B519740A85D2971ED8BD83F4C590C9B33D0A7402A9EB0D35D4D974032921D358D
310
D0D83F9A0115520ECEA740BD4D3D0BC0489740BDC611F92C15D93FC6A146FB22CCA7404CD49EB7AF43974048FB05BDCC59D93FA406D5E075CAA74043F8B4933A3E9740D32FFA806C9ED93F0AFDF34C0BC9A7400E805F5A6E3897405D64EE440CE3D93FCF51D789E7C7A7401D327EC658329740E898E208AC27DA3FC8D1B2E1
310
0EC7A740DAD4F092072C974073CDD6CC4B6CDA3FCC49BA9E85C6A740B42E977A88259740FE01CB90EBB0DA3FAF86210B50C6A74018065138E91E97408936BF548BF5DA3FE646DF6D72C6A7408A95086D38189740146BB3182B3ADB3F5C304463EEC6A7408B12F62A8B1197409F9FA7DCCA7EDB3FDEB00E39C1C7A7404E57D0
310
C6F20A97402AD49BA06AC3DB3FB432DFE4E7C8A740CFFB446B7F049740B50890640A08DC3F2620565C5FCAA7400898014341FE9640403D8428AA4CDC3F7AE3139524CCA740F5C3B37848F89640CC7178EC4991DC3FF8E6B88434CEA74091170937A5F2964057A66CB0E9D5DC3FE894E5208CD0A740D62AAFA867ED9640E2DA
310
6074891ADD3F8F573A5F28D3A740C19553F89FE896406D0F5538295FDD3F364EA00E06D6A7402ED1F1925EE49640F84349FCC8A3DD3F732B19181ED9A740D76418C8B4E0964083783DC068E8DD3FA4CAEF5167DCA7409F338146AADD96400EAD3184082DDE3F9A136DF3D8DFA7402E80F96144DB964099E12548A871DE3F25
310
EED9336AE3A7402B8D4E6E88D9964024161A0C48B6DE3F14427F4A12E7A7403E9D4DBF7BD89640AF4A0ED0E7FADE3F38F7A56EC8EAA7400DF3C3A823D896403A7F0294873FDF3F62F596D783EEA74041D17E7E85D89640C5B3F6572784DF3F60249BBC3BF2A740807A4B94A6D9964050E8EA1BC7C8DF3F448E9449E7F5A740
310
BA232B3B8CDB96406C8EEF6FB306E03F78DCDFF87AF9A74004B1167937DE9640B2A8E9510329E03F9AEAFB02EDFCA740D1E056A09EE19640F7C2E333534BE03F93CC287F3500A840F4575D61B6E596403CDDDD15A36DE03F4D96A6844C03A8403EBB9B6C73EA964082F7D7F7F28FE03FAF5BB52A2A06A84082AF8372CAEF96
310
40C711D2D942B2E03FA2309588C608A84091D98623B0F596400C2CCCBB92D4E03F112986B5190BA8403EDE163019FC96405246C69DE2F6E03FE258C8C81B0DA8405A62A548FA0297409760C07F3219E13FFFD39BD9C40EA840B70AA41D480A9740DD7ABA61823BE13FCE92D3CB0C10A840A684C2FBF11197402495B443D25D
310
E13F7A193269F010A84060C746B1E01997406AAFAE252280E13F3C64BF526F11A8409477C2B7FF219740AFC9A80772A2E13FEEABB1298911A840A87448893A2A9740F5E3A2E9C1C4E13F68293F8F3D11A840FF9DEB9F7C3297403AFE9CCB11E7E13F86159E248C10A840FED2BE75B13A9740801897AD6109E23F22A9048B74
310
0FA84009F3D484C4429740C432918FB12BE23F151DA963F60DA84083DD4047A14A9740094D8B71014EE23F39AAC14F110CA840D3711537335297404E6785535170E23F1D08FB46C609A84055DD74096359974093817F35A192E23FBEE9764A1C07A8405C1B628E1A609740D89B7917F1B4E23F165816AF1B04A840E6B3BFC4
310
4B6697401CB673F940D7E23F836922C5CC00A840ED4E73D7E86B974061D06DDB90F9E23F6534E4DC37FDA740689462F1E3709740A6EA67BDE01BE33F1BCFA44665F9A7404F2C733D2F759740EA04629F303EE33F0750AD525DF5A7409ABE8AE6BC7897402F1F5C818060E33F86CD465128F1A74040F38E177F7B9740743956
310
63D082E33FF95DBA92CEECA740397265FB677D9740B953504520A5E33FE080449359E8A740C81D6AC06A7E9740FC6D4A2770C7E33FD053E9E4D6E3A740304B41CB847E974041884409C0E9E33FAE12CB0D52DFA740A1F55851B97D974086A23EEB0F0CE43F65A5E852D6DAA740F5C497970B7C9740CBBC38CD5F2EE43FDDF3
310
40F96ED6A7400561E4E27E7997400FD732AFAF50E43FFFE5D24527D2A740AC7125781676974054F12C91FF72E43FB5639D7D0ACEA740C39E419CD5719740990B27734F95E43FE8549FE523CAA74024901F94BF6C9740DE2521559FB7E43F3FD679A47FC6A740FCB9B766DB66974023401B37EFD9E43FC1793A5D27C3A74065
310
511C813A609740685A15193FFCE43F5E1D4A5922C0A740C265F993EF589740AD740FFB8E1EE53FDB75DCE177BDA740FB52CD4F0D519740F18E09DDDE40E53FFF3725402FBBA740F7741665A648974036A903BF2E63E53F8E1858BD4FB9A7409D275384CD3F97407BC3FDA07E85E53F4FCCA8A2E0B7A740D4C6015E95369740
310
C0DDF782CEA7E53FF964B501E9B6A7402188CDF4102D974004F8F1641ECAE53F4DB94D4F6BB6A740411420AF592397404912EC466EECE53F
100
AcDbSpline
 70
     0
 71
     3
 72
    48
 73
    44
 74
     0
 42
0.000000001
 43
0.0000000001
 40
0.0
 40
0.0
 40
0.0
 40
0.0
 40
0.7045333540549116
 40
0.7045333540549116
 40
1.797525659451334
 40
1.797525659451334
 40
2.890517964847757
 40
2.890517964847757
 40
3.98351027024418
 40
3.98351027024418
 40
5.076502575640603
 40
5.076502575640603
 40
6.169494881037026
 40
6.169494881037026
 40
7.26248718643345
 40
7.26248718643345
 40
8.166390104177962
 40
8.166390104177962
 40
9.070293021922473
 40
9.070293021922473
 40
9.974195939666985
 40
9.974195939666985
 40
10.87809885741149
 40
10.87809885741149
 40
11.78200177515601
 40
11.78200177515601
 40
12.68590469290052
 40
12.68590469290052
 40
13.58980761064503
 40
13.58980761064503
 40
14.49371052838954
 40
14.49371052838954
 40
15.39761344613405
 40
15.39761344613405
 40
16.30151636387857
 40
16.30151636387857
 40
17.20541928162308
 40
17.20541928162308
 40
17.96358844124179
 40
17.96358844124179
 40
18.7217576008605
 40
18.7217576008605
 40
18.84955592153876
 40
18.84955592153876
 40
18.84955592153876
 40
18.84955592153876
 10
3059.187642984334
 20
1480.837582112538
 30
-0.1148888220597928
 10
3058.888903170051
 20
1480.649706551456
 30
-0.1049217139823749
 10
3058.664882671337
 20
1480.235971460892
 30
-0.094954605904957
 10
3058.7424116557
 20
1478.96795567994
 30
-0.069524819768406
 10
3059.481542995531
 20
1478.02879753322
 30
-0.0540621417092729
 10
3061.88142209529
 20
1477.631182056363
 30
-0.0231367855910067
 10
3063.470066784777
 20
1478.260496038102
 30
-0.0076741075318736
 10
3065.178390753468
 20
1481.190112484453
 30
0.0232512485863926
 10
3065.18131864097
 20
1483.444700124129
 30
0.0387139266455257
 10
3062.609638976386
 20
1486.98359377463
 30
0.0696392827637918
 10
3060.03891810971
 20
1488.128043541585
 30
0.0851019608229249
 10
3054.767131807626
 20
1487.110875545519
 30
0.116027316941191
 10
3052.213315053407
 20
1484.896504492433
 30
0.1314899950003241
 10
3050.577507707205
 20
1478.740829990671
 30
0.1624153511185903
 10
3051.61265385591
 20
1474.928640220656
 30
0.1778780291777234
 10
3056.687212101481
 20
1470.499918689648
 30
0.2061283176754543
 10
3060.100707323201
 20
1469.519508272755
 30
0.2189159281140522
 10
3066.75203544594
 20
1470.862241940206
 30
0.2444911489912479
 10
3069.908809910718
 20
1473.20162946952
 30
0.2572787594298458
 10
3073.208434187927
 20
1479.90824706148
 30
0.2828539803070415
 10
3073.285808715065
 20
1484.214879847781
 30
0.2956415907456394
 10
3069.695258217845
 20
1491.546832124033
 30
0.3212168116228351
 10
3066.038319332596
 20
1494.476899260279
 30
0.334004422061433
 10
3057.368216146548
 20
1496.272009763194
 30
0.3595796429386287
 10
3052.444054627442
 20
1495.085898323594
 30
0.3723672533772266
 10
3045.181233483817
 20
1488.893300266925
 30
0.3979424742544223
 10
3042.943058301099
 20
1483.930353625557
 30
0.4107300846930201
 10
3043.399097505
 20
1473.705247399072
 30
0.4363053055702159
 10
3046.120370796148
 20
1468.556335998703
 30
0.4490929160088138
 10
3055.028460912831
 20
1462.229344314229
 30
0.4746681368860095
 10
3061.136699567626
 20
1461.146433509694
 30
0.4874557473246074
 10
3072.2675102273
 20
1464.474235836467
 30
0.5130309682018032
 10
3077.159750839176
 20
1468.879485469658
 30
0.525818578640401
 10
3081.641483809413
 20
1480.343681977813
 30
0.5513937995175967
 10
3081.152388647411
 20
1487.289781936681
 30
0.5641814099561947
 10
3074.529056184997
 20
1498.476824154098
 30
0.5897566308333903
 10
3068.439024682876
 20
1502.580069226027
 30
0.6025442412719881
 10
3055.95553855836
 20
1504.203916945649
 30
0.6260577512175323
 10
3049.860231858853
 20
1502.687755528542
 30
0.6367836507244787
 10
3040.19457949892
 20
1495.624156163424
 30
0.6582354497383714
 10
3036.684619464817
 20
1490.104038693278
 30
0.6689613492453177
 10
3035.385506804181
 20
1482.941695690561
 30
0.6814952251482451
 10
3035.263779107116
 20
1481.893113324547
 30
0.6833032015442262
 10
3035.209589413519
 20
1480.837582112538
 30
0.6851111779402073
100
AcDbHelix
 90
       33
 91
      142
 10
3059.987642984337
 20
1480.837582112538
 30
-0.1148888220597928
 11
3059.187642984334
 21
1480.837582112538
 31
-0.1148888220597928
 12
0.0
 22
0.0
 32
0.8
 40
24.77805357081816
 41
3.0
 42
0.2666666666666666
290
     1
280
     1
  0
ENDSEC
  0
SECTION
  2
OBJECTS
  0
DICTIONARY
  5
C
330
0
100
AcDbDictionary
281
     1
  3
ACAD_CIP_PREVIOUS_PRODUCT_INFO
350
216
  3
ACAD_COLOR
350
6B
  3
ACAD_DETAILVIEWSTYLE
350
21B
  3
ACAD_GROUP
350
D
  3
ACAD_LAYOUT
350
1A
  3
ACAD_MATERIAL
350
6A
  3
ACAD_MLEADERSTYLE
350
12D
  3
ACAD_MLINESTYLE
350
17
  3
ACAD_PLOTSETTINGS
350
19
  3
ACAD_PLOTSTYLENAME
350
E
  3
ACAD_SCALELIST
350
10C
  3
ACAD_SECTIONVIEWSTYLE
350
219
  3
ACAD_TABLESTYLE
350
7E
  3
ACAD_VISUALSTYLE
350
EF
  3
ACDB_RECOMPOSE_DATA
350
5E2
  3
AcDbVariableDictionary
350
5E
  0
DICTIONARY
  5
58B
330
8
100
AcDbDictionary
280
     1
281
     1
  0
DICTIONARY
  5
1FF
330
2
100
AcDbDictionary
280
     1
281
     1
  3
ACAD_LAYERSTATES
360
200
  0
DICTIONARY
  5
13C
330
10
100
AcDbDictionary
280
     1
281
     1
  0
DICTIONARY
  5
1CE
330
1F
100
AcDbDictionary
280
     1
281
     1
  0
DICTIONARY
  5
5CC
330
525
100
AcDbDictionary
280
     1
281
     1
  0
DICTIONARY
  5
3A9
330
3A8
100
AcDbDictionary
280
     1
281
     1
  3
ACAD_DIMASSOC
360
3AA
  0
DICTIONARY
  5
3E8
330
3E7
100
AcDbDictionary
280
     1
281
     1
  3
ACAD_DIMASSOC
360
3E9
  0
DICTIONARY
  5
419
330
418
100
AcDbDictionary
280
     1
281
     1
  3
ACAD_DIMASSOC
360
41A
  0
XRECORD
  5
216
102
{ACAD_REACTORS
330
C
102
}
330
C
100
AcDbXrecord
280
     1
300
ACDMAC
300
2022
300

  0
DICTIONARY
  5
6B
102
{ACAD_REACTORS
330
C
102
}
330
C
100
AcDbDictionary
281
     1
  0
DICTIONARY
  5
21B
102
{ACAD_REACTORS
330
C
102
}
330
C
100
AcDbDictionary
281
     1
  3
Metric50
350
21C
  0
DICTIONARY
  5
D
102
{ACAD_REACTORS
330
C
102
}
330
C
100
AcDbDictionary
281
     1
  0
DICTIONARY
  5
1A
102
{ACAD_REACTORS
330
C
102
}
330
C
100
AcDbDictionary
281
     1
  3
Model
350
22
  3
布局1
350
D3
  3
布局2
350
D7
1001
AcadStringInfo
1000
MIFCodePage
1070
     5
  0
DICTIONARY
  5
6A
102
{ACAD_REACTORS
330
C
102
}
330
C
100
AcDbDictionary
281
     1
  3
ByBlock
350
ED
  3
ByLayer
350
EC
  3
Global
350
EE
  0
DICTIONARY
  5
12D
102
{ACAD_REACTORS
330
C
102
}
330
C
100
AcDbDictionary
281
     1
  3
Annotative
350
13B
  3
Standard
350
12E
  0
DICTIONARY
  5
17
102
{ACAD_REACTORS
330
C
102
}
330
C
100
AcDbDictionary
281
     1
  3
Standard
350
18
  0
DICTIONARY
  5
19
102
{ACAD_REACTORS
330
C
102
}
330
C
100
AcDbDictionary
281
     1
  0
ACDBDICTIONARYWDFLT
  5
E
102
{ACAD_REACTORS
330
C
102
}
330
C
100
AcDbDictionary
281
     1
  3
Normal
350
F
100
AcDbDictionaryWithDefault
340
F
  0
DICTIONARY
  5
10C
102
{ACAD_REACTORS
330
C
102
}
330
C
100
AcDbDictionary
281
     1
  3
A0
350
10D
  3
A1
350
1BE
  3
A2
350
1BF
  3
A3
350
1C0
  3
A4
350
1C1
  3
A5
350
1C2
  3
A6
350
1C3
  3
A7
350
1C4
  3
A8
350
1C5
  3
A9
350
1C6
  3
B0
350
1C7
  3
B1
350
1C8
  3
B2
350
1C9
  3
B3
350
1CA
  3
B4
350
1CB
  3
B5
350
1CC
  3
B6
350
1CD
  0
DICTIONARY
  5
219
102
{ACAD_REACTORS
330
C
102
}
330
C
100
AcDbDictionary
281
     1
  3
Metric50
350
21A
  0
DICTIONARY
  5
7E
102
{ACAD_REACTORS
330
C
102
}
330
C
100
AcDbDictionary
281
     1
  3
Standard
350
7F
  0
DICTIONARY
  5
EF
102
{ACAD_REACTORS
330
C
102
}
330
C
100
AcDbDictionary
281
     1
  3
2dWireframe
350
F5
  3
3dWireframe
350
303
  3
Basic
350
F4
  3
Brighten
350
FB
  3
ColorChange
350
FF
  3
Conceptual
350
F8
  3
Dim
350
FA
  3
EdgeColorOff
350
1E6
  3
Facepattern
350
FE
  3
Flat
350
F0
  3
FlatWithEdges
350
F1
  3
Gouraud
350
F2
  3
GouraudWithEdges
350
F3
  3
Hidden
350
F7
  3
JitterOff
350
1E4
  3
Linepattern
350
FD
  3
OverhangOff
350
1E5
  3
Realistic
350
F9
  3
Shaded
350
1F3
  3
Shaded with edges
350
1F2
  3
Shades of Gray
350
1EF
  3
Sketchy
350
1F0
  3
Thicken
350
FC
  3
Wireframe
350
F6
  3
X-Ray
350
1F1
  0
XRECORD
  5
5E2
102
{ACAD_REACTORS
330
C
102
}
330
C
100
AcDbXrecord
280
     1
 90
        1
330
7F
  0
DICTIONARY
  5
5E
102
{ACAD_REACTORS
330
C
102
}
330
C
100
AcDbDictionary
281
     1
  3
CANNOSCALE
350
146
  3
CMLEADERSTYLE
350
145
  3
CTABLESTYLE
350
84
  3
CVIEWDETAILSTYLE
350
227
  3
CVIEWSECTIONSTYLE
350
228
  3
DIMASSOC
350
5F
  3
HIDETEXT
350
63
  3
INDEXCTL
350
5D1
  3
LAYEREVAL
350
1AE
  3
LAYERNOTIFY
350
1AF
  3
LIGHTINGUNITS
350
5CF
  3
MSLTSCALE
350
5CE
  3
SORTENTS
350
5D0
  0
DICTIONARY
  5
200
102
{ACAD_REACTORS
330
1FF
102
}
330
1FF
100
AcDbDictionary
281
     1
  0
DIMASSOC
  5
3AA
102
{ACAD_REACTORS
330
3A9
102
}
330
3A9
100
AcDbDimAssoc
330
3A8
 90
        1
 70
     0
 71
     0
  1
AcDbOsnapPointRef
 72
    13
331
395
 73
     2
 91
        0
 40
0.0
 10
0.0
 20
0.0
 30
2.000000000000000E+50
 75
     0
  0
DIMASSOC
  5
3E9
102
{ACAD_REACTORS
330
3E8
102
}
330
3E8
100
AcDbDimAssoc
330
3E7
 90
        2
 70
     0
 71
     0
  1
AcDbOsnapPointRef
 72
     3
331
3C0
 73
     2
 91
        0
 40
0.0
 10
0.0
 20
0.0
 30
0.0
 75
     0
  0
DIMASSOC
  5
41A
102
{ACAD_REACTORS
330
419
102
}
330
419
100
AcDbDimAssoc
330
418
 90
        2
 70
     0
 71
     0
  1
AcDbOsnapPointRef
 72
     3
331
417
 73
     2
 91
        0
 40
0.0
 10
0.0
 20
0.0
 30
0.0
 75
     0
  0
ACDBDETAILVIEWSTYLE
  5
21C
102
{ACAD_REACTORS
330
21B
102
}
330
21B
100
AcDbModelDocViewStyle
 70
     0
  3
Metric50
290
     0
300
Metric50
 90
        0
100
AcDbDetailViewStyle
 70
     0
 71
     0
 90
        3
 71
     1
340
11
 62
   256
 40
5.0
340
0
 62
   256
 40
5.0
300

 40
0.0
280
     1
 71
     2
340
16
 90
       25
 62
   256
 71
     3
340
11
 62
   256
 40
5.0
 90
        0
 40
15.0
 90
        1
300
%<\AcVar ViewDetailId>% (%<\AcVar ViewScale \f "%sn">%)
 71
     4
340
16
 90
       25
 62
   256
340
16
 90
       25
 62
   256
280
     0
  0
LAYOUT
  5
22
102
{ACAD_XDICTIONARY
360
205
102
}
102
{ACAD_REACTORS
330
1A
102
}
330
1A
100
AcDbPlotSettings
  1

  2
none_device
  4
ISO_A4_(210.00_x_297.00_MM)
  6

 40
7.5
 41
20.0
 42
7.5
 43
20.0
 44
210.0
 45
297.0
 46
11.54999923706054
 47
-13.65000009536743
 48
0.0
 49
0.0
140
0.0
141
0.0
142
1.0
143
8.704084754739808
 70
 11952
 72
     1
 73
     0
 74
     0
  7

 75
     0
147
0.1148885871608098
 76
     0
 77
     2
 78
   300
148
0.0
149
0.0
100
AcDbLayout
  1
Model
 70
     1
 71
     0
 10
0.0
 20
0.0
 11
12.0
 21
9.0
 12
0.0
 22
0.0
 32
0.0
 14
0.0
 24
0.0
 34
0.0
 15
0.0
 25
0.0
 35
0.0
146
0.0
 13
0.0
 23
0.0
 33
0.0
 16
1.0
 26
0.0
 36
0.0
 17
0.0
 27
1.0
 37
0.0
 76
     0
330
1F
331
EA
1001
ACAD_PSEXT
1000
None
1000
None
1000
Not applicable
1000
The layout will not be plotted unless a new plotter configuration name is selected.
1070
     0
  0
LAYOUT
  5
D3
102
{ACAD_REACTORS
330
1A
102
}
330
1A
100
AcDbPlotSettings
  1

  2
C:\Documents and Settings\basas\Application Data\Autodesk\AutoCAD 2005\R16.1\enu\plotters\Default Windows System Printer.pc3
  4

  6

 40
0.0
 41
0.0
 42
0.0
 43
0.0
 44
0.0
 45
0.0
 46
0.0
 47
0.0
 48
0.0
 49
0.0
140
0.0
141
0.0
142
1.0
143
1.0
 70
   688
 72
     0
 73
     0
 74
     5
  7

 75
    16
147
1.0
 76
     0
 77
     2
 78
   300
148
0.0
149
0.0
100
AcDbLayout
  1
布局1
 70
     1
 71
     1
 10
0.0
 20
0.0
 11
12.0
 21
9.0
 12
0.0
 22
0.0
 32
0.0
 14
0.0
 24
0.0
 34
0.0
 15
0.0
 25
0.0
 35
0.0
146
0.0
 13
0.0
 23
0.0
 33
0.0
 16
1.0
 26
0.0
 36
0.0
 17
0.0
 27
1.0
 37
0.0
 76
     0
330
D2
1001
AcadStringInfo
1000
MIFCodePage
1070
     5
  0
LAYOUT
  5
D7
102
{ACAD_REACTORS
330
1A
102
}
330
1A
100
AcDbPlotSettings
  1

  2
C:\Documents and Settings\basas\Application Data\Autodesk\AutoCAD 2005\R16.1\enu\plotters\Default Windows System Printer.pc3
  4

  6

 40
0.0
 41
0.0
 42
0.0
 43
0.0
 44
0.0
 45
0.0
 46
0.0
 47
0.0
 48
0.0
 49
0.0
140
0.0
141
0.0
142
1.0
143
1.0
 70
   688
 72
     0
 73
     0
 74
     5
  7

 75
    16
147
1.0
 76
     0
 77
     2
 78
   300
148
0.0
149
0.0
100
AcDbLayout
  1
布局2
 70
     1
 71
     2
 10
0.0
 20
0.0
 11
12.0
 21
9.0
 12
0.0
 22
0.0
 32
0.0
 14
0.0
 24
0.0
 34
0.0
 15
0.0
 25
0.0
 35
0.0
146
0.0
 13
0.0
 23
0.0
 33
0.0
 16
1.0
 26
0.0
 36
0.0
 17
0.0
 27
1.0
 37
0.0
 76
     0
330
D6
1001
AcadStringInfo
1000
MIFCodePage
1070
     5
  0
MATERIAL
  5
ED
102
{ACAD_XDICTIONARY
360
1F9
102
}
102
{ACAD_REACTORS
330
6A
102
}
330
6A
100
AcDbMaterial
  1
ByBlock
 94
       63
  0
MATERIAL
  5
EC
102
{ACAD_XDICTIONARY
360
1F7
102
}
102
{ACAD_REACTORS
330
6A
102
}
330
6A
100
AcDbMaterial
  1
ByLayer
 94
       63
  0
MATERIAL
  5
EE
102
{ACAD_XDICTIONARY
360
173
102
}
102
{ACAD_REACTORS
330
6A
102
}
330
6A
100
AcDbMaterial
  1
Global
 43
0.0007999999797903
 43
0.0
 43
0.0
 43
0.0
 43
0.0
 43
0.0007999999797903
 43
0.0
 43
0.0
 43
0.0
 43
0.0
 43
1.0
 43
0.0
 43
0.0
 43
0.0
 43
0.0
 43
1.0
 49
0.0007999999797903
 49
0.0
 49
0.0
 49
0.0
 49
0.0
 49
0.0007999999797903
 49
0.0
 49
0.0
 49
0.0
 49
0.0
 49
1.0
 49
0.0
 49
0.0
 49
0.0
 49
0.0
 49
1.0
142
0.0007999999797903
142
0.0
142
0.0
142
0.0
142
0.0
142
0.0007999999797903
142
0.0
142
0.0
142
0.0
142
0.0
142
1.0
142
0.0
142
0.0
142
0.0
142
0.0
142
1.0
144
0.0007999999797903
144
0.0
144
0.0
144
0.0
144
0.0
144
0.0007999999797903
144
0.0
144
0.0
144
0.0
144
0.0
144
1.0
144
0.0
144
0.0
144
0.0
144
0.0
144
1.0
 94
       63
1001
ACAD
1070
    -1
1070
     3
1070
     0
1000

1071
        0
1070
     0
  0
MLEADERSTYLE
  5
13B
102
{ACAD_REACTORS
330
12D
102
}
330
12D
100
AcDbMLeaderStyle
179
     2
170
     2
171
     1
172
     0
 90
        2
 40
0.0
 41
0.0
173
     1
 91
-1056964608
340
14
 92
       -2
290
     1
 42
2.0
291
     1
 43
8.0
  3
Standard
 44
4.0
300

342
11
174
     1
178
     1
175
     1
176
     0
 93
-1056964608
 45
4.0
292
     0
297
     0
 46
4.0
 94
-1056964608
 47
1.0
 49
1.0
140
1.0
293
     1
141
0.0
294
     1
177
     0
142
1.0
295
     0
296
     1
143
3.75
271
     0
272
     9
273
     9
298
     0
  0
MLEADERSTYLE
  5
12E
102
{ACAD_REACTORS
330
12D
102
}
330
12D
100
AcDbMLeaderStyle
179
     2
170
     2
171
     1
172
     0
 90
        2
 40
0.0
 41
0.0
173
     1
 91
-1056964608
340
14
 92
       -2
290
     1
 42
2.0
291
     1
 43
8.0
  3
Standard
 44
4.0
300

342
11
174
     1
178
     1
175
     1
176
     0
 93
-1056964608
 45
4.0
292
     0
297
     0
 46
4.0
 94
-1056964608
 47
1.0
 49
1.0
140
1.0
293
     1
141
0.0
294
     1
177
     0
142
1.0
295
     0
296
     0
143
3.75
271
     0
272
     9
273
     9
298
     0
  0
MLINESTYLE
  5
18
102
{ACAD_REACTORS
330
17
102
}
330
17
100
AcDbMlineStyle
  2
STANDARD
 70
     0
  3

 62
   256
 51
90.0
 52
90.0
 71
     2
 49
0.5
 62
   256
  6
BYLAYER
 49
-0.5
 62
   256
  6
BYLAYER
  0
ACDBPLACEHOLDER
  5
F
102
{ACAD_REACTORS
330
E
102
}
330
E
  0
SCALE
  5
10D
102
{ACAD_REACTORS
330
10C
102
}
330
10C
100
AcDbScale
 70
     0
300
1:1
140
1.0
141
1.0
290
     1
  0
SCALE
  5
1BE
102
{ACAD_REACTORS
330
10C
102
}
330
10C
100
AcDbScale
 70
     0
300
1:2
140
1.0
141
2.0
290
     0
  0
SCALE
  5
1BF
102
{ACAD_REACTORS
330
10C
102
}
330
10C
100
AcDbScale
 70
     0
300
1:4
140
1.0
141
4.0
290
     0
  0
SCALE
  5
1C0
102
{ACAD_REACTORS
330
10C
102
}
330
10C
100
AcDbScale
 70
     0
300
1:5
140
1.0
141
5.0
290
     0
  0
SCALE
  5
1C1
102
{ACAD_REACTORS
330
10C
102
}
330
10C
100
AcDbScale
 70
     0
300
1:8
140
1.0
141
8.0
290
     0
  0
SCALE
  5
1C2
102
{ACAD_REACTORS
330
10C
102
}
330
10C
100
AcDbScale
 70
     0
300
1:10
140
1.0
141
10.0
290
     0
  0
SCALE
  5
1C3
102
{ACAD_REACTORS
330
10C
102
}
330
10C
100
AcDbScale
 70
     0
300
1:16
140
1.0
141
16.0
290
     0
  0
SCALE
  5
1C4
102
{ACAD_REACTORS
330
10C
102
}
330
10C
100
AcDbScale
 70
     0
300
1:20
140
1.0
141
20.0
290
     0
  0
SCALE
  5
1C5
102
{ACAD_REACTORS
330
10C
102
}
330
10C
100
AcDbScale
 70
     0
300
1:30
140
1.0
141
30.0
290
     0
  0
SCALE
  5
1C6
102
{ACAD_REACTORS
330
10C
102
}
330
10C
100
AcDbScale
 70
     0
300
1:40
140
1.0
141
40.0
290
     0
  0
SCALE
  5
1C7
102
{ACAD_REACTORS
330
10C
102
}
330
10C
100
AcDbScale
 70
     0
300
1:50
140
1.0
141
50.0
290
     0
  0
SCALE
  5
1C8
102
{ACAD_REACTORS
330
10C
102
}
330
10C
100
AcDbScale
 70
     0
300
1:100
140
1.0
141
100.0
290
     0
  0
SCALE
  5
1C9
102
{ACAD_REACTORS
330
10C
102
}
330
10C
100
AcDbScale
 70
     0
300
2:1
140
2.0
141
1.0
290
     0
  0
SCALE
  5
1CA
102
{ACAD_REACTORS
330
10C
102
}
330
10C
100
AcDbScale
 70
     0
300
4:1
140
4.0
141
1.0
290
     0
  0
SCALE
  5
1CB
102
{ACAD_REACTORS
330
10C
102
}
330
10C
100
AcDbScale
 70
     0
300
8:1
140
8.0
141
1.0
290
     0
  0
SCALE
  5
1CC
102
{ACAD_REACTORS
330
10C
102
}
330
10C
100
AcDbScale
 70
     0
300
10:1
140
10.0
141
1.0
290
     0
  0
SCALE
  5
1CD
102
{ACAD_REACTORS
330
10C
102
}
330
10C
100
AcDbScale
 70
     0
300
100:1
140
100.0
141
1.0
290
     0
  0
ACDBSECTIONVIEWSTYLE
  5
21A
102
{ACAD_REACTORS
330
219
102
}
330
219
100
AcDbModelDocViewStyle
 70
     0
  3
Metric50
290
     0
300
Metric50
 90
        0
100
AcDbSectionViewStyle
 70
     0
 71
     0
 90
      102
 71
     1
340
11
 62
   256
 40
5.0
340
0
340
0
 62
   256
 40
5.0
300
I, O, Q, S, X, Z
 40
10.0
 90
        0
 40
2.5
 90
        0
 71
     2
340
16
 90
       25
 62
   256
340
16
 90
       50
 62
   256
 40
5.0
 40
2.5
 40
5.0
 71
     3
340
11
 62
   256
 40
5.0
 90
        0
 40
15.0
 90
        1
300
%<\AcVar ViewSectionStartId>%-%<\AcVar ViewSectionEndId>% (%<\AcVar ViewScale \f "%sn">%)
 71
     4
 62
   256
 62
   257
300
ANSI31
 40
1.0
 90
        0
290
     0
290
     0
 90
        6
 40
0.0
 40
1.570796326794896
 40
0.2617993877991494
 40
1.308996938995747
 40
-0.2617993877991494
 40
1.832595714594046
  0
TABLESTYLE
  5
7F
102
{ACAD_XDICTIONARY
360
162
102
}
102
{ACAD_REACTORS
330
7E
102
}
330
7E
100
AcDbTableStyle
280
     0
  3
Standard
 70
     0
 71
     0
 40
1.5
 41
1.5
280
     0
281
     0
  7
Standard
140
4.5
170
     2
 62
     0
 63
     7
283
     0
 90
      512
 91
        0
  1

274
    -2
284
     1
 64
     0
275
    -2
285
     1
 65
     0
276
    -2
286
     1
 66
     0
277
    -2
287
     1
 67
     0
278
    -2
288
     1
 68
     0
279
    -2
289
     1
 69
     0
  7
Standard
140
6.0
170
     5
 62
     0
 63
     7
283
     0
 90
      512
 91
        0
  1

274
    -2
284
     1
 64
     0
275
    -2
285
     1
 65
     0
276
    -2
286
     1
 66
     0
277
    -2
287
     1
 67
     0
278
    -2
288
     1
 68
     0
279
    -2
289
     1
 69
     0
  7
Standard
140
4.5
170
     5
 62
     0
 63
     7
283
     0
 90
      512
 91
        0
  1

274
    -2
284
     1
 64
     0
275
    -2
285
     1
 65
     0
276
    -2
286
     1
 66
     0
277
    -2
287
     1
 67
     0
278
    -2
288
     1
 68
     0
279
    -2
289
     1
 69
     0
  0
VISUALSTYLE
  5
F5
102
{ACAD_REACTORS
330
EF
102
}
330
EF
100
AcDbVisualStyle
  2
2dWireframe
 70
     4
177
     3
291
     0
 70
    58
 90
        0
176
     1
 90
        2
176
     1
 90
        1
176
     1
 90
        0
176
     1
 40
0.6
176
     1
 40
30.0
176
     1
 62
     7
176
     1
 90
        1
176
     1
 90
        4
176
     1
 62
     7
176
     1
 62
   257
176
     1
 90
        1
176
     1
 90
        1
176
     1
 40
1.0
176
     1
 90
        0
176
     1
 62
   257
176
     1
 40
1.0
176
     1
 90
        1
176
     1
 90
        6
176
     1
 90
        2
176
     1
 62
     7
176
     1
 90
        5
176
     1
 90
        0
176
     1
 90
        0
176
     1
290
     0
176
     1
 90
        1
176
     1
 40
0.0
176
     1
 90
        0
176
     1
290
     1
176
     1
290
     1
176
     1
290
     0
176
     1
290
     0
176
     1
290
     0
176
     1
290
     0
176
     1
290
     0
176
     1
290
     0
176
     1
290
     0
176
     1
 90
       50
176
     1
 40
0.0
176
     1
 40
1.0
176
     1
 90
        0
176
     1
 62
    18
420
        0
176
     1
 90
       50
176
     1
 90
        3
176
     1
 62
     5
420
      255
176
     1
290
     0
176
     1
 90
       50
176
     1
 90
       50
176
     1
 90
       50
176
     1
290
     0
176
     1
 90
       50
176
     1
 62
   256
176
     0
 40
1.0
176
     0
 90
        2
176
     1
  1
strokes_ogs.tif
176
     1
290
     0
176
     1
 40
1.0
176
     1
 40
1.0
176
     1
  0
VISUALSTYLE
  5
303
102
{ACAD_REACTORS
330
EF
102
}
330
EF
100
AcDbVisualStyle
  2
3dWireframe
 70
     5
177
     3
291
     0
 70
    58
 90
        0
176
     1
 90
        2
176
     1
 90
        1
176
     1
 90
        0
176
     1
 40
0.6
176
     1
 40
30.0
176
     1
 62
     7
176
     1
 90
        1
176
     1
 90
        4
176
     1
 62
     7
176
     1
 62
   257
176
     1
 90
        1
176
     1
 90
        1
176
     1
 40
1.0
176
     1
 90
        0
176
     1
 62
   257
176
     1
 40
1.0
176
     1
 90
        1
176
     1
 90
        6
176
     1
 90
        2
176
     1
 62
     7
176
     1
 90
        5
176
     1
 90
        0
176
     1
 90
        0
176
     1
290
     0
176
     1
 90
        1
176
     1
 40
0.0
176
     1
 90
        0
176
     1
290
     0
176
     1
290
     1
176
     1
290
     1
176
     1
290
     0
176
     1
290
     0
176
     1
290
     0
176
     1
290
     0
176
     1
290
     0
176
     1
290
     0
176
     1
 90
       50
176
     1
 40
0.0
176
     1
 40
1.0
176
     1
 90
        0
176
     1
 62
    18
420
        0
176
     1
 90
       50
176
     1
 90
        3
176
     1
 62
     5
420
      255
176
     1
290
     0
176
     1
 90
       50
176
     1
 90
       50
176
     1
 90
       50
176
     1
290
     0
176
     1
 90
       50
176
     1
 62
   256
176
     0
 40
1.0
176
     0
 90
        2
176
     1
  1
strokes_ogs.tif
176
     1
290
     0
176
     1
 40
1.0
176
     1
 40
1.0
176
     1
  0
VISUALSTYLE
  5
F4
102
{ACAD_REACTORS
330
EF
102
}
330
EF
100
AcDbVisualStyle
  2
Basic
 70
     7
177
     3
291
     1
 70
    58
 90
        1
176
     1
 90
        0
176
     1
 90
        1
176
     1
 90
        0
176
     1
 40
0.6
176
     1
 40
30.0
176
     1
 62
     7
176
     1
 90
        0
176
     1
 90
        4
176
     1
 62
     7
176
     1
 62
   257
176
     1
 90
        1
176
     1
 90
        1
176
     1
 40
1.0
176
     1
 90
        8
176
     1
 62
     7
176
     1
 40
1.0
176
     1
 90
        1
176
     1
 90
        6
176
     1
 90
        2
176
     1
 62
     7
176
     1
 90
        5
176
     1
 90
        0
176
     1
 90
        0
176
     1
290
     0
176
     1
 90
        1
176
     1
 40
0.0
176
     1
 90
        0
176
     1
290
     0
176
     1
290
     1
176
     1
290
     1
176
     1
290
     0
176
     1
290
     0
176
     1
290
     0
176
     1
290
     0
176
     1
290
     0
176
     1
290
     0
176
     1
 90
       50
176
     1
 40
0.0
176
     1
 40
1.0
176
     1
 90
        0
176
     1
 62
    18
420
        0
176
     1
 90
       50
176
     1
 90
        3
176
     1
 62
     5
420
      255
176
     1
290
     0
176
     1
 90
       50
176
     1
 90
       50
176
     1
 90
       50
176
     1
290
     0
176
     1
 90
       50
176
     1
 62
   256
176
     0
 40
1.0
176
     0
 90
        2
176
     1
  1
strokes_ogs.tif
176
     1
290
     0
176
     1
 40
1.0
176
     1
 40
1.0
176
     1
  0
VISUALSTYLE
  5
FB
102
{ACAD_REACTORS
330
EF
102
}
330
EF
100
AcDbVisualStyle
  2
Brighten
 70
    12
177
     3
291
     1
 70
    58
 90
        2
176
     1
 90
        2
176
     1
 90
        1
176
     1
 90
        0
176
     1
 40
0.6
176
     1
 40
30.0
176
     1
 62
     7
176
     1
 90
        1
176
     1
 90
        4
176
     1
 62
     7
176
     1
 62
   257
176
     1
 90
        1
176
     1
 90
        1
176
     1
 40
1.0
176
     1
 90
        8
176
     1
 62
     7
176
     1
 40
1.0
176
     1
 90
        1
176
     1
 90
        6
176
     1
 90
        2
176
     1
 62
     7
176
     1
 90
        5
176
     1
 90
        0
176
     1
 90
        0
176
     1
290
     0
176
     1
 90
        1
176
     1
 40
50.0
176
     1
 90
        0
176
     1
290
     0
176
     1
290
     1
176
     1
290
     1
176
     1
290
     0
176
     1
290
     0
176
     1
290
     0
176
     1
290
     0
176
     1
290
     0
176
     1
290
     0
176
     1
 90
       50
176
     1
 40
0.0
176
     1
 40
1.0
176
     1
 90
        0
176
     1
 62
    18
420
        0
176
     1
 90
       50
176
     1
 90
        3
176
     1
 62
     5
420
      255
176
     1
290
     0
176
     1
 90
       50
176
     1
 90
       50
176
     1
 90
       50
176
     1
290
     0
176
     1
 90
       50
176
     1
 62
   256
176
     0
 40
1.0
176
     0
 90
        2
176
     1
  1
strokes_ogs.tif
176
     1
290
     0
176
     1
 40
1.0
176
     1
 40
1.0
176
     1
  0
VISUALSTYLE
  5
FF
102
{ACAD_REACTORS
330
EF
102
}
330
EF
100
AcDbVisualStyle
  2
ColorChange
 70
    16
177
     3
291
     1
 70
    58
 90
        2
176
     1
 90
        2
176
     1
 90
        3
176
     1
 90
        0
176
     1
 40
0.6
176
     1
 40
30.0
176
     1
 62
     8
176
     1
 90
        1
176
     1
 90
        4
176
     1
 62
     7
176
     1
 62
   257
176
     1
 90
        1
176
     1
 90
        1
176
     1
 40
1.0
176
     1
 90
        8
176
     1
 62
     8
176
     1
 40
1.0
176
     1
 90
        1
176
     1
 90
        6
176
     1
 90
        2
176
     1
 62
     7
176
     1
 90
        5
176
     1
 90
        0
176
     1
 90
        0
176
     1
290
     0
176
     1
 90
        1
176
     1
 40
0.0
176
     1
 90
        0
176
     1
290
     0
176
     1
290
     1
176
     1
290
     1
176
     1
290
     0
176
     1
290
     0
176
     1
290
     0
176
     1
290
     0
176
     1
290
     0
176
     1
290
     0
176
     1
 90
       50
176
     1
 40
0.0
176
     1
 40
1.0
176
     1
 90
        0
176
     1
 62
    18
420
        0
176
     1
 90
       50
176
     1
 90
        3
176
     1
 62
     5
420
      255
176
     1
290
     0
176
     1
 90
       50
176
     1
 90
       50
176
     1
 90
       50
176
     1
290
     0
176
     1
 90
       50
176
     1
 62
   256
176
     0
 40
1.0
176
     0
 90
        2
176
     1
  1
strokes_ogs.tif
176
     1
290
     0
176
     1
 40
1.0
176
     1
 40
1.0
176
     1
  0
VISUALSTYLE
  5
F8
102
{ACAD_REACTORS
330
EF
102
}
330
EF
100
AcDbVisualStyle
  2
Conceptual
 70
     9
177
     3
291
     0
 70
    58
 90
        3
176
     1
 90
        2
176
     1
 90
        1
176
     1
 90
        0
176
     1
 40
0.6
176
     1
 40
30.0
176
     1
 62
     7
176
     1
 90
        2
176
     1
 90
        2
176
     1
 62
     7
176
     1
 62
   257
176
     1
 90
        1
176
     1
 90
        1
176
     1
 40
40.0
176
     1
 90
        8
176
     1
 62
     7
176
     1
 40
1.0
176
     1
 90
        1
176
     1
 90
        6
176
     1
 90
        2
176
     1
 62
     7
176
     1
 90
        3
176
     1
 90
        0
176
     1
 90
        0
176
     1
290
     0
176
     1
 90
        1
176
     1
 40
0.0
176
     1
 90
        0
176
     1
290
     0
176
     1
290
     1
176
     1
290
     1
176
     1
290
     0
176
     1
290
     0
176
     1
290
     0
176
     1
290
     0
176
     1
290
     0
176
     1
290
     0
176
     1
 90
       50
176
     1
 40
0.0
176
     1
 40
1.0
176
     1
 90
        0
176
     1
 62
    18
420
        0
176
     1
 90
       50
176
     1
 90
        3
176
     1
 62
     5
420
      255
176
     1
290
     0
176
     1
 90
       50
176
     1
 90
       50
176
     1
 90
       50
176
     1
290
     0
176
     1
 90
       50
176
     1
 62
   256
176
     0
 40
1.0
176
     0
 90
        2
176
     1
  1
strokes_ogs.tif
176
     1
290
     0
176
     1
 40
1.0
176
     1
 40
1.0
176
     1
  0
VISUALSTYLE
  5
FA
102
{ACAD_REACTORS
330
EF
102
}
330
EF
100
AcDbVisualStyle
  2
Dim
 70
    11
177
     3
291
     1
 70
    58
 90
        2
176
     1
 90
        2
176
     1
 90
        1
176
     1
 90
        0
176
     1
 40
0.6
176
     1
 40
30.0
176
     1
 62
     7
176
     1
 90
        1
176
     1
 90
        4
176
     1
 62
     7
176
     1
 62
   257
176
     1
 90
        1
176
     1
 90
        1
176
     1
 40
1.0
176
     1
 90
        8
176
     1
 62
     7
176
     1
 40
1.0
176
     1
 90
        1
176
     1
 90
        6
176
     1
 90
        2
176
     1
 62
     7
176
     1
 90
        5
176
     1
 90
        0
176
     1
 90
        0
176
     1
290
     0
176
     1
 90
        1
176
     1
 40
-50.0
176
     1
 90
        0
176
     1
290
     0
176
     1
290
     1
176
     1
290
     1
176
     1
290
     0
176
     1
290
     0
176
     1
290
     0
176
     1
290
     0
176
     1
290
     0
176
     1
290
     0
176
     1
 90
       50
176
     1
 40
0.0
176
     1
 40
1.0
176
     1
 90
        0
176
     1
 62
    18
420
        0
176
     1
 90
       50
176
     1
 90
        3
176
     1
 62
     5
420
      255
176
     1
290
     0
176
     1
 90
       50
176
     1
 90
       50
176
     1
 90
       50
176
     1
290
     0
176
     1
 90
       50
176
     1
 62
   256
176
     0
 40
1.0
176
     0
 90
        2
176
     1
  1
strokes_ogs.tif
176
     1
290
     0
176
     1
 40
1.0
176
     1
 40
1.0
176
     1
  0
VISUALSTYLE
  5
1E6
102
{ACAD_REACTORS
330
EF
102
}
330
EF
100
AcDbVisualStyle
  2
EdgeColorOff
 70
    22
177
     3
291
     1
 70
    58
 90
        2
176
     0
 90
        2
176
     0
 90
        0
176
     0
 90
        0
176
     0
 40
0.6
176
     0
 40
30.0
176
     0
 62
     7
176
     0
 90
        1
176
     0
 90
        4
176
     0
 62
     7
176
     0
 62
   257
176
     0
 90
        1
176
     0
 90
        1
176
     0
 40
1.0
176
     0
 90
        8
176
     2
 62
     7
176
     0
 40
1.0
176
     0
 90
        1
176
     0
 90
        6
176
     0
 90
        2
176
     0
 62
     7
176
     0
 90
        5
176
     0
 90
        0
176
     0
 90
        0
176
     0
290
     0
176
     0
 90
        1
176
     0
 40
0.0
176
     0
 90
        0
176
     0
290
     0
176
     1
290
     1
176
     1
290
     1
176
     1
290
     0
176
     1
290
     0
176
     1
290
     0
176
     1
290
     0
176
     1
290
     0
176
     1
290
     0
176
     1
 90
       50
176
     1
 40
0.0
176
     1
 40
1.0
176
     1
 90
        0
176
     1
 62
    18
420
        0
176
     1
 90
       50
176
     1
 90
        3
176
     1
 62
     5
420
      255
176
     1
290
     0
176
     1
 90
       50
176
     1
 90
       50
176
     1
 90
       50
176
     1
290
     0
176
     1
 90
       50
176
     1
 62
   256
176
     0
 40
1.0
176
     0
 90
        2
176
     1
  1
strokes_ogs.tif
176
     1
290
     0
176
     1
 40
1.0
176
     1
 40
1.0
176
     1
  0
VISUALSTYLE
  5
FE
102
{ACAD_REACTORS
330
EF
102
}
330
EF
100
AcDbVisualStyle
  2
Facepattern
 70
    15
177
     3
291
     1
 70
    58
 90
        2
176
     1
 90
        2
176
     1
 90
        1
176
     1
 90
        0
176
     1
 40
0.6
176
     1
 40
30.0
176
     1
 62
     7
176
     1
 90
        1
176
     1
 90
        4
176
     1
 62
     7
176
     1
 62
   257
176
     1
 90
        1
176
     1
 90
        1
176
     1
 40
1.0
176
     1
 90
        8
176
     1
 62
     7
176
     1
 40
1.0
176
     1
 90
        1
176
     1
 90
        6
176
     1
 90
        2
176
     1
 62
     7
176
     1
 90
        5
176
     1
 90
        0
176
     1
 90
        0
176
     1
290
     0
176
     1
 90
        1
176
     1
 40
0.0
176
     1
 90
        0
176
     1
290
     0
176
     1
290
     1
176
     1
290
     1
176
     1
290
     0
176
     1
290
     0
176
     1
290
     0
176
     1
290
     0
176
     1
290
     0
176
     1
290
     0
176
     1
 90
       50
176
     1
 40
0.0
176
     1
 40
1.0
176
     1
 90
        0
176
     1
 62
    18
420
        0
176
     1
 90
       50
176
     1
 90
        3
176
     1
 62
     5
420
      255
176
     1
290
     0
176
     1
 90
       50
176
     1
 90
       50
176
     1
 90
       50
176
     1
290
     0
176
     1
 90
       50
176
     1
 62
   256
176
     0
 40
1.0
176
     0
 90
        2
176
     1
  1
strokes_ogs.tif
176
     1
290
     0
176
     1
 40
1.0
176
     1
 40
1.0
176
     1
  0
VISUALSTYLE
  5
F0
102
{ACAD_REACTORS
330
EF
102
}
330
EF
100
AcDbVisualStyle
  2
Flat
 70
     0
177
     3
291
     1
 70
    58
 90
        2
176
     1
 90
        1
176
     1
 90
        1
176
     1
 90
        2
176
     1
 40
0.6
176
     1
 40
30.0
176
     1
 62
     7
176
     1
 90
        0
176
     1
 90
        0
176
     1
 62
     7
176
     1
 62
   257
176
     1
 90
        1
176
     1
 90
        1
176
     1
 40
1.0
176
     1
 90
        8
176
     1
 62
     7
176
     1
 40
1.0
176
     1
 90
        1
176
     1
 90
        6
176
     1
 90
        2
176
     1
 62
     7
176
     1
 90
        5
176
     1
 90
        0
176
     1
 90
        0
176
     1
290
     0
176
     1
 90
       13
176
     1
 40
0.0
176
     1
 90
        0
176
     1
290
     0
176
     1
290
     1
176
     1
290
     1
176
     1
290
     0
176
     1
290
     0
176
     1
290
     0
176
     1
290
     0
176
     1
290
     0
176
     1
290
     0
176
     1
 90
       50
176
     1
 40
0.0
176
     1
 40
1.0
176
     1
 90
        0
176
     1
 62
    18
420
        0
176
     1
 90
       50
176
     1
 90
        3
176
     1
 62
     5
420
      255
176
     1
290
     0
176
     1
 90
       50
176
     1
 90
       50
176
     1
 90
       50
176
     1
290
     0
176
     1
 90
       50
176
     1
 62
   256
176
     0
 40
1.0
176
     0
 90
        2
176
     1
  1
strokes_ogs.tif
176
     1
290
     0
176
     1
 40
1.0
176
     1
 40
1.0
176
     1
  0
VISUALSTYLE
  5
F1
102
{ACAD_REACTORS
330
EF
102
}
330
EF
100
AcDbVisualStyle
  2
FlatWithEdges
 70
     1
177
     3
291
     1
 70
    58
 90
        2
176
     1
 90
        1
176
     1
 90
        1
176
     1
 90
        2
176
     1
 40
0.6
176
     1
 40
30.0
176
     1
 62
     7
176
     1
 90
        1
176
     1
 90
        0
176
     1
 62
     7
176
     1
 62
   257
176
     1
 90
        1
176
     1
 90
        1
176
     1
 40
1.0
176
     1
 90
        0
176
     1
 62
   257
176
     1
 40
1.0
176
     1
 90
        1
176
     1
 90
        6
176
     1
 90
        2
176
     1
 62
     7
176
     1
 90
        5
176
     1
 90
        0
176
     1
 90
        0
176
     1
290
     0
176
     1
 90
       13
176
     1
 40
0.0
176
     1
 90
        0
176
     1
290
     0
176
     1
290
     1
176
     1
290
     1
176
     1
290
     0
176
     1
290
     0
176
     1
290
     0
176
     1
290
     0
176
     1
290
     0
176
     1
290
     0
176
     1
 90
       50
176
     1
 40
0.0
176
     1
 40
1.0
176
     1
 90
        0
176
     1
 62
    18
420
        0
176
     1
 90
       50
176
     1
 90
        3
176
     1
 62
     5
420
      255
176
     1
290
     0
176
     1
 90
       50
176
     1
 90
       50
176
     1
 90
       50
176
     1
290
     0
176
     1
 90
       50
176
     1
 62
   256
176
     0
 40
1.0
176
     0
 90
        2
176
     1
  1
strokes_ogs.tif
176
     1
290
     0
176
     1
 40
1.0
176
     1
 40
1.0
176
     1
  0
VISUALSTYLE
  5
F2
102
{ACAD_REACTORS
330
EF
102
}
330
EF
100
AcDbVisualStyle
  2
Gouraud
 70
     2
177
     3
291
     1
 70
    58
 90
        2
176
     1
 90
        2
176
     1
 90
        1
176
     1
 90
        2
176
     1
 40
0.6
176
     1
 40
30.0
176
     1
 62
     7
176
     1
 90
        0
176
     1
 90
        0
176
     1
 62
     7
176
     1
 62
   257
176
     1
 90
        1
176
     1
 90
        1
176
     1
 40
1.0
176
     1
 90
        0
176
     1
 62
     7
176
     1
 40
1.0
176
     1
 90
        1
176
     1
 90
        6
176
     1
 90
        2
176
     1
 62
     7
176
     1
 90
        5
176
     1
 90
        0
176
     1
 90
        0
176
     1
290
     0
176
     1
 90
       13
176
     1
 40
0.0
176
     1
 90
        0
176
     1
290
     0
176
     1
290
     1
176
     1
290
     1
176
     1
290
     0
176
     1
290
     0
176
     1
290
     0
176
     1
290
     0
176
     1
290
     0
176
     1
290
     0
176
     1
 90
       50
176
     1
 40
0.0
176
     1
 40
1.0
176
     1
 90
        0
176
     1
 62
    18
420
        0
176
     1
 90
       50
176
     1
 90
        3
176
     1
 62
     5
420
      255
176
     1
290
     0
176
     1
 90
       50
176
     1
 90
       50
176
     1
 90
       50
176
     1
290
     0
176
     1
 90
       50
176
     1
 62
   256
176
     0
 40
1.0
176
     0
 90
        2
176
     1
  1
strokes_ogs.tif
176
     1
290
     0
176
     1
 40
1.0
176
     1
 40
1.0
176
     1
  0
VISUALSTYLE
  5
F3
102
{ACAD_REACTORS
330
EF
102
}
330
EF
100
AcDbVisualStyle
  2
GouraudWithEdges
 70
     3
177
     3
291
     1
 70
    58
 90
        2
176
     1
 90
        2
176
     1
 90
        1
176
     1
 90
        2
176
     1
 40
0.6
176
     1
 40
30.0
176
     1
 62
     7
176
     1
 90
        1
176
     1
 90
        0
176
     1
 62
     7
176
     1
 62
   257
176
     1
 90
        1
176
     1
 90
        1
176
     1
 40
1.0
176
     1
 90
        0
176
     1
 62
   257
176
     1
 40
1.0
176
     1
 90
        1
176
     1
 90
        6
176
     1
 90
        2
176
     1
 62
     7
176
     1
 90
        5
176
     1
 90
        0
176
     1
 90
        0
176
     1
290
     0
176
     1
 90
       13
176
     1
 40
0.0
176
     1
 90
        0
176
     1
290
     0
176
     1
290
     1
176
     1
290
     1
176
     1
290
     0
176
     1
290
     0
176
     1
290
     0
176
     1
290
     0
176
     1
290
     0
176
     1
290
     0
176
     1
 90
       50
176
     1
 40
0.0
176
     1
 40
1.0
176
     1
 90
        0
176
     1
 62
    18
420
        0
176
     1
 90
       50
176
     1
 90
        3
176
     1
 62
     5
420
      255
176
     1
290
     0
176
     1
 90
       50
176
     1
 90
       50
176
     1
 90
       50
176
     1
290
     0
176
     1
 90
       50
176
     1
 62
   256
176
     0
 40
1.0
176
     0
 90
        2
176
     1
  1
strokes_ogs.tif
176
     1
290
     0
176
     1
 40
1.0
176
     1
 40
1.0
176
     1
  0
VISUALSTYLE
  5
F7
102
{ACAD_REACTORS
330
EF
102
}
330
EF
100
AcDbVisualStyle
  2
Hidden
 70
     6
177
     3
291
     0
 70
    58
 90
        1
176
     1
 90
        2
176
     1
 90
        2
176
     1
 90
        0
176
     1
 40
0.6
176
     1
 40
30.0
176
     1
 62
     7
176
     1
 90
        2
176
     1
 90
        2
176
     1
 62
     7
176
     1
 62
   257
176
     1
 90
        2
176
     1
 90
        1
176
     1
 40
40.0
176
     1
 90
        0
176
     1
 62
   257
176
     1
 40
1.0
176
     1
 90
        1
176
     1
 90
        6
176
     1
 90
        2
176
     1
 62
     7
176
     1
 90
        3
176
     1
 90
        0
176
     1
 90
        0
176
     1
290
     0
176
     1
 90
        1
176
     1
 40
0.0
176
     1
 90
        0
176
     1
290
     0
176
     1
290
     1
176
     1
290
     1
176
     1
290
     0
176
     1
290
     0
176
     1
290
     0
176
     1
290
     0
176
     1
290
     0
176
     1
290
     0
176
     1
 90
       50
176
     1
 40
0.0
176
     1
 40
1.0
176
     1
 90
        0
176
     1
 62
    18
420
        0
176
     1
 90
       50
176
     1
 90
        3
176
     1
 62
     5
420
      255
176
     1
290
     0
176
     1
 90
       50
176
     1
 90
       50
176
     1
 90
       50
176
     1
290
     0
176
     1
 90
       50
176
     1
 62
   256
176
     0
 40
1.0
176
     0
 90
        2
176
     1
  1
strokes_ogs.tif
176
     1
290
     0
176
     1
 40
1.0
176
     1
 40
1.0
176
     1
  0
VISUALSTYLE
  5
1E4
102
{ACAD_REACTORS
330
EF
102
}
330
EF
100
AcDbVisualStyle
  2
JitterOff
 70
    20
177
     3
291
     1
 70
    58
 90
        2
176
     0
 90
        2
176
     0
 90
        0
176
     0
 90
        0
176
     0
 40
0.6
176
     0
 40
30.0
176
     0
 62
     7
176
     0
 90
        1
176
     0
 90
        4
176
     0
 62
     7
176
     0
 62
   257
176
     0
 90
        1
176
     0
 90
        1
176
     0
 40
1.0
176
     0
 90
       10
176
     2
 62
     7
176
     0
 40
1.0
176
     0
 90
        1
176
     0
 90
        6
176
     0
 90
        2
176
     0
 62
     7
176
     0
 90
        5
176
     0
 90
        0
176
     0
 90
        0
176
     0
290
     0
176
     0
 90
        1
176
     0
 40
0.0
176
     0
 90
        0
176
     0
290
     0
176
     1
290
     1
176
     1
290
     1
176
     1
290
     0
176
     1
290
     0
176
     1
290
     0
176
     1
290
     0
176
     1
290
     0
176
     1
290
     0
176
     1
 90
       50
176
     1
 40
0.0
176
     1
 40
1.0
176
     1
 90
        0
176
     1
 62
    18
420
        0
176
     1
 90
       50
176
     1
 90
        3
176
     1
 62
     5
420
      255
176
     1
290
     0
176
     1
 90
       50
176
     1
 90
       50
176
     1
 90
       50
176
     1
290
     0
176
     1
 90
       50
176
     1
 62
   256
176
     0
 40
1.0
176
     0
 90
        2
176
     1
  1
strokes_ogs.tif
176
     1
290
     0
176
     1
 40
1.0
176
     1
 40
1.0
176
     1
  0
VISUALSTYLE
  5
FD
102
{ACAD_REACTORS
330
EF
102
}
330
EF
100
AcDbVisualStyle
  2
Linepattern
 70
    14
177
     3
291
     1
 70
    58
 90
        2
176
     1
 90
        2
176
     1
 90
        1
176
     1
 90
        0
176
     1
 40
0.6
176
     1
 40
30.0
176
     1
 62
     7
176
     1
 90
        1
176
     1
 90
        4
176
     1
 62
     7
176
     1
 62
   257
176
     1
 90
        7
176
     1
 90
        7
176
     1
 40
1.0
176
     1
 90
        8
176
     1
 62
     7
176
     1
 40
1.0
176
     1
 90
        1
176
     1
 90
        6
176
     1
 90
        2
176
     1
 62
     7
176
     1
 90
        5
176
     1
 90
        0
176
     1
 90
        0
176
     1
290
     0
176
     1
 90
        1
176
     1
 40
0.0
176
     1
 90
        0
176
     1
290
     0
176
     1
290
     1
176
     1
290
     1
176
     1
290
     0
176
     1
290
     0
176
     1
290
     0
176
     1
290
     0
176
     1
290
     0
176
     1
290
     0
176
     1
 90
       50
176
     1
 40
0.0
176
     1
 40
1.0
176
     1
 90
        0
176
     1
 62
    18
420
        0
176
     1
 90
       50
176
     1
 90
        3
176
     1
 62
     5
420
      255
176
     1
290
     0
176
     1
 90
       50
176
     1
 90
       50
176
     1
 90
       50
176
     1
290
     0
176
     1
 90
       50
176
     1
 62
   256
176
     0
 40
1.0
176
     0
 90
        2
176
     1
  1
strokes_ogs.tif
176
     1
290
     0
176
     1
 40
1.0
176
     1
 40
1.0
176
     1
  0
VISUALSTYLE
  5
1E5
102
{ACAD_REACTORS
330
EF
102
}
330
EF
100
AcDbVisualStyle
  2
OverhangOff
 70
    21
177
     3
291
     1
 70
    58
 90
        2
176
     0
 90
        2
176
     0
 90
        0
176
     0
 90
        0
176
     0
 40
0.6
176
     0
 40
30.0
176
     0
 62
     7
176
     0
 90
        1
176
     0
 90
        4
176
     0
 62
     7
176
     0
 62
   257
176
     0
 90
        1
176
     0
 90
        1
176
     0
 40
1.0
176
     0
 90
        9
176
     2
 62
     7
176
     0
 40
1.0
176
     0
 90
        1
176
     0
 90
        6
176
     0
 90
        2
176
     0
 62
     7
176
     0
 90
        5
176
     0
 90
        0
176
     0
 90
        0
176
     0
290
     0
176
     0
 90
        1
176
     0
 40
0.0
176
     0
 90
        0
176
     0
290
     0
176
     1
290
     1
176
     1
290
     1
176
     1
290
     0
176
     1
290
     0
176
     1
290
     0
176
     1
290
     0
176
     1
290
     0
176
     1
290
     0
176
     1
 90
       50
176
     1
 40
0.0
176
     1
 40
1.0
176
     1
 90
        0
176
     1
 62
    18
420
        0
176
     1
 90
       50
176
     1
 90
        3
176
     1
 62
     5
420
      255
176
     1
290
     0
176
     1
 90
       50
176
     1
 90
       50
176
     1
 90
       50
176
     1
290
     0
176
     1
 90
       50
176
     1
 62
   256
176
     0
 40
1.0
176
     0
 90
        2
176
     1
  1
strokes_ogs.tif
176
     1
290
     0
176
     1
 40
1.0
176
     1
 40
1.0
176
     1
  0
VISUALSTYLE
  5
F9
102
{ACAD_REACTORS
330
EF
102
}
330
EF
100
AcDbVisualStyle
  2
Realistic
 70
     8
177
     3
291
     0
 70
    58
 90
        2
176
     1
 90
        2
176
     1
 90
        0
176
     1
 90
        2
176
     1
 40
0.6
176
     1
 40
30.0
176
     1
 62
     7
176
     1
 90
        0
176
     1
 90
        0
176
     1
 62
     7
176
     1
 62
   257
176
     1
 90
        1
176
     1
 90
        1
176
     1
 40
1.0
176
     1
 90
        8
176
     1
 62
   257
176
     1
 40
1.0
176
     1
 90
        1
176
     1
 90
        6
176
     1
 90
        2
176
     1
 62
     7
176
     1
 90
        3
176
     1
 90
        0
176
     1
 90
        0
176
     1
290
     0
176
     1
 90
       13
176
     1
 40
0.0
176
     1
 90
        0
176
     1
290
     0
176
     1
290
     1
176
     1
290
     1
176
     1
290
     0
176
     1
290
     0
176
     1
290
     0
176
     1
290
     0
176
     1
290
     0
176
     1
290
     0
176
     1
 90
       50
176
     1
 40
0.0
176
     1
 40
1.0
176
     1
 90
        0
176
     1
 62
    18
420
        0
176
     1
 90
       50
176
     1
 90
        3
176
     1
 62
     5
420
      255
176
     1
290
     0
176
     1
 90
       50
176
     1
 90
       50
176
     1
 90
       50
176
     1
290
     0
176
     1
 90
       50
176
     1
 62
   256
176
     0
 40
1.0
176
     0
 90
        2
176
     1
  1
strokes_ogs.tif
176
     1
290
     0
176
     1
 40
1.0
176
     1
 40
1.0
176
     1
  0
VISUALSTYLE
  5
1F3
102
{ACAD_REACTORS
330
EF
102
}
330
EF
100
AcDbVisualStyle
  2
Shaded
 70
    27
177
     3
291
     0
 70
    58
 90
        2
176
     1
 90
        2
176
     1
 90
        1
176
     1
 90
        2
176
     1
 40
0.6
176
     1
 40
30.0
176
     1
 62
     7
176
     1
 90
        0
176
     1
 90
        4
176
     1
 62
     7
176
     1
 62
   257
176
     1
 90
        1
176
     1
 90
        1
176
     1
 40
1.0
176
     1
 90
        8
176
     1
 62
   257
176
     1
 40
1.0
176
     1
 90
        1
176
     1
 90
        6
176
     1
 90
        2
176
     1
 62
     8
176
     1
 90
        3
176
     1
 90
        0
176
     1
 90
        0
176
     1
290
     0
176
     1
 90
        5
176
     1
 40
0.0
176
     1
 90
        0
176
     1
290
     0
176
     1
290
     1
176
     1
290
     1
176
     1
290
     0
176
     1
290
     0
176
     1
290
     0
176
     1
290
     0
176
     1
290
     0
176
     1
290
     0
176
     1
 90
       50
176
     1
 40
0.0
176
     1
 40
1.0
176
     1
 90
        0
176
     1
 62
    18
420
        0
176
     1
 90
       50
176
     1
 90
        3
176
     1
 62
     5
420
      255
176
     1
290
     0
176
     1
 90
       50
176
     1
 90
       50
176
     1
 90
       50
176
     1
290
     0
176
     1
 90
       50
176
     1
 62
   256
176
     0
 40
1.0
176
     0
 90
        2
176
     1
  1
strokes_ogs.tif
176
     1
290
     0
176
     1
 40
1.0
176
     1
 40
1.0
176
     1
  0
VISUALSTYLE
  5
1F2
102
{ACAD_REACTORS
330
EF
102
}
330
EF
100
AcDbVisualStyle
  2
Shaded with edges
 70
    26
177
     3
291
     0
 70
    58
 90
        2
176
     1
 90
        2
176
     1
 90
        1
176
     1
 90
        2
176
     1
 40
0.6
176
     1
 40
30.0
176
     1
 62
     7
176
     1
 90
        1
176
     1
 90
        2
176
     1
 62
     7
176
     1
 62
   257
176
     1
 90
        2
176
     1
 90
        1
176
     1
 40
1.0
176
     1
 90
        8
176
     1
 62
   257
176
     1
 40
1.0
176
     1
 90
        1
176
     1
 90
        6
176
     1
 90
        2
176
     1
 62
     7
176
     1
 90
        3
176
     1
 90
        0
176
     1
 90
        0
176
     1
290
     0
176
     1
 90
        5
176
     1
 40
0.0
176
     1
 90
        0
176
     1
290
     0
176
     1
290
     1
176
     1
290
     1
176
     1
290
     0
176
     1
290
     0
176
     1
290
     0
176
     1
290
     0
176
     1
290
     0
176
     1
290
     0
176
     1
 90
       50
176
     1
 40
0.0
176
     1
 40
1.0
176
     1
 90
        0
176
     1
 62
    18
420
        0
176
     1
 90
       50
176
     1
 90
        3
176
     1
 62
     5
420
      255
176
     1
290
     0
176
     1
 90
       50
176
     1
 90
       50
176
     1
 90
       50
176
     1
290
     0
176
     1
 90
       50
176
     1
 62
   256
176
     0
 40
1.0
176
     0
 90
        2
176
     1
  1
strokes_ogs.tif
176
     1
290
     0
176
     1
 40
1.0
176
     1
 40
1.0
176
     1
  0
VISUALSTYLE
  5
1EF
102
{ACAD_REACTORS
330
EF
102
}
330
EF
100
AcDbVisualStyle
  2
Shades of Gray
 70
    23
177
     3
291
     0
 70
    58
 90
        2
176
     1
 90
        2
176
     1
 90
        3
176
     1
 90
        0
176
     1
 40
0.6
176
     1
 40
30.0
176
     1
 62
     7
176
     1
 90
        2
176
     1
 90
        2
176
     1
 62
     7
176
     1
 62
     7
176
     1
 90
        1
176
     1
 90
        1
176
     1
 40
40.0
176
     1
 90
        8
176
     1
 62
     7
176
     1
 40
1.0
176
     1
 90
        1
176
     1
 90
        6
176
     1
 90
        2
176
     1
 62
     7
176
     1
 90
        3
176
     1
 90
        0
176
     1
 90
        0
176
     1
290
     0
176
     1
 90
        1
176
     1
 40
0.0
176
     1
 90
        0
176
     1
290
     0
176
     1
290
     1
176
     1
290
     1
176
     1
290
     0
176
     1
290
     0
176
     1
290
     0
176
     1
290
     0
176
     1
290
     0
176
     1
290
     0
176
     1
 90
       50
176
     1
 40
0.0
176
     1
 40
1.0
176
     1
 90
        0
176
     1
 62
    18
420
        0
176
     1
 90
       50
176
     1
 90
        3
176
     1
 62
     5
420
      255
176
     1
290
     0
176
     1
 90
       50
176
     1
 90
       50
176
     1
 90
       50
176
     1
290
     0
176
     1
 90
       50
176
     1
 62
   256
176
     0
 40
1.0
176
     0
 90
        2
176
     1
  1
strokes_ogs.tif
176
     1
290
     0
176
     1
 40
1.0
176
     1
 40
1.0
176
     1
  0
VISUALSTYLE
  5
1F0
102
{ACAD_REACTORS
330
EF
102
}
330
EF
100
AcDbVisualStyle
  2
Sketchy
 70
    24
177
     3
291
     0
 70
    58
 90
        1
176
     1
 90
        2
176
     1
 90
        2
176
     1
 90
        0
176
     1
 40
0.6
176
     1
 40
30.0
176
     1
 62
     7
176
     1
 90
        2
176
     1
 90
        2
176
     1
 62
     7
176
     1
 62
     7
176
     1
 90
        1
176
     1
 90
        1
176
     1
 40
40.0
176
     1
 90
       11
176
     1
 62
     7
176
     1
 40
1.0
176
     1
 90
        1
176
     1
 90
        6
176
     1
 90
        2
176
     1
 62
     7
176
     1
 90
        6
176
     1
 90
        0
176
     1
 90
        0
176
     1
290
     0
176
     1
 90
        1
176
     1
 40
0.0
176
     1
 90
        0
176
     1
290
     0
176
     1
290
     1
176
     1
290
     1
176
     1
290
     0
176
     1
290
     0
176
     1
290
     0
176
     1
290
     0
176
     1
290
     0
176
     1
290
     0
176
     1
 90
       50
176
     1
 40
0.0
176
     1
 40
1.0
176
     1
 90
        0
176
     1
 62
    18
420
        0
176
     1
 90
       50
176
     1
 90
        3
176
     1
 62
     5
420
      255
176
     1
290
     0
176
     1
 90
       50
176
     1
 90
       50
176
     1
 90
       50
176
     1
290
     0
176
     1
 90
       50
176
     1
 62
   256
176
     0
 40
1.0
176
     0
 90
        2
176
     1
  1
strokes_ogs.tif
176
     1
290
     0
176
     1
 40
1.0
176
     1
 40
1.0
176
     1
  0
VISUALSTYLE
  5
FC
102
{ACAD_REACTORS
330
EF
102
}
330
EF
100
AcDbVisualStyle
  2
Thicken
 70
    13
177
     3
291
     1
 70
    58
 90
        2
176
     1
 90
        2
176
     1
 90
        1
176
     1
 90
        0
176
     1
 40
0.6
176
     1
 40
30.0
176
     1
 62
     7
176
     1
 90
        1
176
     1
 90
        4
176
     1
 62
     7
176
     1
 62
   257
176
     1
 90
        1
176
     1
 90
        1
176
     1
 40
1.0
176
     1
 90
       12
176
     1
 62
     7
176
     1
 40
1.0
176
     1
 90
        1
176
     1
 90
        6
176
     1
 90
        2
176
     1
 62
     7
176
     1
 90
        5
176
     1
 90
        0
176
     1
 90
        0
176
     1
290
     0
176
     1
 90
        1
176
     1
 40
0.0
176
     1
 90
        0
176
     1
290
     0
176
     1
290
     1
176
     1
290
     1
176
     1
290
     0
176
     1
290
     0
176
     1
290
     0
176
     1
290
     0
176
     1
290
     0
176
     1
290
     0
176
     1
 90
       50
176
     1
 40
0.0
176
     1
 40
1.0
176
     1
 90
        0
176
     1
 62
    18
420
        0
176
     1
 90
       50
176
     1
 90
        3
176
     1
 62
     5
420
      255
176
     1
290
     0
176
     1
 90
       50
176
     1
 90
       50
176
     1
 90
       50
176
     1
290
     0
176
     1
 90
       50
176
     1
 62
   256
176
     0
 40
1.0
176
     0
 90
        2
176
     1
  1
strokes_ogs.tif
176
     1
290
     0
176
     1
 40
1.0
176
     1
 40
1.0
176
     1
  0
VISUALSTYLE
  5
F6
102
{ACAD_REACTORS
330
EF
102
}
330
EF
100
AcDbVisualStyle
  2
Wireframe
 70
     5
177
     3
291
     0
 70
    58
 90
        0
176
     1
 90
        2
176
     1
 90
        0
176
     1
 90
        0
176
     1
 40
0.6
176
     1
 40
30.0
176
     1
 62
     7
176
     1
 90
        1
176
     1
 90
        4
176
     1
 62
     7
176
     1
 62
   257
176
     1
 90
        1
176
     1
 90
        1
176
     1
 40
1.0
176
     1
 90
        0
176
     1
 62
   257
176
     1
 40
1.0
176
     1
 90
        1
176
     1
 90
        6
176
     1
 90
        2
176
     1
 62
     7
176
     1
 90
        3
176
     1
 90
        0
176
     1
 90
        0
176
     1
290
     0
176
     1
 90
        1
176
     1
 40
0.0
176
     1
 90
        0
176
     1
290
     0
176
     1
290
     1
176
     1
290
     1
176
     1
290
     0
176
     1
290
     0
176
     1
290
     0
176
     1
290
     0
176
     1
290
     0
176
     1
290
     0
176
     1
 90
       50
176
     1
 40
0.0
176
     1
 40
1.0
176
     1
 90
        0
176
     1
 62
    18
420
        0
176
     1
 90
       50
176
     1
 90
        3
176
     1
 62
     5
420
      255
176
     1
290
     0
176
     1
 90
       50
176
     1
 90
       50
176
     1
 90
       50
176
     1
290
     0
176
     1
 90
       50
176
     1
 62
   256
176
     0
 40
1.0
176
     0
 90
        2
176
     1
  1
strokes_ogs.tif
176
     1
290
     0
176
     1
 40
1.0
176
     1
 40
1.0
176
     1
  0
VISUALSTYLE
  5
1F1
102
{ACAD_REACTORS
330
EF
102
}
330
EF
100
AcDbVisualStyle
  2
X-Ray
 70
    25
177
     3
291
     0
 70
    58
 90
        2
176
     1
 90
        2
176
     1
 90
        1
176
     1
 90
        1
176
     1
 40
0.5
176
     1
 40
30.0
176
     1
 62
     7
176
     1
 90
        1
176
     1
 90
        0
176
     1
 62
     7
176
     1
 62
   257
176
     1
 90
        1
176
     1
 90
        1
176
     1
 40
1.0
176
     1
 90
        8
176
     1
 62
     7
176
     1
 40
1.0
176
     1
 90
        1
176
     1
 90
        6
176
     1
 90
        2
176
     1
 62
     7
176
     1
 90
        3
176
     1
 90
        0
176
     1
 90
        0
176
     1
290
     0
176
     1
 90
       13
176
     1
 40
0.0
176
     1
 90
        0
176
     1
290
     0
176
     1
290
     1
176
     1
290
     1
176
     1
290
     0
176
     1
290
     0
176
     1
290
     0
176
     1
290
     0
176
     1
290
     0
176
     1
290
     0
176
     1
 90
       50
176
     1
 40
0.0
176
     1
 40
1.0
176
     1
 90
        0
176
     1
 62
    18
420
        0
176
     1
 90
       50
176
     1
 90
        3
176
     1
 62
     5
420
      255
176
     1
290
     0
176
     1
 90
       50
176
     1
 90
       50
176
     1
 90
       50
176
     1
290
     0
176
     1
 90
       50
176
     1
 62
   256
176
     0
 40
1.0
176
     0
 90
        2
176
     1
  1
strokes_ogs.tif
176
     1
290
     0
176
     1
 40
1.0
176
     1
 40
1.0
176
     1
  0
DICTIONARYVAR
  5
146
102
{ACAD_REACTORS
330
5E
102
}
330
5E
100
DictionaryVariables
280
     0
  1
1:1
  0
DICTIONARYVAR
  5
145
102
{ACAD_REACTORS
330
5E
102
}
330
5E
100
DictionaryVariables
280
     0
  1
STANDARD
  0
DICTIONARYVAR
  5
84
102
{ACAD_REACTORS
330
5E
102
}
330
5E
100
DictionaryVariables
280
     0
  1
STANDARD
  0
DICTIONARYVAR
  5
227
102
{ACAD_REACTORS
330
5E
102
}
330
5E
100
DictionaryVariables
280
     0
  1
Metric50
  0
DICTIONARYVAR
  5
228
102
{ACAD_REACTORS
330
5E
102
}
330
5E
100
DictionaryVariables
280
     0
  1
Metric50
  0
DICTIONARYVAR
  5
5F
102
{ACAD_REACTORS
330
5E
102
}
330
5E
100
DictionaryVariables
280
     0
  1
2
  0
DICTIONARYVAR
  5
63
102
{ACAD_REACTORS
330
5E
102
}
330
5E
100
DictionaryVariables
280
     0
  1
1
  0
DICTIONARYVAR
  5
5D1
102
{ACAD_REACTORS
330
5E
102
}
330
5E
100
DictionaryVariables
280
     0
  1
0
  0
DICTIONARYVAR
  5
1AE
102
{ACAD_REACTORS
330
5E
102
}
330
5E
100
DictionaryVariables
280
     0
  1
0
  0
DICTIONARYVAR
  5
1AF
102
{ACAD_REACTORS
330
5E
102
}
330
5E
100
DictionaryVariables
280
     0
  1
0
  0
DICTIONARYVAR
  5
5CF
102
{ACAD_REACTORS
330
5E
102
}
330
5E
100
DictionaryVariables
280
     0
  1
2
  0
DICTIONARYVAR
  5
5CE
102
{ACAD_REACTORS
330
5E
102
}
330
5E
100
DictionaryVariables
280
     0
  1
1
  0
DICTIONARYVAR
  5
5D0
102
{ACAD_REACTORS
330
5E
102
}
330
5E
100
DictionaryVariables
280
     0
  1
127
  0
DICTIONARY
  5
205
330
22
100
AcDbDictionary
280
     1
281
     1
  0
DICTIONARY
  5
1F9
330
ED
100
AcDbDictionary
280
     1
281
     1
  3
FBXASSET
360
1FA
  0
DICTIONARY
  5
1F7
330
EC
100
AcDbDictionary
280
     1
281
     1
  3
FBXASSET
360
1F8
  0
DICTIONARY
  5
173
330
EE
100
AcDbDictionary
280
     1
281
     1
  3
BUMPTILE
360
175
  3
DIFFUSETILE
360
174
  3
FBXASSET
360
1FB
  3
OPACITYTILE
360
176
  3
REFLECTIONTILE
360
177
  0
DICTIONARY
  5
162
330
7F
100
AcDbDictionary
280
     1
281
     1
  3
ACAD_ROUNDTRIP_2008_TABLESTYLE_CELLSTYLEMAP
360
5E1
  0
XRECORD
  5
1FA
102
{ACAD_REACTORS
330
1F9
102
}
330
1F9
100
AcDbXrecord
280
     1
 70
     1
 90
429727718
  1
D62C5603-E3A1-4AEA-B7FB-FE5D8D0755AF
310
504B03040A0000080000CC70623B3DEE336E79000000790000001B0000006175746F6465736B2D64657369676E2D7061636B6167652E786D6C3C3F786D6C2076657273696F6E3D22312E302220656E636F64696E673D227574662D3822203F3E3C666F726D6174733E3C666F726D61743E687474703A2F2F736368656D612E
310
6175746F6465736B2E636F6D2F64657369676E2D7061636B6167652F323030393C2F666F726D61743E3C2F666F726D6174733E504B0304140006080800CC70623BD486FD9CA0000000F4000000130000005B436F6E74656E745F54797065735D2E786D6C7D8EC10E82300C865F65E91D8A1E8C310C0EEA1BF002731658846E
310
D98AC1B77784ABF1D8FE5FBFBF75BBCE937A534CCEB38643598122B6FEE978D0B0485F9C41B54DDD7D022595594E1A469170414C76A4D9A4D207E29CF43ECE46F218070CC6BECC4078ACAA135ACF422C856C0E68EA1BF5669944DDD7BCDE7B1F8E415D77AECB980613C2E4AC91FC167A2B244592486606FC29C8FD7F045B9A
310
EF7053A7E60B504B0304140006080800CC70623B853B8169EB0000007C01000008000000636F72652E786D6C8D90416EC3201045AF62CDB6C206821CC7C244919D9CA01740401C94182C03558F5F9C3852BBEB6A467FFE9B197D7EFC9E1EC5975982F5AE035262288C535E5B377690E21535501C055FBC8FBF6C503839990E
310
5619041F179FE64D52DE45E362569DD7661365082642A11EB9E920A89B99642953CC8E702F67A9EE7234257977194EC9EAE275C4EABCCF5EAD5940D4AC6F0E35A568B8F43562CD7046CD199FD07E60174276A7BE677B5EADB0E0D14EEFFB6A31321A0D82627C4084204C3F096B71DD52F6819B16635EADF63F509AF53FA164
310
5DDCD1EDDD17164090FCC8732078B56691CB33A85CD7DCC40F504B0304140006080800CC70623B55019EA25F0000007C00000007000000636E782E786D6C4DCB3B0E80201045D1AD90E915ED2CF8AC45050C11660C8261F98AB1B07AC9C97D42D718D865D3E909258CFD00CCE24AC6E326A164D74DC0B4128928FF32603847
310
2BA13128B1252AC747C6BAB984FC68F0B87FE8960A5C09FE86CFB69FBA01504B0304140006080800CC70623BDBABAAF470010000D40300000C0000006662782F636F72652E786D6CC553D16E823014FD95A6AF4B694182CC941A83FA05FB810A9511A125A5257EFE2E82712ECEB8A7F100CD39F7F69E734AF9FADC366850B6
310
AF8DCE7018308C942E4C59EB2AC3DE1D498AD15A706B8CFB56869196ADCAF00863C12B6B7C374385D14E6907A836A59A41D9F7CA615434B0C8705F7CAA5606D23BA8E84F41278B93AC54100640439DE0BDB320004D43C63716C7C399D30917DCFBBA9CD9BA8469F5B156168B24CED3F7248AC8769F27244EB73B92EED8862C
310
B7F13E0C179B3C8F979C8ECD82BBBABDAA2BAC924E9558448CBD9330242CFA08E3154B5651FCC6D215639C8EE5774DBE2B5F6CF2B5768B68963BB5F5588420E442FC700B1139D4CB01F450C1E918227C2E09DF070D8140C84E1E9AAB8F1340832A9CB13130A5F1376A908D57309505ECF2A0DF179C4E9D30F5B239B87E3823
310
7A79C6F31DE1A8A5AEC08474B03C7837EAE4938639B44E5932B833D2C6B6B279CDC613877FA26EE21F4A2A4C63EC7F29A2F301D1F9F7A0E37D145F504B0304140006080800CC70623B9C113CC27E0000009D0000000B0000006662782F636E782E786D6C4DCCDF0A83201C86E15B91DFB94BFB330DD428C8FB886521330DA7
310
6397BF1A1DECE883878F57749FCDA1B7892F1BBC047A23808C7F84D9FA55424E0BE6803A256208E9EF06C84F9B91703228B1C690F78B66B34CD9A5439DF5CF0BFBF65E35BCA1B8D6A5C6F540381E886698B5741C695F9503EBA150A2F8958E3DC3EA0B504B0304140006080800CC70623B7DF2F77C2A010000120200003100
310
00006662782F41393633353835312D344632462D344230382D423046372D3739314545314133324237412F636F72652E786D6C8D51DB8EC22014FC15C2939B0D2DB4B45643319AE817EC0F6041255A68B86CFCFC856D4D76DF7CE190393373060EDB3DC707F856CE6B6B7A480A0C81328395DA5C7B18C3057510EC3873D686
310
3F34088C18550F330C39BB3A1BA7051AAC09CA84841A2BD5020AEF55806078A44B0FFD7053A328440C89E1EFC52486BBB8AA8214A99D789CF9E05200300FC927E4FB4D5B375D43103D5527440FB843077C5AA3F5861C8F645F5787F59E95B390B318B55CE45AA638FAA2957BD7248B390B7A7CC51F9C124149C82B8C378810
310
84AB2F42B7B8DD56F413775B8C5999E9FF4471926F8AA236A1AE96B8B3CC434E5839373893369E1FAF30EA395917409EB7F26AF8801C171837A4A6AC9C89E9F9C9B1A58BA30FD6A5EF5DDDCF894B9AD9B6A59C957943A9FCAE2FD5BC4DFE03504B0304140006080800CC70623BAD7543B64E01000033030000300000006662
310
782F41393633353835312D344632462D344230382D423046372D3739314545314133324237412F636E782E786D6CD593CD6EC32010845F0571AD6CE3D48AD20813A9873E410FBD12D82434182C7EAAE6EDBB2424CD25871E7B41D6EC30B3FA84F9E67BB2E40B4234DE8DB46F1925E094D7C6ED479AD3AE5951B2113C789FEE
310
6C943839C1488B4C05DF079FE72A69D8C96C13AAD6B8631503449F83828872B949AC57D26200B826A308D316B4064D6E46FCDA41C05550DC9E483A00797BFD207EFB092A45DE9514C1BBD22178396BD39D891265658C238DEA00936C654E5E433CB65A26D9F6EDB5EBC14EBF49A45CB856E66048291F6939A9A81BB5C89177
310
38143CA680F4AA299D66A042CEB3354A2684DC9D8D178FE0D9B8B41CAAD720F880EE7EF93C0C18769E099ECC04D5A102C8049A8A05632F4DDF376CF1DE0F6BB65C2F8627B65A33C6BB62177CEBBDAD973006829F89F22E814B54F4BC2BE347F8AA8F681390B50FA73F804400B5F542E796F19FF974E7F78DB802FE05E20750
310
4B0304140006080800CC70623BE75B7789680500003C100000340000006662782F41393633353835312D344632462D344230382D423046372D3739314545314133324237412F6F626A656374732E786D6CAD575B8F9B3818FD2B887D06C22499CB8AA1CA655245D5B455A356FB305264C061D8018C6C3393D95FBFC7600890
310
A4CD5EF210B0B1BFEBF98E3F7B1FF6596ABC522E1296DF9BAE3D320D9A872C4AF2F8DE2CE5CEBA358D0FBEC719939D65A691938CDE9B6ADAF4BD98B3B2D05311DD91329583D9D5FC0F438434A7A611A644887B5384CF34233629258BA878B12322891DEFF6B66BD70BFB62634E8AE781D082709A4B588AF91C528CDA28B73F
310
1C998EEF39EABBEFA97FBD6A7C7E9553F9D3D79FE442923C3C523610337627CB87ABE99D359D4CC6D6E4FACAB5E6ABF9D2726FC6A3C5F56271377BB88362213924694B38DD99FE47C48627A1E7D49F5A8BB5E1A74C0A599ED3B0F21F1E56366B89112D681E218F0915D0D6F17AD41FBA2A369DCF6335D62ABBD39779D5DDD1
310
11D4D8DE3CBB96B2E04FB8202E41051754A1AA8E8F76B4C6DFE810B580B1547F4B84911149794252234D024EF8BBE963A95AE27B3D310A9D5C215C7960FAEE415ED75694C6AFB17BCACA5D99A60A9AA65F217B0BFC53292ACB92BF283FAD0D3621576592CB5BED907C2FA8E9DF794E35E97BEA31BED21FEB401ABB94C44839
310
DCACBF0E1C5DA8DA5B2F4DFFD32AD86F543D9E565E7056502E157C00AD2671CD534549AB752FCA9CDA00677A313F04E51B22FF19E57B300579E3C97EB29F682D92935CEC18CF901B7B54FD8C51F362B56FC72FE0B3C1EAE335EDCCBF5AEC39ADB17DC238973F804BA5E6F6BFE7AF1FB32E523BE9F3BD571418E3631DCA4D48
310
5250CF639223210A9446CA30052EDF057BD35F8329C1ECD84552BF0DC8D18BE7BCE23BFE6BD960AB4A7DE79923A103BEBD80F911CBAA2C60DB19B01CF164A5583B772EE6D3FFA56666CBCDA74DC97724A48F9A58967497E489C4D979006FD7A05E227A1EBDD0F737C623387A9C844D3709995625106D157315F8B8392CD4E0
310
A0B9A720C4BE9829CEF37EA1E13111214D53925356365ADA634861B52519DD27A00AEB808EAF0628E6F435519D446F45CF2C9CF5214F0A15B2F6D06B79DA3EE3CBF7F56780D2F4E7EF73A0F5E5B02A38D07DC852C6B7C1FBB6664213E0C39E3EBA7FF4E1AD23EA2829407C85E586727488B751B2DB9502BC7B228A3FD68B6E
310
A65A22397E690AA8D158D7E404EC8CDA235CC3B7D1898680131CEC2CDF2638C65196279577750F15884AEE19F94199155B92B13297978469D4F8D358DF0AEF7631E28DC8F0D9F437D5D39A83B2231A1D52D543813A824EF8D44BCFF2FA6A31BD1E8DAD87F1CCB526B3879935BF59CDADD5C37479BB1CDD4CA7B3556B516589
310
EF352754B706114D9C885EC9131DE6EFEB43D99AFE2391C2F958179413D7CFEF6B1B6DB1E7600F00DE6E5C67454A339A4BA2E0FBA85ED26F045D454F463DBFCE484C2F90F2E5E3666003662ED8F755951A7D1BECD5B30B550B2785C8E7320B7292A4838DDA71BBC863ED7613CAF659337A3354231D4FF4A182A54904C2898C
310
98B28C4AD0CE056CCF332A80986E571EE9DBC305BB5FEB7E509220A58D25CF042D712A806AC0AD0C657FDEF80D2D9CEAA2EE4D1C76F60BFE74219A06527D6F82DF6412526107381E55E353090704D085B52408A8913C4ED159D79BDA71BB4BC506F4831350EB6F975CD22D69BF7AC49B91A2C0A9DDA3D5CA36AD20FC478E37
310
E61844E2352865EBCB61A275A65283CAAA9DD27703B4102F5AF51EF5F573B75CBB5AD38BC845F7A49F82A0966A49C2E3EA5EA0ECD326CD965F1DB402C6FA8B51A4658C5C5E2EC9E214602E55810345408596591009A82E7E7FFACA19EEA299B14A0081A705CB3296EBC14CDF658DCD336EA6D1136881AAEB87B81AB9EE53D5
310
F5EB8BC8362082DA24122F98680A4E7930C01A0079749CEA14382A0783E5EBA5A10F8C098456A03D6A4AEB6BB881E2513747552A5DB22C7EDAF83BD5528081A365F7FF06504B0304140006080000CC70623B000000000000000000000000350000006662782F41393633353835312D344632462D344230382D423046372D37
310
39314545314133324237412F76657274696365732E62696E504B0304140006080800CC70623BF270F1330600000004000000360000006662782F41393633353835312D344632462D344230382D423046372D3739314545314133324237412F747269616E676C65732E62696E636660600000504B0304140006080000CC7062
310
3B000000000000000000000000370000006662782F41393633353835312D344632462D344230382D423046372D3739314545314133324237412F617474726962757465732E62696E504B0304140006080800CC70623B08DA0BD19000000041010000360000006662782F41393633353835312D344632462D344230382D4230
310
46372D3739314545314133324237412F6469726563746F72792E786D6C858F410AC3201045AF22B36F53E9A60B35CBEEBAE80D244E44489C6234F4F835464A48035D0DF398FF9F8AF63D0E6CC63039F212F8F9020C7D47C6792B21C5FE7403D62A1188E2E60C98D7234A5830286103A55745067B9D86B8A3CF9C7F90C11DE6
310
07FB144396D7B6A82D282E9A152AD114D5EF2CB866EEE831B8EEA07A7BB5A8D7D61A2BAAEB7FD5F70921FF497D00504B0304140006080800CC70623BEDD1DC58FD000000A00100003B0000006662782F41393633353835312D344632462D344230382D423046372D3739314545314133324237412F7265736F75726365732F
310
636F72652E786D6C8D504B6E833010BD0A9A6D65B00922041947112427E8052C33A156828DFCA97AFC9A40A576D7CDCCE87D344F8F9FBFE667F689CE6B6B3A6039850C8DB2A336530731DC4903D95970676DF82583CCC8193B5861107C72362E3BA4AC096842428D1D7107A5F7182053CF7474E0D507CE32973124857FE48B
310
540F3961CEF244279DE03EB81420DB9EAC1384436FA353E879B1B182C7A8C75DA3C7F453DF353A1075D537A7BA6464B8F535A99AE14A9A2BBD90E350DD183B5CFABE3AF262350B1EF4FC9351399401471025A527C218A1E53BAB5A5AB765F5469B96525EACF23FA6B88CFF34456DC2A1DCE36E360F82A5202F42F062ED2BAD
310
579969AFDD8A6F504B010214000A0000080000CC70623B3DEE336E79000000790000001B00000000000000000000000000000000006175746F6465736B2D64657369676E2D7061636B6167652E786D6C504B01021400140006080800CC70623BD486FD9CA0000000F40000001300000000000000000000000000B20000005B
310
436F6E74656E745F54797065735D2E786D6C504B01021400140006080800CC70623B853B8169EB0000007C010000080000000000000000000000000083010000636F72652E786D6C504B01021400140006080800CC70623B55019EA25F0000007C000000070000000000000000000000000094020000636E782E786D6C504B
310
01021400140006080800CC70623BDBABAAF470010000D40300000C00000000000000000000000000180300006662782F636F72652E786D6C504B01021400140006080800CC70623B9C113CC27E0000009D0000000B00000000000000000000000000B20400006662782F636E782E786D6C504B01021400140006080800CC70
310
623B7DF2F77C2A010000120200003100000000000000000000000000590500006662782F41393633353835312D344632462D344230382D423046372D3739314545314133324237412F636F72652E786D6C504B01021400140006080800CC70623BAD7543B64E010000330300003000000000000000000000000000D2060000
310
6662782F41393633353835312D344632462D344230382D423046372D3739314545314133324237412F636E782E786D6C504B01021400140006080800CC70623BE75B7789680500003C10000034000000000000000000000000006E0800006662782F41393633353835312D344632462D344230382D423046372D3739314545
310
314133324237412F6F626A656374732E786D6C504B01021400140006080000CC70623B0000000000000000000000003500000000000000000000000000280E00006662782F41393633353835312D344632462D344230382D423046372D3739314545314133324237412F76657274696365732E62696E504B01021400140006
310
080800CC70623BF270F133060000000400000036000000000000000000000000007B0E00006662782F41393633353835312D344632462D344230382D423046372D3739314545314133324237412F747269616E676C65732E62696E504B01021400140006080000CC70623B0000000000000000000000003700000000000000
310
000000000000D50E00006662782F41393633353835312D344632462D344230382D423046372D3739314545314133324237412F617474726962757465732E62696E504B01021400140006080800CC70623B08DA0BD1900000004101000036000000000000000000000000002A0F00006662782F41393633353835312D344632
310
462D344230382D423046372D3739314545314133324237412F6469726563746F72792E786D6C504B01021400140006080800CC70623BEDD1DC58FD000000A00100003B000000000000000000000000000E1000006662782F41393633353835312D344632462D344230382D423046372D3739314545314133324237412F7265
310
736F75726365732F636F72652E786D6C504B0506000000000E000E0080040000641100000000
  0
XRECORD
  5
1F8
102
{ACAD_REACTORS
330
1F7
102
}
330
1F7
100
AcDbXrecord
280
     1
 70
     1
 90
429727718
  1
30362254-06B7-45E0-A893-8CFA70E3D6BC
310
504B03040A0000080000CC70623B3DEE336E79000000790000001B0000006175746F6465736B2D64657369676E2D7061636B6167652E786D6C3C3F786D6C2076657273696F6E3D22312E302220656E636F64696E673D227574662D3822203F3E3C666F726D6174733E3C666F726D61743E687474703A2F2F736368656D612E
310
6175746F6465736B2E636F6D2F64657369676E2D7061636B6167652F323030393C2F666F726D61743E3C2F666F726D6174733E504B0304140006080800CC70623BD486FD9CA0000000F4000000130000005B436F6E74656E745F54797065735D2E786D6C7D8EC10E82300C865F65E91D8A1E8C310C0EEA1BF002731658846E
310
D98AC1B77784ABF1D8FE5FBFBF75BBCE937A534CCEB38643598122B6FEE978D0B0485F9C41B54DDD7D022595594E1A469170414C76A4D9A4D207E29CF43ECE46F218070CC6BECC4078ACAA135ACF422C856C0E68EA1BF5669944DDD7BCDE7B1F8E415D77AECB980613C2E4AC91FC167A2B244592486606FC29C8FD7F045B9A
310
EF7053A7E60B504B0304140006080800CC70623B1EC5D7A3EB0000007C01000008000000636F72652E786D6C8D90416EC3201045AF82665B6103C6756C6122AB4D4ED00B204C5C94182C03558F5F9C3852BBEB6A467FFE9B197D71FC9E6FE8CBACC17AD7032D0820E3B41FAD9B7A48F1820F808E52ACDEC75F36404ECDA687
310
4D0629A6D5A76597B477D1B89855E747B38B2A041301E95B6E7A08FAD3CCAA50296647B8168BD2573599823EBB0CA76447F43862C7BCCF5EAC59410E4DDD9C7973C2755553CCCFA4C603E3040F1565ED3B1FDE4E432BCA0D9622DAF9795FAF464533826484B498524CD807E51D79ED187F21878E10516EF63F505AC67F42C9
310
BA58B1FDDD071640D2FCC87D2045B96591CB3DA85CB7DCE40F504B0304140006080800CC70623B55019EA25F0000007C00000007000000636E782E786D6C4DCB3B0E80201045D1AD90E915ED2CF8AC45050C11660C8261F98AB1B07AC9C97D42D718D865D3E909258CFD00CCE24AC6E326A164D74DC0B4128928FF32603847
310
2BA13128B1252AC747C6BAB984FC68F0B87FE8960A5C09FE86CFB69FBA01504B0304140006080800CC70623B8C9102E971010000D40300000C0000006662782F636F72652E786D6CC5535B6E833010BC8AE5DF0A6C08340F1947A84D4ED00B38C6A128602363A31CBFCB234A53A551FA553EC09AD9F5CE8C31DB9E9B1AF5CA
310
7695D1198E428A91D2D214952E33ECDD315861B4E5CC1AE3BE9561A445A3323CC098B3D21ADFCE9034DA29ED00D5A6503328BA4E398C640D8B0C77F253352214DE4145770A5B214FA2546114020D759C75CE8200340D19DE981F0F6746269C33EFAB6266AB02A655C74A59CCF365BADC27CB5D902ED22848F6340DF238A141
310
BE88E2F57B92BFEDF23523433367AE6A2EEAA455C2A902F398D2751045018D3FA264435F3771F242571B4A1919CA6F9A7C5B3CD9E42BED16F12C776AEB308F40C848FC700B1139D4891EF410CEC810227CC6846F8386402064270EF5C5C709A05E49676C024C61FC95EA45ED154CA5211D1FF4FB8291A913A68E9B83EBBB33
310
E2A7673CDE118E5AE8124C0807CB8377834E366998436B950D7A7746DAD846D4CFD978E0F04FD455FC5D49D2D4C6FE9722321F10997F0F32DC47FE05504B0304140006080800CC70623BFFEA85907E0000009D0000000B0000006662782F636E782E786D6C4DCCD10A83201886E15B91FFDC95D95A811AB6F23E625948A6C3
310
E9D8E5AF46073BFAE0E1E365ED67B3E8ADC3CB78C7815C7240DA3DFC64DCC221C519D7805AC182F7F1EF06C88D9BE6703008B6049F9E274D7A1E938DBB5AE3D6131B2589BA0D3D965551E0B2EA732C9B9A624AAEB41E3A557677029960D9AFB4EF11165F504B0304140006080800CC70623B4FEEA4082C0100001202000031
310
0000006662782F39464131463745442D413632322D343644302D413938332D3331353338454246344243312F636F72652E786D6C8D515B6EC32010BC0AE2AB55850DD871ED0813254D72825EC00192A2C460F1A872FC42ED48ED5F7E00CDCECCCEB26C731F6FE05B39AFADE921293004CA082BB5B9F43086336A21D870E6AC
310
0D7F68109861543DCC30E4ECE26C9C164858139409093556AA051CBC570102714B8F1E7AF1A5C6A11862480C7F2DA6415C878B2A4891CA89C7990F2E050073937C42DE1DB7E4F87ED8A36D4329AA9B3D46DBAEAD504556557BD81DEBDD0761E52CE42C462D17B996298E3E6BE59E35C962CE821E1FF18553435012728A7187
310
0841987E927A8D9B35ADDF70BBC6989599FE4F1427F9A4286A132ABAC49D651EF234CD5CE04CDA78BA3DC2A8FB645D00B9DF8B57E215725C60BCA2A463E54C4CE327C7A65E1C7DB02E7DEFCBF594B864C5CA6CDBD49C957943E9FA5D5FBAF336F90F504B0304140006080800CC70623BAD7543B64E01000033030000300000
310
006662782F39464131463745442D413632322D343644302D413938332D3331353338454246344243312F636E782E786D6CD593CD6EC32010845F0571AD6CE3D48AD20813A9873E410FBD12D82434182C7EAAE6EDBB2424CD25871E7B41D6EC30B3FA84F9E67BB2E40B4234DE8DB46F1925E094D7C6ED479AD3AE5951B2113C
310
789FEE6C943839C1488B4C05DF079FE72A69D8C96C13AAD6B8631503449F83828872B949AC57D26200B826A308D316B4064D6E46FCDA41C05550DC9E483A00797BFD207EFB092A45DE9514C1BBD22178396BD39D891265658C238DEA00936C654E5E433CB65A26D9F6EDB5EBC14EBF49A45CB856E66048291F6939A9A81BB5
310
C8917738143CA680F4AA299D66A042CEB3354A2684DC9D8D178FE0D9B8B41CAAD720F880EE7EF93C0C18769E099ECC04D5A102C8049A8A05632F4DDF376CF1DE0F6BB65C2F8627B65A33C6BB62177CEBBDAD973006829F89F22E814B54F4BC2BE347F8AA8F681390B50FA73F804400B5F542E796F19FF974E7F78DB802FE05
310
E207504B0304140006080800CC70623B16AB87BA640500003C100000340000006662782F39464131463745442D413632322D343644302D413938332D3331353338454246344243312F6F626A656374732E786D6CAD575B6FA33818FD2B887DE6924B3BED8A326A92B68A663B534DD4D13E548A0C38942D60649B369D5FBFC7
310
600890A493BDE42160637FD7F31D7FF63E6FB3D478A55C242CBF3247B66B1A340F5994E4F19559CA8D75611A9F7D8F33263BCB4C232719BD32D5B4E97B316765A1A722BA21652A07B3B7B33F0D11D29C9A46981221AE4C113ED38CD8A4942CA2E2C58E882476BCD9DA23BB5ED8171B73523C0F841684D35CC252CCE79062D4
310
468DFA43D7747CCF51DF7D4FFDEB5593E3AB9CCA9FBEFE241792E4E19EB28198C968BAB8199F5D5A67D3E9C49A9E8F47D6EC76B6B0469F26EEFC7C3EBFBCBEB98462213924694B38DD98FE1D62C393D073EA4FADC5DAF04326852CCF6958F90F0F2B9BB5C48816348F90C7840A68EB78EDF68723159BCEE7891A6B95DDE9D3
310
BCEAEEE8086A6C6F9E5D4B59F0175C10A7A0820BAA5055C7473B5AE3CFDD452D602CD5DF12616444529E90D448938013FE6EFA58AA96F85E4F8C42275708571E98FE6827AF6B2B4AE3D7D83D64E5A64C53054DD3AF90BD06FEA9149565C94FCA0F6B834DC85599E4F2423B24DF0B6AFA979E534DFA9E7A4CC6FA631D486393
310
921829879BF5D781A373557BCB85E97FB90DB62B558F8795179C15944B051F40AB495CF35451D26A4727654E6D8033BD98EF82F21D91FF8AF2DD9982BCF1643BDD4EB516C9492E368C67C88DED563FC36D5EACF66DFF057C3658BDBFA69DF9578B3DA735B64F18C7F20770A9D45CFCF7FCF563D6456A277DBEF78A02637CA2
310
43B90A490AEAB94F72244481D24819A6C0E59B606BFA4B3025981DBB48EAB701D97BF19C577CC77F2D1B6C55A9EF3C732474C0B727303F625995056C3B02963D9EAC146BE78EC5FCEC7FA999EBC5EACBAAE41B12D27B4D2C0BBA49F244E2ECDC81B76B502F113D8F5EE8FB1BE3111CDD4FC2AA9B844CAB1288B68AB90A7CDC
310
1C166AB0D3DC5310625FCC14E779BFD0709F8890A629C9292B1B2DED31A4B0DA928CEE135085754027E3018A397D4D5427D15BD1330B677DC8934285AC3DF45A9EB68FF8F2B8FC0A509AFEECFD0FF2DE25CC6047F7214B195F07EFEB9A094D800F7BFAE8FED187B78EA8A3A400F115961BCAD1215E47C966530AF0EE8128FE
310
58CEBB996A8964FFA529A046635D9353B0336A8F700DDF46271A024E70B0B37C9DE01847591E54DED53D54202AB947E4076556AC49C6CA5C9E1226B7F1A7B1BE15DEED62C41B91E1B3E9AFAAA735036547343A925075041DF0A9979E893B391F8FCFA6967B3EFB644DCF6E5CEBFAE272625DCC6FAF3FB93793C5F90CE1EF57
310
407342756B10D1C489E8953CD1617E5CEECAD6F4EF8914CE5D5D504E5C3F1F9736DA62CFC11E00BCDDB8CC8A9466349744C1F75EBDA4DF09BA8A9E8C7A7E9991989E20E5DBDD6A6003664ED8F7A04A8DBE0DF6EAD9B9AA858342E47399053949D2C146EDB85DE4B176BB0965FBAC19BD19AA918E27FA50C1D22402E144464C
310
59462568E704B6E71915404CB72B8FF4EDE184DDAF753F284990D2C6926782963815403548A70C657FDEF80D2D9CEAA2AE4C1C76F60BFE74219A06527D6582DF6412526107381E55E353090704D085B52408D0933C4ED159D79BDA71BB4BC506F4831350EB6F979CD22D69BF7AC49B91A2C0A9DDA3D5CA36AD20FC478E37E6
310
1844E2352865EBCB6EA275A652E3836BE04EFB400BF1A2556F515F1FBB35B2AB35BD889C744FFA1004B5544B121E57F70215746DD2F5E2C1412B602CBF19455AC6C8E5E9922C4E01E65215385004546899059180EAFCF7A707CE7017CD8CDB0410789AB32C63B91E5CEBBBACB17AC6CD347A022D5075FD106377347AAABA7E
310
7D11590744509B44E205134DC1290F06580320F78E537D3D73540E06CB970B431F185308AD40BBD794D6D77003C5A36E8EAA54BA64597CD8F83BD552A080A365F7FF06504B0304140006080000CC70623B000000000000000000000000350000006662782F39464131463745442D413632322D343644302D413938332D3331
310
353338454246344243312F76657274696365732E62696E504B0304140006080800CC70623BF270F1330600000004000000360000006662782F39464131463745442D413632322D343644302D413938332D3331353338454246344243312F747269616E676C65732E62696E636660600000504B0304140006080000CC70623B
310
000000000000000000000000370000006662782F39464131463745442D413632322D343644302D413938332D3331353338454246344243312F617474726962757465732E62696E504B0304140006080800CC70623B08DA0BD19000000041010000360000006662782F39464131463745442D413632322D343644302D413938
310
332D3331353338454246344243312F6469726563746F72792E786D6C858F410AC3201045AF22B36F53E9A60B35CBEEBAE80D244E44489C6234F4F835464A48035D0DF398FF9F8AF63D0E6CC63039F212F8F9020C7D47C6792B21C5FE7403D62A1188E2E60C98D7234A5830286103A55745067B9D86B8A3CF9C7F90C11DE607
310
FB144396D7B6A82D282E9A152AD114D5EF2CB866EEE831B8EEA07A7BB5A8D7D61A2BAAEB7FD5F70921FF497D00504B0304140006080800CC70623B0D6EF93BFE000000A00100003B0000006662782F39464131463745442D413632322D343644302D413938332D3331353338454246344243312F7265736F75726365732F63
310
6F72652E786D6C8D50596E833010BD0A9ADFCA60B334011947A8694ED00B586642AC041B79A97AFC9A40A5F6AF3F33A3B7689E1E3F7DCD8FEC139DD7D6F4C0720A191A65476DA61E62B892236427C19DB5E1970C322367EC618541F0C9D9B8EC90B226A009093576C41D94DE63804C3DD2D18357379C652E63480A7FCF17A9
310
EE72C29CE5894E3AC17D702940B63D59270887DE46A7D0F36263058F518FBB468FE9A7BE6A7420864373B8D4873369AA8691FA421B3294352543C5CAF65C0F6FEF43CB8BD52C78D0F34F46E550061C419494B6843142CB0F5677F4B52BEB177AEC28E5C52AFF638ACBF84F53D42654E51E77B379102C05791282176B5F693D
310
CB4C7BED567C03504B010214000A0000080000CC70623B3DEE336E79000000790000001B00000000000000000000000000000000006175746F6465736B2D64657369676E2D7061636B6167652E786D6C504B01021400140006080800CC70623BD486FD9CA0000000F40000001300000000000000000000000000B20000005B
310
436F6E74656E745F54797065735D2E786D6C504B01021400140006080800CC70623B1EC5D7A3EB0000007C010000080000000000000000000000000083010000636F72652E786D6C504B01021400140006080800CC70623B55019EA25F0000007C000000070000000000000000000000000094020000636E782E786D6C504B
310
01021400140006080800CC70623B8C9102E971010000D40300000C00000000000000000000000000180300006662782F636F72652E786D6C504B01021400140006080800CC70623BFFEA85907E0000009D0000000B00000000000000000000000000B30400006662782F636E782E786D6C504B01021400140006080800CC70
310
623B4FEEA4082C0100001202000031000000000000000000000000005A0500006662782F39464131463745442D413632322D343644302D413938332D3331353338454246344243312F636F72652E786D6C504B01021400140006080800CC70623BAD7543B64E010000330300003000000000000000000000000000D5060000
310
6662782F39464131463745442D413632322D343644302D413938332D3331353338454246344243312F636E782E786D6C504B01021400140006080800CC70623B16AB87BA640500003C1000003400000000000000000000000000710800006662782F39464131463745442D413632322D343644302D413938332D3331353338
310
454246344243312F6F626A656374732E786D6C504B01021400140006080000CC70623B0000000000000000000000003500000000000000000000000000270E00006662782F39464131463745442D413632322D343644302D413938332D3331353338454246344243312F76657274696365732E62696E504B01021400140006
310
080800CC70623BF270F133060000000400000036000000000000000000000000007A0E00006662782F39464131463745442D413632322D343644302D413938332D3331353338454246344243312F747269616E676C65732E62696E504B01021400140006080000CC70623B0000000000000000000000003700000000000000
310
000000000000D40E00006662782F39464131463745442D413632322D343644302D413938332D3331353338454246344243312F617474726962757465732E62696E504B01021400140006080800CC70623B08DA0BD190000000410100003600000000000000000000000000290F00006662782F39464131463745442D413632
310
322D343644302D413938332D3331353338454246344243312F6469726563746F72792E786D6C504B01021400140006080800CC70623B0D6EF93BFE000000A00100003B000000000000000000000000000D1000006662782F39464131463745442D413632322D343644302D413938332D3331353338454246344243312F7265
310
736F75726365732F636F72652E786D6C504B0506000000000E000E0080040000641100000000
  0
XRECORD
  5
175
102
{ACAD_REACTORS
330
173
102
}
330
173
100
AcDbXrecord
280
     1
270
     1
271
     1
  0
XRECORD
  5
174
102
{ACAD_REACTORS
330
173
102
}
330
173
100
AcDbXrecord
280
     1
270
     1
271
     1
  0
XRECORD
  5
1FB
102
{ACAD_REACTORS
330
173
102
}
330
173
100
AcDbXrecord
280
     1
 70
     0
 90
1673772943
  1
ECE7A1D2-D628-4531-984C-D00F80459256
310
504B03040A0000080000CC70623B3DEE336E79000000790000001B0000006175746F6465736B2D64657369676E2D7061636B6167652E786D6C3C3F786D6C2076657273696F6E3D22312E302220656E636F64696E673D227574662D3822203F3E3C666F726D6174733E3C666F726D61743E687474703A2F2F736368656D612E
310
6175746F6465736B2E636F6D2F64657369676E2D7061636B6167652F323030393C2F666F726D61743E3C2F666F726D6174733E504B0304140006080800CC70623BD486FD9CA0000000F4000000130000005B436F6E74656E745F54797065735D2E786D6C7D8EC10E82300C865F65E91D8A1E8C310C0EEA1BF002731658846E
310
D98AC1B77784ABF1D8FE5FBFBF75BBCE937A534CCEB38643598122B6FEE978D0B0485F9C41B54DDD7D022595594E1A469170414C76A4D9A4D207E29CF43ECE46F218070CC6BECC4078ACAA135ACF422C856C0E68EA1BF5669944DDD7BCDE7B1F8E415D77AECB980613C2E4AC91FC167A2B244592486606FC29C8FD7F045B9A
310
EF7053A7E60B504B0304140006080800CC70623BD9DDAED0EC0000007C01000008000000636F72652E786D6C8D90416EC3201045AF82665B61836D9CD8C2444DD39CA01740405C94182C03558F5F9C3852BBEB6A467FFE9B197D7EF89E6EE8CB2CC17A37002D0820E394D7D68D03A478C17B4007C117EFE32F1B20272733C0
310
2A83E0E3E2D3BC49CABB685CCCAAF3DA6CA20CC14440EA969B0182FA34932C648AD911AEC52CD5558EA6A0CF2EC329598D1E47ACCEFBECC59A050463A7EA5833865FEBDD0E37353BE3EE8DBDE3F6786A48D375FBF6CC78B9C282473B3DEFABC5C86834888A900E538A49F5419B9EB47DD5BC907D4F082F57FB1F28CDFA9F50
310
B22ED6D5F6EE030B20687EE43E10BC5CB3C8E51E54AE6B6EE207504B0304140006080800CC70623B55019EA25F0000007C00000007000000636E782E786D6C4DCB3B0E80201045D1AD90E915ED2CF8AC45050C11660C8261F98AB1B07AC9C97D42D718D865D3E909258CFD00CCE24AC6E326A164D74DC0B4128928FF326038
310
472BA13128B1252AC747C6BAB984FC68F0B87FE8960A5C09FE86CFB69FBA01504B0304140006080800CC70623BA24EB22D72010000D40300000C0000006662782F636F72652E786D6CC5535B6E833010BC8AE5DF0A6C5E49888CA3A6694ED00B38E05014B091B1518EDFE511A5A9D228FD2A1F60CDEC7A67C6986DCE4D8D7A
310
69BA4AAB0C073EC548AA5C17952A33ECECD15B61B4E1CC686DBF9561A44423333CC098B3D268D7CE50AE9595CA02AA74216750749DB418E5352C32DCE59FB211BE70162ABA93DF8AFC244AE9073ED050C759670D0840D390E18DF9F1706664C23973AE2A66B62A605A75ACA4C13C4976E1364A12EF355A2EBD384AF65EFA96
310
BC7B8BED2EA6719AAE16FB8491A199335B351775B991C2CA02F390D2D40B028F861F41BCA68B7518BFD0D59A524686F29B26D7164F36B94AD9289CE54E6D1DE6010819891F6E21228B3AD1831EC219194284CF98F06DD01008846CC5A1BEF83801D4CBDC6A1303536877A57A513B0953A94FC707FDBE6064EA84A9E3E6E0FA
310
EE8CF0E9198F7784A316AA0413C2C2F2E0ECA0934D1AE6D05A69BCDE9E91D2A611F573361E38FC1375157F5752AE6B6DFE4B11990F88CCBF0719EE23FF02504B0304140006080800CC70623B408A7D3B7C0000009D0000000B0000006662782F636E782E786D6C4DCCD10A83201886E15B91FFDC552A92A0064DBC8F581632
310
D3703A76F9ABD1C18E3E78F878E5F0D9027ABBFCF2292AE86E2D20171F69F6715550CB827B40839639A5F2770314A7CD293819B45C73AAFB45B35BA61ACAA1C1C7E7855C58C15BC331339661262CC762340413D68D77DA5B42298546CBE6573AF60CEB2F504B0304140006080800CC70623B449FB9BD290100001202000031
310
0000006662782F36394639363044362D344446342D343946362D394244322D3234314243333846323333332F636F72652E786D6C8D515B6EC32010BC0AE22B55850D98B871848994463E412FE002495162B07854397EA176A4F62F3F2C9A9D991D587EB84F37F0AD7D30CEF6905418026DA553C65E7A98E219ED203808EE9D
310
8B7F6810D871D23D2C3014FCE25D9A57483A1BB58D19B54EE9151C43D0110279CB971E06F9A5A7B11A53CC8C70ADE6515EC78BAE4895DB992778883E0700CB907242D17643D7E2538BD869608875438BBAE38922CAC8F1BDD90DB4691A5E2F42C153326A951B95E398B3D1FE599322163C9AE9115F7A3D46ADA0A018778810
310
84E907617BDCEE297BC5BB3DC6BC2EF47FA234AB2745C9D8D8D035EE220B50105E2F0DC1954B9FB747187D9F9D8FA0CCDB042D5FA0C015C65B42DF78BD10F3F3B363CB56C7109DCFDFBBB97E662ED92EB62D13BC2E1BCAE5777DB9966D8A1F504B0304140006080800CC70623BAD7543B64E01000033030000300000006662
310
782F36394639363044362D344446342D343946362D394244322D3234314243333846323333332F636E782E786D6CD593CD6EC32010845F0571AD6CE3D48AD20813A9873E410FBD12D82434182C7EAAE6EDBB2424CD25871E7B41D6EC30B3FA84F9E67BB2E40B4234DE8DB46F1925E094D7C6ED479AD3AE5951B2113C789FEE
310
6C943839C1488B4C05DF079FE72A69D8C96C13AAD6B8631503449F83828872B949AC57D26200B826A308D316B4064D6E46FCDA41C05550DC9E483A00797BFD207EFB092A45DE9514C1BBD22178396BD39D891265658C238DEA00936C654E5E433CB65A26D9F6EDB5EBC14EBF49A45CB856E66048291F6939A9A81BB5C89177
310
38143CA680F4AA299D66A042CEB3354A2684DC9D8D178FE0D9B8B41CAAD720F880EE7EF93C0C18769E099ECC04D5A102C8049A8A05632F4DDF376CF1DE0F6BB65C2F8627B65A33C6BB62177CEBBDAD973006829F89F22E814B54F4BC2BE347F8AA8F681390B50FA73F804400B5F542E796F19FF974E7F78DB802FE05E20750
310
4B0304140006080800CC70623B8D05915C650500003B100000340000006662782F36394639363044362D344446342D343946362D394244322D3234314243333846323333332F6F626A656374732E786D6CAD575B6FA33814FE2B887D06429276DA1565D4266D158D3A339A6846FB502932E050B66023DB74D2FDF5FB190C01
310
9276B2973C046C8ECFF53B17071F77456EBD502133CEAE6CDF9DD81665314F32965ED995DA3A17B6F5310C04E7AA47665B8C14F4CAD6DB7618A48257A5D94AE89654B91AEDDEDDFC61C998326A5B714EA4BCB265FC440BE2924AF184CA6737218AB8E976E7FA6E4338649B0A523E8D98964450A6A029F619B8588D52FE7039
310
B1BD30F0F4F730D0FF866AF6369557DB33949F31A9088B0F848DD8CCFCF9F2767A76E99CCDE733677E3EF59D9BBB9BA5E37F984D16E78BC5E5F5ED25044B25C0C96822E8D60EEFE11B91C581D77CEA34368A1F5329E68CD1B8B61F16D63A1B8E092D294B10C78C4A48EB593D192E7DED9BDEE7995E1B91FDEDD3ACEA9FE831
310
6A756F9F7D4D79F4274C90A7A04248AA51D5F8C718DAE06FB2F75AC4796EBE65D22A88A22223B995679120E2D50E41AA49C260C046A35368846B0BECD0DFF3EBEB8AD4F835768F69B9ADF25C43D30E6B646F807FAA64AD59F61715C7A54127C4AACA98BA3006A9D792DAE165E0D59B61A01FB3A9F9D838D2DAE62445C86166
310
F37564E842E7DE6A69879FEEA2DD5AE7E371E1A5E025154AC307D06A03D73EB5978C58FFA4C8E9033066E0F3BD53BEC1F39F91BE7B55103791EDE6BBB991A2046172CB4581D8B893FA674DDA17A77B3B7C413D1B511FD2743BFF8A38F03A658705E3ADF8015C3A3417FF3D7E439FF591DA0B5F18BC20C1B8981957AE6392A3
310
F43C640C01D1A0B4728E2DD4F26DB4B3C3152A252A3B4E913CEC1C72F012782FF88EFF8637AA552DBEF76408E8A8DE9E50F9E1CB3A2DA0DB1B6039A893B56063DC5B3E3FFB5F72E67AB9FEB4AEC496C4F4C1149625DD662C53E89D7BF0F6151A046260D1337DFDC94502430F83B0EE07A130A224BCAD7DAE1D9FB6CD422FF6
310
920702629C4BB9AE79C12F243C6432A6794E18E5552BA56B431AAB5D91317302B2B071E86C3A42B1A02F999E24061403B5D0EB639195DA655DD3EBEAB4FB862DDF579F014AD0E73C22F99E28DA57FB98E75C6CA2D74D53086D600F4786E0FE3144B771A8A7B900F03594DB8A633CBC49B2EDB69228BB479CF863B5E807AAAB
310
23872F6DFEB4129B949CA33823F58830E86D65621E10047D9DB34D862E8EAC3C2ABC2F7B2C40D67CDFE01F5545B92105AF983AC54D93D69E56FB8E797F88913F898A9FEC705D3F9D1B54EC8426FB500D40A03BD0119B06E1B95DDC7EB8F6975367793EBD70E66733DFB9BC982F9CE564727731999F5D4ECFCE3B8D6A4DC2A0
310
6D50FD148437D110834A64C6CDDF57FBACB5C307A2A477DFE4939736CFEF2B175371E0E10CF0DD1D5C15654E0BCA14D1E87DD02FF93782A162C0A3D95F1524A52770F972BF1EE9809D13CE7DD599467F8ECE9ADD85CE85A34CD45355448C64F9E8A031DC2D596ACC6E5DD93D9B82DE2EF5CAF81363A8E47996A0DE24564A79
310
4115AACE09C55E14540231FDA13C319787134EBF34E3A022514E5B4D9E0826E25C02D5805B15ABE1BEF51B26383D445DD9E875EE33FE4C22DA16427D65A3BCA92CA6D28DD01DF5DC53330704308475351050232CCD31583787BA75774AFB06E5070DD0C8EF484E19968C5D83BA5B90B244D31E54D55A372320FE4786B7EA58
310
44E135AA5467CB7EA333A61683CC6A8C3257034C10CF46F40EF9F5BE59BE5BD30C3C72D235E95D10345C1D45445A5F0BB47E46A5EBE5570F9380B5FA629579952296A773720405982B9DE04011506178964401AA8BDF1FBF0A8EAB6861DD6580C0E38217056766716DAEB2D6FA0917D3E4116581EADB879C4E7CFFB11EFACD
310
3D641311495D92C8676CB409A72D18610D803CE8A626049E8EC1887CB5B44CC39883690DDA8399B4B9855B481E7D71D4A9D22F96E5BB73BF5793020C02137BF837504B0304140006080000CC70623B000000000000000000000000350000006662782F36394639363044362D344446342D343946362D394244322D32343142
310
43333846323333332F76657274696365732E62696E504B0304140006080800CC70623BF270F1330600000004000000360000006662782F36394639363044362D344446342D343946362D394244322D3234314243333846323333332F747269616E676C65732E62696E636660600000504B0304140006080000CC70623B0000
310
00000000000000000000370000006662782F36394639363044362D344446342D343946362D394244322D3234314243333846323333332F617474726962757465732E62696E504B0304140006080800CC70623B08DA0BD19000000041010000360000006662782F36394639363044362D344446342D343946362D394244322D
310
3234314243333846323333332F6469726563746F72792E786D6C858F410AC3201045AF22B36F53E9A60B35CBEEBAE80D244E44489C6234F4F835464A48035D0DF398FF9F8AF63D0E6CC63039F212F8F9020C7D47C6792B21C5FE7403D62A1188E2E60C98D7234A5830286103A55745067B9D86B8A3CF9C7F90C11DE607FB14
310
4396D7B6A82D282E9A152AD114D5EF2CB866EEE831B8EEA07A7BB5A8D7D61A2BAAEB7FD5F70921FF497D00504B0304140006080800CC70623BCA768048FE000000A00100003B0000006662782F36394639363044362D344446342D343946362D394244322D3234314243333846323333332F7265736F75726365732F636F72
310
652E786D6C8D50596E833010BD0A9ADFCA60D600328E9AA639412F609909B1126CE4A5EAF16B0295DABFFECC8CDEA2797AECF8353F924FB44E193D409E5248504B332A3D0D10FC95B4901C39B3C6F85F3248B49871801506CE266BC2B243D2688FDA47549B11775038871E12F988C7004EDE7016A9083E2ADC3D5D84BC8B09
310
D33C8D74D471E6BC8D0192EDC93A815B742658898E651BCB59086ADC356A8C3FD555A1055ED7E7E254D615792D0F075295F585746FF53B694EE78A565DD736979A65AB9933AFE69F8CD2A2F038022F28ED489E135A7CE4554F9BBEA85E68DB53CAB255FEC71496F19FA6A0B42F8B3DEE6673C0F318E4497096AD7DC5F52C33
310
EEB55BFE0D504B010214000A0000080000CC70623B3DEE336E79000000790000001B00000000000000000000000000000000006175746F6465736B2D64657369676E2D7061636B6167652E786D6C504B01021400140006080800CC70623BD486FD9CA0000000F40000001300000000000000000000000000B20000005B436F
310
6E74656E745F54797065735D2E786D6C504B01021400140006080800CC70623BD9DDAED0EC0000007C010000080000000000000000000000000083010000636F72652E786D6C504B01021400140006080800CC70623B55019EA25F0000007C000000070000000000000000000000000095020000636E782E786D6C504B0102
310
1400140006080800CC70623BA24EB22D72010000D40300000C00000000000000000000000000190300006662782F636F72652E786D6C504B01021400140006080800CC70623B408A7D3B7C0000009D0000000B00000000000000000000000000B50400006662782F636E782E786D6C504B01021400140006080800CC70623B
310
449FB9BD290100001202000031000000000000000000000000005A0500006662782F36394639363044362D344446342D343946362D394244322D3234314243333846323333332F636F72652E786D6C504B01021400140006080800CC70623BAD7543B64E010000330300003000000000000000000000000000D20600006662
310
782F36394639363044362D344446342D343946362D394244322D3234314243333846323333332F636E782E786D6C504B01021400140006080800CC70623B8D05915C650500003B10000034000000000000000000000000006E0800006662782F36394639363044362D344446342D343946362D394244322D32343142433338
310
46323333332F6F626A656374732E786D6C504B01021400140006080000CC70623B0000000000000000000000003500000000000000000000000000250E00006662782F36394639363044362D344446342D343946362D394244322D3234314243333846323333332F76657274696365732E62696E504B010214001400060808
310
00CC70623BF270F13306000000040000003600000000000000000000000000780E00006662782F36394639363044362D344446342D343946362D394244322D3234314243333846323333332F747269616E676C65732E62696E504B01021400140006080000CC70623B00000000000000000000000037000000000000000000
310
00000000D20E00006662782F36394639363044362D344446342D343946362D394244322D3234314243333846323333332F617474726962757465732E62696E504B01021400140006080800CC70623B08DA0BD190000000410100003600000000000000000000000000270F00006662782F36394639363044362D344446342D
310
343946362D394244322D3234314243333846323333332F6469726563746F72792E786D6C504B01021400140006080800CC70623BCA768048FE000000A00100003B000000000000000000000000000B1000006662782F36394639363044362D344446342D343946362D394244322D3234314243333846323333332F7265736F
310
75726365732F636F72652E786D6C504B0506000000000E000E0080040000621100000000
  0
XRECORD
  5
176
102
{ACAD_REACTORS
330
173
102
}
330
173
100
AcDbXrecord
280
     1
270
     1
271
     1
  0
XRECORD
  5
177
102
{ACAD_REACTORS
330
173
102
}
330
173
100
AcDbXrecord
280
     1
270
     1
271
     1
  0
CELLSTYLEMAP
  5
5E1
102
{ACAD_REACTORS
330
162
102
}
330
162
100
AcDbCellStyleMap
 90
        3
300
CELLSTYLE
  1
TABLEFORMAT_BEGIN
 90
        5
170
     1
 91
        0
 92
    32768
 62
   257
 93
        1
300
CONTENTFORMAT
  1
CONTENTFORMAT_BEGIN
 90
        0
 91
        0
 92
      512
 93
        0
300

 40
0.0
140
1.0
 94
        5
 62
     0
340
11
144
6.0
309
CONTENTFORMAT_END
171
     1
301
MARGIN
  1
CELLMARGIN_BEGIN
 40
1.5
 40
1.5
 40
1.5
 40
1.5
 40
4.5
 40
4.5
309
CELLMARGIN_END
 94
        6
 95
        1
302
GRIDFORMAT
  1
GRIDFORMAT_BEGIN
 90
        0
 91
        1
 62
     0
 92
       -2
340
14
 93
        0
 40
1.125
309
GRIDFORMAT_END
 95
        2
302
GRIDFORMAT
  1
GRIDFORMAT_BEGIN
 90
        0
 91
        1
 62
     0
 92
       -2
340
14
 93
        0
 40
1.125
309
GRIDFORMAT_END
 95
        4
302
GRIDFORMAT
  1
GRIDFORMAT_BEGIN
 90
        0
 91
        1
 62
     0
 92
       -2
340
14
 93
        0
 40
1.125
309
GRIDFORMAT_END
 95
        8
302
GRIDFORMAT
  1
GRIDFORMAT_BEGIN
 90
        0
 91
        1
 62
     0
 92
       -2
340
14
 93
        0
 40
1.125
309
GRIDFORMAT_END
 95
       16
302
GRIDFORMAT
  1
GRIDFORMAT_BEGIN
 90
        0
 91
        1
 62
     0
 92
       -2
340
14
 93
        0
 40
1.125
309
GRIDFORMAT_END
 95
       32
302
GRIDFORMAT
  1
GRIDFORMAT_BEGIN
 90
        0
 91
        1
 62
     0
 92
       -2
340
14
 93
        0
 40
1.125
309
GRIDFORMAT_END
309
TABLEFORMAT_END
  1
CELLSTYLE_BEGIN
 90
        1
 91
        1
300
_TITLE
309
CELLSTYLE_END
300
CELLSTYLE
  1
TABLEFORMAT_BEGIN
 90
        5
170
     1
 91
        0
 92
        0
 62
   257
 93
        1
300
CONTENTFORMAT
  1
CONTENTFORMAT_BEGIN
 90
        0
 91
        0
 92
      512
 93
        0
300

 40
0.0
140
1.0
 94
        5
 62
     0
340
11
144
4.5
309
CONTENTFORMAT_END
171
     1
301
MARGIN
  1
CELLMARGIN_BEGIN
 40
1.5
 40
1.5
 40
1.5
 40
1.5
 40
4.5
 40
4.5
309
CELLMARGIN_END
 94
        6
 95
        1
302
GRIDFORMAT
  1
GRIDFORMAT_BEGIN
 90
        0
 91
        1
 62
     0
 92
       -2
340
14
 93
        0
 40
1.125
309
GRIDFORMAT_END
 95
        2
302
GRIDFORMAT
  1
GRIDFORMAT_BEGIN
 90
        0
 91
        1
 62
     0
 92
       -2
340
14
 93
        0
 40
1.125
309
GRIDFORMAT_END
 95
        4
302
GRIDFORMAT
  1
GRIDFORMAT_BEGIN
 90
        0
 91
        1
 62
     0
 92
       -2
340
14
 93
        0
 40
1.125
309
GRIDFORMAT_END
 95
        8
302
GRIDFORMAT
  1
GRIDFORMAT_BEGIN
 90
        0
 91
        1
 62
     0
 92
       -2
340
14
 93
        0
 40
1.125
309
GRIDFORMAT_END
 95
       16
302
GRIDFORMAT
  1
GRIDFORMAT_BEGIN
 90
        0
 91
        1
 62
     0
 92
       -2
340
14
 93
        0
 40
1.125
309
GRIDFORMAT_END
 95
       32
302
GRIDFORMAT
  1
GRIDFORMAT_BEGIN
 90
        0
 91
        1
 62
     0
 92
       -2
340
14
 93
        0
 40
1.125
309
GRIDFORMAT_END
309
TABLEFORMAT_END
  1
CELLSTYLE_BEGIN
 90
        2
 91
        1
300
_HEADER
309
CELLSTYLE_END
300
CELLSTYLE
  1
TABLEFORMAT_BEGIN
 90
        5
170
     1
 91
        0
 92
        0
 62
   257
 93
        1
300
CONTENTFORMAT
  1
CONTENTFORMAT_BEGIN
 90
        0
 91
        0
 92
      512
 93
        0
300

 40
0.0
140
1.0
 94
        2
 62
     0
340
11
144
4.5
309
CONTENTFORMAT_END
171
     1
301
MARGIN
  1
CELLMARGIN_BEGIN
 40
1.5
 40
1.5
 40
1.5
 40
1.5
 40
4.5
 40
4.5
309
CELLMARGIN_END
 94
        6
 95
        1
302
GRIDFORMAT
  1
GRIDFORMAT_BEGIN
 90
        0
 91
        1
 62
     0
 92
       -2
340
14
 93
        0
 40
1.125
309
GRIDFORMAT_END
 95
        2
302
GRIDFORMAT
  1
GRIDFORMAT_BEGIN
 90
        0
 91
        1
 62
     0
 92
       -2
340
14
 93
        0
 40
1.125
309
GRIDFORMAT_END
 95
        4
302
GRIDFORMAT
  1
GRIDFORMAT_BEGIN
 90
        0
 91
        1
 62
     0
 92
       -2
340
14
 93
        0
 40
1.125
309
GRIDFORMAT_END
 95
        8
302
GRIDFORMAT
  1
GRIDFORMAT_BEGIN
 90
        0
 91
        1
 62
     0
 92
       -2
340
14
 93
        0
 40
1.125
309
GRIDFORMAT_END
 95
       16
302
GRIDFORMAT
  1
GRIDFORMAT_BEGIN
 90
        0
 91
        1
 62
     0
 92
       -2
340
14
 93
        0
 40
1.125
309
GRIDFORMAT_END
 95
       32
302
GRIDFORMAT
  1
GRIDFORMAT_BEGIN
 90
        0
 91
        1
 62
     0
 92
       -2
340
14
 93
        0
 40
1.125
309
GRIDFORMAT_END
309
TABLEFORMAT_END
  1
CELLSTYLE_BEGIN
 90
        3
 91
        2
300
_DATA
309
CELLSTYLE_END
  0
ENDSEC
  0
SECTION
  2
ACDSDATA
 70
     2
 71
     8
  0
ACDSSCHEMA
 90
        0
  1
AcDb_Thumbnail_Schema
  2
AcDbDs::ID
280
    10
 91
        8
  2
Thumbnail_Data
280
    15
 91
        0
101
ACDSRECORD
 95
        0
 90
        1
  2
AcDbDs::TreatedAsObjectData
280
     1
291
     1
101
ACDSRECORD
 95
        0
 90
        2
  2
AcDbDs::Legacy
280
     1
291
     1
101
ACDSRECORD
  1
AcDbDs::ID
 90
        3
  2
AcDs:Indexable
280
     1
291
     1
101
ACDSRECORD
  1
AcDbDs::ID
 90
        4
  2
AcDbDs::HandleAttribute
280
     7
282
     1
  0
ACDSSCHEMA
 90
        1
  1
AcDbDs::TreatedAsObjectDataSchema
  2
AcDbDs::TreatedAsObjectData
280
     1
 91
        0
  0
ACDSSCHEMA
 90
        2
  1
AcDbDs::LegacySchema
  2
AcDbDs::Legacy
280
     1
 91
        0
  0
ACDSSCHEMA
 90
        3
  1
AcDbDs::IndexedPropertySchema
  2
AcDs:Indexable
280
     1
 91
        0
  0
ACDSSCHEMA
 90
        4
  1
AcDbDs::HandleAttributeSchema
  2
AcDbDs::HandleAttribute
280
     7
 91
        1
284
     1
  0
ACDSRECORD
 90
        0
  2
AcDbDs::ID
280
    10
320
22
  2
Thumbnail_Data
280
    15
 94
     1103
310
89504E470D0A1A0A0000000D49484452000000CC000001000803000000C8A169BB00000300504C5445212830FFFFFF2128300000000000000000000000000000000000000000000000000000330000660000990000CC0000FF0033000033330033660033990033CC0033FF0066000066330066660066990066CC0066FF0099
310
000099330099660099990099CC0099FF00CC0000CC3300CC6600CC9900CCCC00CCFF00FF0000FF3300FF6600FF9900FFCC00FFFF3300003300333300663300993300CC3300FF3333003333333333663333993333CC3333FF3366003366333366663366993366CC3366FF3399003399333399663399993399CC3399FF33CC00
310
33CC3333CC6633CC9933CCCC33CCFF33FF0033FF3333FF6633FF9933FFCC33FFFF6600006600336600666600996600CC6600FF6633006633336633666633996633CC6633FF6666006666336666666666996666CC6666FF6699006699336699666699996699CC6699FF66CC0066CC3366CC6666CC9966CCCC66CCFF66FF0066
310
FF3366FF6666FF9966FFCC66FFFF9900009900339900669900999900CC9900FF9933009933339933669933999933CC9933FF9966009966339966669966999966CC9966FF9999009999339999669999999999CC9999FF99CC0099CC3399CC6699CC9999CCCC99CCFF99FF0099FF3399FF6699FF9999FFCC99FFFFCC0000CC00
310
33CC0066CC0099CC00CCCC00FFCC3300CC3333CC3366CC3399CC33CCCC33FFCC6600CC6633CC6666CC6699CC66CCCC66FFCC9900CC9933CC9966CC9999CC99CCCC99FFCCCC00CCCC33CCCC66CCCC99CCCCCCCCCCFFCCFF00CCFF33CCFF66CCFF99CCFFCCCCFFFFFF0000FF0033FF0066FF0099FF00CCFF00FFFF3300FF3333
310
FF3366FF3399FF33CCFF33FFFF6600FF6633FF6666FF6699FF66CCFF66FFFF9900FF9933FF9966FF9999FF99CCFF99FFFFCC00FFCC33FFCC66FFCC99FFCCCCFFCCFFFFFF00FFFF33FFFF66FFFF99FFFFCCFFFFFF0000000D0D0D1A1A1A2828283535354343435050505D5D5D6B6B6B787878868686939393A1A1A1AEAEAEBB
310
BBBBC9C9C9D6D6D6E4E4E4F1F1F1FFFFFF0000000000000000000000000000000000000000000000000000000000002E4550F10000010A4944415478DAEDD7BBB183301040515AA08BEDBF804D54D3CB9F3018FC0B1C7A77CE49F010F98E3E48CB020000000000000000000000000000000000000000000000000000000000
310
00000000000000000000D0447EF5AA4ACC07627E2325628C311F99F319118563228F6512E7BBA81B13AF31513C66CEAC381BA2FCC86C3FA24D4C9CFB58F9982D61FEBAD5548D996331DEFEFA10F31331EF93AAC19AE915B3AE6BA391D963B245CCDFB41FCDEAC61CA7E6ED33B33FB3F04133E325260A5FCEBEBC4A178EC94E
310
639175D77F6CB7E6C78DA0EC84BA9DC4C671AE196379B872165C1DE7E5EC3EB73AC464F5983C62B253CCB57F9D2F0A4FB3161F997D6B7E56B8E552B602000000002EFF4EA7B3E3B03F08440000000049454E44AE426082
  0
ENDSEC
  0
EOF
